  0
SECTION
  2
HEADER
  9
$ACADVER
  1
AC1015
  9
$ACADMAINTVER
 70
     6
  9
$DWGCODEPAGE
  3
ANSI_1252
  9
$INSBASE
 10
0.0
 20
0.0
 30
0.0
  9
$EXTMIN
 10
0.0
 20
0.0
 30
0.0
  9
$EXTMAX
 10
21.0
 20
29.7
 30
0.0
  9
$LIMMIN
 10
0.0
 20
0.0
  9
$LIMMAX
 10
21.0
 20
29.7
  9
$ORTHOMODE
 70
     0
  9
$REGENMODE
 70
     1
  9
$FILLMODE
 70
     1
  9
$QTEXTMODE
 70
     0
  9
$MIRRTEXT
 70
     1
  9
$LTSCALE
 40
1.0
  9
$ATTMODE
 70
     1
  9
$TEXTSIZE
 40
0.35
  9
$TRACEWID
 40
1.0
  9
$TEXTSTYLE
  7
Standard
  9
$CLAYER
  8
0
  9
$CELTYPE
  6
ByLayer
  9
$CECOLOR
 62
   256
  9
$CELTSCALE
 40
1.0
  9
$DISPSILH
 70
     0
  9
$DIMSCALE
 40
1.0
  9
$DIMASZ
 40
0.3556
  9
$DIMEXO
 40
0.1
  9
$DIMDLI
 40
3.75
  9
$DIMRND
 40
0.0
  9
$DIMDLE
 40
0.0
  9
$DIMEXE
 40
0.1
  9
$DIMTP
 40
0.0
  9
$DIMTM
 40
0.0
  9
$DIMTXT
 40
0.35
  9
$DIMCEN
 40
2.5
  9
$DIMTSZ
 40
0.0
  9
$DIMTOL
 70
     0
  9
$DIMLIM
 70
     0
  9
$DIMTIH
 70
     1
  9
$DIMTOH
 70
     1
  9
$DIMSE1
 70
     0
  9
$DIMSE2
 70
     0
  9
$DIMTAD
 70
     1
  9
$DIMZIN
 70
     0
  9
$DIMBLK
  1

  9
$DIMASO
 70
     1
  9
$DIMSHO
 70
     1
  9
$DIMPOST
  1

  9
$DIMAPOST
  1

  9
$DIMALT
 70
     0
  9
$DIMALTD
 70
     3
  9
$DIMALTF
 40
0.3937007874
  9
$DIMLFAC
 40
50.0
  9
$DIMTOFL
 70
     1
  9
$DIMTVP
 40
0.0
  9
$DIMTIX
 70
     0
  9
$DIMSOXD
 70
     0
  9
$DIMSAH
 70
     0
  9
$DIMBLK1
  1

  9
$DIMBLK2
  1

  9
$DIMSTYLE
  2
ISO-25
  9
$DIMCLRD
 70
     0
  9
$DIMCLRE
 70
     0
  9
$DIMCLRT
 70
     0
  9
$DIMTFAC
 40
1.0
  9
$DIMGAP
 40
0.1524
  9
$DIMJUST
 70
     0
  9
$DIMSD1
 70
     0
  9
$DIMSD2
 70
     0
  9
$DIMTOLJ
 70
     0
  9
$DIMTZIN
 70
     0
  9
$DIMALTZ
 70
     0
  9
$DIMALTTZ
 70
     0
  9
$DIMUPT
 70
     0
  9
$DIMDEC
 70
     0
  9
$DIMTDEC
 70
     0
  9
$DIMALTU
 70
     2
  9
$DIMALTTD
 70
     3
  9
$DIMTXSTY
  7
Standard
  9
$DIMAUNIT
 70
     0
  9
$DIMADEC
 70
     2
  9
$DIMALTRND
 40
0.0
  9
$DIMAZIN
 70
     0
  9
$DIMDSEP
 70
    44
  9
$DIMATFIT
 70
     3
  9
$DIMFRAC
 70
     0
  9
$DIMLDRBLK
  1

  9
$DIMLUNIT
 70
     2
  9
$DIMLWD
 70
    -2
  9
$DIMLWE
 70
    -2
  9
$DIMTMOVE
 70
     0
  9
$LUNITS
 70
     2
  9
$LUPREC
 70
     0
  9
$SKETCHINC
 40
1.0
  9
$FILLETRAD
 40
10.0
  9
$AUNITS
 70
     0
  9
$AUPREC
 70
     2
  9
$MENU
  1
.
  9
$ELEVATION
 40
0.0
  9
$PELEVATION
 40
0.0
  9
$THICKNESS
 40
0.0
  9
$LIMCHECK
 70
     0
  9
$CHAMFERA
 40
10.0
  9
$CHAMFERB
 40
10.0
  9
$CHAMFERC
 40
20.0
  9
$CHAMFERD
 40
0.0
  9
$SKPOLY
 70
     0
  9
$TDCREATE
 40
2455834.635975845
  9
$TDUCREATE
 40
2455834.552642512
  9
$TDUPDATE
 40
2455834.635975856
  9
$TDUUPDATE
 40
2455834.552642523
  9
$TDINDWG
 40
0.0000000116
  9
$TDUSRTIMER
 40
0.0000000116
  9
$USRTIMER
 70
     1
  9
$ANGBASE
 50
0.0
  9
$ANGDIR
 70
     0
  9
$PDMODE
 70
     0
  9
$PDSIZE
 40
-1.0
  9
$PLINEWID
 40
0.0
  9
$SPLFRAME
 70
     0
  9
$SPLINETYPE
 70
     6
  9
$SPLINESEGS
 70
     8
  9
$HANDSEED
  5
114
  9
$SURFTAB1
 70
     6
  9
$SURFTAB2
 70
     6
  9
$SURFTYPE
 70
     6
  9
$SURFU
 70
     6
  9
$SURFV
 70
     6
  9
$UCSBASE
  2

  9
$UCSNAME
  2

  9
$UCSORG
 10
0.0
 20
0.0
 30
0.0
  9
$UCSXDIR
 10
1.0
 20
0.0
 30
0.0
  9
$UCSYDIR
 10
0.0
 20
1.0
 30
0.0
  9
$UCSORTHOREF
  2

  9
$UCSORTHOVIEW
 70
     0
  9
$UCSORGTOP
 10
0.0
 20
0.0
 30
0.0
  9
$UCSORGBOTTOM
 10
0.0
 20
0.0
 30
0.0
  9
$UCSORGLEFT
 10
0.0
 20
0.0
 30
0.0
  9
$UCSORGRIGHT
 10
0.0
 20
0.0
 30
0.0
  9
$UCSORGFRONT
 10
0.0
 20
0.0
 30
0.0
  9
$UCSORGBACK
 10
0.0
 20
0.0
 30
0.0
  9
$PUCSBASE
  2

  9
$PUCSNAME
  2

  9
$PUCSORG
 10
0.0
 20
0.0
 30
0.0
  9
$PUCSXDIR
 10
1.0
 20
0.0
 30
0.0
  9
$PUCSYDIR
 10
0.0
 20
1.0
 30
0.0
  9
$PUCSORTHOREF
  2

  9
$PUCSORTHOVIEW
 70
     0
  9
$PUCSORGTOP
 10
0.0
 20
0.0
 30
0.0
  9
$PUCSORGBOTTOM
 10
0.0
 20
0.0
 30
0.0
  9
$PUCSORGLEFT
 10
0.0
 20
0.0
 30
0.0
  9
$PUCSORGRIGHT
 10
0.0
 20
0.0
 30
0.0
  9
$PUCSORGFRONT
 10
0.0
 20
0.0
 30
0.0
  9
$PUCSORGBACK
 10
0.0
 20
0.0
 30
0.0
  9
$USERI1
 70
     0
  9
$USERI2
 70
     0
  9
$USERI3
 70
     0
  9
$USERI4
 70
     0
  9
$USERI5
 70
     0
  9
$USERR1
 40
0.0
  9
$USERR2
 40
0.0
  9
$USERR3
 40
0.0
  9
$USERR4
 40
0.0
  9
$USERR5
 40
0.0
  9
$WORLDVIEW
 70
     1
  9
$SHADEDGE
 70
     3
  9
$SHADEDIF
 70
    70
  9
$TILEMODE
 70
     1
  9
$MAXACTVP
 70
    64
  9
$PINSBASE
 10
0.0
 20
0.0
 30
0.0
  9
$PLIMCHECK
 70
     0
  9
$PEXTMIN
 10
1.0000000000E+20
 20
1.0000000000E+20
 30
1.0000000000E+20
  9
$PEXTMAX
 10
-1.0000000000E+20
 20
-1.0000000000E+20
 30
-1.0000000000E+20
  9
$PLIMMIN
 10
0.0
 20
0.0
  9
$PLIMMAX
 10
420.0
 20
297.0
  9
$UNITMODE
 70
     0
  9
$VISRETAIN
 70
     1
  9
$PLINEGEN
 70
     0
  9
$PSLTSCALE
 70
     1
  9
$TREEDEPTH
 70
  3020
  9
$CMLSTYLE
  2
Standard
  9
$CMLJUST
 70
     0
  9
$CMLSCALE
 40
20.0
  9
$PROXYGRAPHICS
 70
     1
  9
$MEASUREMENT
 70
     1
  9
$CELWEIGHT
370
    -1
  9
$ENDCAPS
280
     0
  9
$JOINSTYLE
280
     0
  9
$LWDISPLAY
290
     1
  9
$INSUNITS
 70
     4
  9
$HYPERLINKBASE
  1

  9
$STYLESHEET
  1

  9
$XEDIT
290
     1
  9
$CEPSNTYPE
380
     0
  9
$PSTYLEMODE
290
     1
  9
$FINGERPRINTGUID
  2
{E5E25B97-A29D-4EBD-BA72-686369E9A258}
  9
$VERSIONGUID
  2
{FAEB1C32-E019-11D5-929B-00C0DF256EC4}
  9
$EXTNAMES
290
     1
  9
$PSVPSCALE
 40
0.0
  9
$OLESTARTUP
290
     0
  0
ENDSEC
  0
SECTION
  2
CLASSES
  0
CLASS
  1
ACDBDICTIONARYWDFLT
  2
AcDbDictionaryWithDefault
  3
ObjectDBX Classes
 90
        0
280
     0
281
     0
  0
CLASS
  1
VISUALSTYLE
  2
AcDbVisualStyle
  3
ObjectDBX Classes
 90
     4095
280
     0
281
     0
  0
CLASS
  1
MATERIAL
  2
AcDbMaterial
  3
ObjectDBX Classes
 90
     1153
280
     0
281
     0
  0
CLASS
  1
ACDBPLACEHOLDER
  2
AcDbPlaceHolder
  3
ObjectDBX Classes
 90
        0
280
     0
281
     0
  0
CLASS
  1
LAYOUT
  2
AcDbLayout
  3
ObjectDBX Classes
 90
        0
280
     0
281
     0
  0
ENDSEC
  0
SECTION
  2
TABLES
  0
TABLE
  2
VPORT
  5
8
330
0
100
AcDbSymbolTable
 70
     1
  0
VPORT
  5
29
330
8
100
AcDbSymbolTableRecord
100
AcDbViewportTableRecord
  2
*Active
 70
     0
 10
0.0
 20
0.0
 11
1.0
 21
1.0
 12
10.5
 22
14.85
 13
0.0
 23
0.0
 14
10.0
 24
10.0
 15
10.0
 25
10.0
 16
0.0
 26
0.0
 36
1.0
 17
0.0
 27
0.0
 37
0.0
 40
29.7
 41
0.7070707071
 42
50.0
 43
0.0
 44
0.0
 50
0.0
 51
0.0
 71
     0
 72
  2000
 73
     1
 74
     3
 75
     0
 76
     0
 77
     0
 78
     0
281
     0
 65
     1
110
0.0
120
0.0
130
0.0
111
1.0
121
0.0
131
0.0
112
0.0
122
1.0
132
0.0
 79
     0
146
0.0
  0
ENDTAB
  0
TABLE
  2
LTYPE
  5
5
330
0
100
AcDbSymbolTable
 70
     6
  0
LTYPE
  5
14
330
5
100
AcDbSymbolTableRecord
100
AcDbLinetypeTableRecord
  2
ByBlock
 70
     0
  3

 72
    65
 73
     0
 40
0.0
  0
LTYPE
  5
15
330
5
100
AcDbSymbolTableRecord
100
AcDbLinetypeTableRecord
  2
ByLayer
 70
     0
  3

 72
    65
 73
     0
 40
0.0
  0
LTYPE
  5
16
330
5
100
AcDbSymbolTableRecord
100
AcDbLinetypeTableRecord
  2
Continuous
 70
     0
  3
Solid line
 72
    65
 73
     0
 40
0.0
  0
LTYPE
  5
3F
330
5
100
AcDbSymbolTableRecord
100
AcDbLinetypeTableRecord
  2
HIDDEN
 70
     0
  3
Hidden __ __ __ __ __ __ __ __ __ __ __ __ __ __
 72
    65
 73
     2
 40
0.1905
 49
0.127
 74
     0
 49
-0.0635
 74
     0
  0
LTYPE
  5
40
330
5
100
AcDbSymbolTableRecord
100
AcDbLinetypeTableRecord
  2
PHANTOM
 70
     0
  3
Phantom ______  __  __  ______  __  __  ______
 72
    65
 73
     6
 40
1.27
 49
0.635
 74
     0
 49
-0.127
 74
     0
 49
0.127
 74
     0
 49
-0.127
 74
     0
 49
0.127
 74
     0
 49
-0.127
 74
     0
  0
LTYPE
  5
41
330
5
100
AcDbSymbolTableRecord
100
AcDbLinetypeTableRecord
  2
CENTER
 70
     0
  3
Center ____ _ ____ _ ____ _ ____ _ ____ _ ____
 72
    65
 73
     4
 40
1.016
 49
0.635
 74
     0
 49
-0.127
 74
     0
 49
0.127
 74
     0
 49
-0.127
 74
     0
  0
LTYPE
  5
42
330
5
100
AcDbSymbolTableRecord
100
AcDbLinetypeTableRecord
  2
CENTERX2
 70
     0
  3
Center (2x) ________  __  ________  __  _____
 72
    65
 73
     4
 40
2.032
 49
1.27
 74
     0
 49
-0.254
 74
     0
 49
0.254
 74
     0
 49
-0.254
 74
     0
  0
LTYPE
  5
43
330
5
100
AcDbSymbolTableRecord
100
AcDbLinetypeTableRecord
  2
DOT2
 70
     0
  3
Dot (.5x) ........................................
 72
    65
 73
     2
 40
0.0635
 49
0.0
 74
     0
 49
-0.0635
 74
     0
  0
ENDTAB
  0
TABLE
  2
LAYER
  5
2
330
0
100
AcDbSymbolTable
 70
     2
  0
LAYER
  5
10
330
2
100
AcDbSymbolTableRecord
100
AcDbLayerTableRecord
  2
0
 70
     0
 62
     7
  6
Continuous
370
    -3
390
F
  0
LAYER
  5
44
330
2
100
AcDbSymbolTableRecord
100
AcDbLayerTableRecord
  2
FORMAT
 70
     0
 62
     7
  6
Continuous
370
    -3
390
F
  0
ENDTAB
  0
TABLE
  2
STYLE
  5
3
330
0
100
AcDbSymbolTable
 70
     3
  0
STYLE
  5
11
330
3
100
AcDbSymbolTableRecord
100
AcDbTextStyleTableRecord
  2
Standard
 70
     0
 40
0.0
 41
1.0
 50
0.0
 71
     0
 42
2.5
  3
txt
  4

  0
STYLE
  5
68
330
3
100
AcDbSymbolTableRecord
100
AcDbTextStyleTableRecord
  2
SLDTEXTSTYLE0
 70
     0
 40
0.0
 41
0.75
 50
0.0
 71
     0
 42
0.2
  3
TXT
  4

  0
STYLE
  5
6F
330
3
100
AcDbSymbolTableRecord
100
AcDbTextStyleTableRecord
  2
SLDTEXTSTYLE1
 70
     0
 40
0.0
 41
0.6923076923
 50
0.0
 71
     0
 42
0.2
  3
TXT
  4

  0
ENDTAB
  0
TABLE
  2
VIEW
  5
6
330
0
100
AcDbSymbolTable
 70
     0
  0
ENDTAB
  0
TABLE
  2
UCS
  5
7
330
0
100
AcDbSymbolTable
 70
     0
  0
ENDTAB
  0
TABLE
  2
APPID
  5
9
330
0
100
AcDbSymbolTable
 70
     1
  0
APPID
  5
12
330
9
100
AcDbSymbolTableRecord
100
AcDbRegAppTableRecord
  2
ACAD
 70
     0
  0
ENDTAB
  0
TABLE
  2
DIMSTYLE
  5
A
330
0
100
AcDbSymbolTable
 70
     3
100
AcDbDimStyleTable
  0
DIMSTYLE
105
27
330
A
100
AcDbSymbolTableRecord
100
AcDbDimStyleTableRecord
  2
ISO-25
 70
     0
 41
2.5
 42
0.625
 43
3.75
 44
1.25
 73
     0
 74
     0
 77
     1
 78
     8
140
2.5
141
2.5
143
0.0393700787
147
0.625
171
     3
172
     1
178
     0
271
     2
272
     2
274
     3
278
    44
283
     0
284
     8
340
11
  0
DIMSTYLE
105
B0
102
{ACAD_REACTORS
330
AF
330
FD
102
}
330
A
100
AcDbSymbolTableRecord
100
AcDbDimStyleTableRecord
  2
SLDDIMSTYLE0
 70
     0
 41
0.3556
 44
0.0
 45
0.000000001
 73
     0
 74
     0
 77
     1
 78
    12
 79
     3
140
0.35
143
0.3937007874
144
50.0
147
0.0875
148
0.000000001
170
     1
171
     0
173
     1
178
     0
271
     0
272
     0
274
     0
276
     2
284
    12
340
68
341
B1
343
B1
344
B1
  0
DIMSTYLE
105
CF
102
{ACAD_REACTORS
330
CE
102
}
330
A
100
AcDbSymbolTableRecord
100
AcDbDimStyleTableRecord
  2
SLDDIMSTYLE1
 70
     0
 41
0.3556
 44
0.0
 45
0.000000001
 73
     0
 74
     0
 77
     1
 78
    12
 79
     3
140
0.35
143
0.3937007874
144
50.0
147
0.0875
148
0.000000001
170
     1
171
     0
172
     1
173
     1
178
     0
271
     0
272
     0
274
     0
276
     2
284
    12
289
     0
340
68
341
B1
343
B1
344
B1
  0
ENDTAB
  0
TABLE
  2
BLOCK_RECORD
  5
1
330
0
100
AcDbSymbolTable
 70
     7
  0
BLOCK_RECORD
  5
1F
330
1
100
AcDbSymbolTableRecord
100
AcDbBlockTableRecord
  2
*Model_Space
340
22
  0
BLOCK_RECORD
  5
1B
330
1
100
AcDbSymbolTableRecord
100
AcDbBlockTableRecord
  2
*Paper_Space
340
1E
  0
BLOCK_RECORD
  5
23
330
1
100
AcDbSymbolTableRecord
100
AcDbBlockTableRecord
  2
*Paper_Space0
340
26
  0
BLOCK_RECORD
  5
7A
330
1
100
AcDbSymbolTableRecord
100
AcDbBlockTableRecord
  2
SW_NOTE_0
340
0
102
{BLKREFS
331
80
102
}
  0
BLOCK_RECORD
  5
82
330
1
100
AcDbSymbolTableRecord
100
AcDbBlockTableRecord
  2
SW_NOTE_1
340
0
102
{BLKREFS
331
8B
102
}
  0
BLOCK_RECORD
  5
B1
330
1
100
AcDbSymbolTableRecord
100
AcDbBlockTableRecord
  2
_CLOSED
340
0
102
{BLKREFS
331
BB
331
BC
331
D3
331
D4
331
101
331
102
102
}
  0
BLOCK_RECORD
  5
B8
330
1
100
AcDbSymbolTableRecord
100
AcDbBlockTableRecord
  2
*D4
340
0
  0
BLOCK_RECORD
  5
D0
330
1
100
AcDbSymbolTableRecord
100
AcDbBlockTableRecord
  2
*D5
340
0
  0
BLOCK_RECORD
  5
FE
330
1
100
AcDbSymbolTableRecord
100
AcDbBlockTableRecord
  2
*D6
340
0
  0
ENDTAB
  0
ENDSEC
  0
SECTION
  2
BLOCKS
  0
BLOCK
  5
20
330
1F
100
AcDbEntity
  8
0
100
AcDbBlockBegin
  2
*Model_Space
 70
     0
 10
0.0
 20
0.0
 30
0.0
  3
*Model_Space
  1

  0
ENDBLK
  5
21
330
1F
100
AcDbEntity
  8
0
100
AcDbBlockEnd
  0
BLOCK
  5
1C
330
1B
100
AcDbEntity
 67
     1
  8
0
100
AcDbBlockBegin
  2
*Paper_Space
 70
     0
 10
0.0
 20
0.0
 30
0.0
  3
*Paper_Space
  1

  0
ENDBLK
  5
1D
330
1B
100
AcDbEntity
 67
     1
  8
0
100
AcDbBlockEnd
  0
BLOCK
  5
24
330
23
100
AcDbEntity
  8
0
100
AcDbBlockBegin
  2
*Paper_Space0
 70
     0
 10
0.0
 20
0.0
 30
0.0
  3
*Paper_Space0
  1

  0
ENDBLK
  5
25
330
23
100
AcDbEntity
  8
0
100
AcDbBlockEnd
  0
BLOCK
  5
7B
330
7A
100
AcDbEntity
  8
0
100
AcDbBlockBegin
  2
SW_NOTE_0
 70
     0
 10
0.0
 20
0.0
 30
0.0
  3
SW_NOTE_0
  1

  0
MTEXT
  5
7D
330
7A
100
AcDbEntity
  8
0
  6
Continuous
 62
     0
370
     0
100
AcDbMText
 10
0.0
 20
0.193360161
 30
0.0
 40
0.15
 41
0.0
 71
     1
 72
     1
  1
SBAVATURA E
  7
SLDTEXTSTYLE0
 73
     1
 44
1.0
  0
MTEXT
  5
7E
330
7A
100
AcDbEntity
  8
0
  6
Continuous
 62
     0
370
     0
100
AcDbMText
 10
0.0
 20
-0.0566398334
 30
0.0
 40
0.15
 41
0.0
 71
     1
 72
     1
  1
INTERRUZIONE DEI
  7
SLDTEXTSTYLE0
 73
     1
 44
1.0
  0
MTEXT
  5
7F
330
7A
100
AcDbEntity
  8
0
  6
Continuous
 62
     0
370
     0
100
AcDbMText
 10
0.0
 20
-0.3066398279
 30
0.0
 40
0.15
 41
0.0
 71
     1
 72
     1
  1
BORDI NETTI
  7
SLDTEXTSTYLE0
 73
     1
 44
1.0
  0
ENDBLK
  5
7C
330
7A
100
AcDbEntity
  8
0
100
AcDbBlockEnd
  0
BLOCK
  5
83
330
82
100
AcDbEntity
  8
0
100
AcDbBlockBegin
  2
SW_NOTE_1
 70
     0
 10
0.0
 20
0.0
 30
0.0
  3
SW_NOTE_1
  1

  0
MTEXT
  5
85
330
82
100
AcDbEntity
  8
0
  6
Continuous
 62
     0
370
     0
100
AcDbMText
 10
0.0
 20
0.193360161
 30
0.0
 40
0.15
 41
0.0
 71
     1
 72
     1
  1
SE NON SPECIFICATO:
  7
SLDTEXTSTYLE0
 73
     1
 44
1.0
  0
MTEXT
  5
86
330
82
100
AcDbEntity
  8
0
  6
Continuous
 62
     0
370
     0
100
AcDbMText
 10
0.0
 20
-0.0566398334
 30
0.0
 40
0.15
 41
0.0
 71
     1
 72
     1
  1
QUOTE IN MILLIMETRI
  7
SLDTEXTSTYLE0
 73
     1
 44
1.0
  0
MTEXT
  5
87
330
82
100
AcDbEntity
  8
0
  6
Continuous
 62
     0
370
     0
100
AcDbMText
 10
0.0
 20
-0.3066398279
 30
0.0
 40
0.15
 41
0.0
 71
     1
 72
     1
  1
FINITURA SUPERFICIE:
  7
SLDTEXTSTYLE0
 73
     1
 44
1.0
  0
MTEXT
  5
88
330
82
100
AcDbEntity
  8
0
  6
Continuous
 62
     0
370
     0
100
AcDbMText
 10
0.0
 20
-0.5566398223
 30
0.0
 40
0.15
 41
0.0
 71
     1
 72
     1
  1
TOLLERANZE:
  7
SLDTEXTSTYLE0
 73
     1
 44
1.0
  0
MTEXT
  5
89
330
82
100
AcDbEntity
  8
0
  6
Continuous
 62
     0
370
     0
100
AcDbMText
 10
0.16875
 20
-0.8066398167
 30
0.0
 40
0.15
 41
0.0
 71
     1
 72
     1
  1
LINEARE:
  7
SLDTEXTSTYLE0
 73
     1
 44
1.0
  0
MTEXT
  5
8A
330
82
100
AcDbEntity
  8
0
  6
Continuous
 62
     0
370
     0
100
AcDbMText
 10
0.16875
 20
-1.0566398111
 30
0.0
 40
0.15
 41
0.0
 71
     1
 72
     1
  1
ANGOLARE:
  7
SLDTEXTSTYLE0
 73
     1
 44
1.0
  0
ENDBLK
  5
84
330
82
100
AcDbEntity
  8
0
100
AcDbBlockEnd
  0
BLOCK
  5
B2
330
B1
100
AcDbEntity
  8
0
100
AcDbBlockBegin
  2
_CLOSED
 70
     0
 10
0.0
 20
0.0
 30
0.0
  3
_CLOSED
  1

  0
LINE
  5
B4
330
B1
100
AcDbEntity
  8
0
  6
ByBlock
 62
     0
370
    -2
100
AcDbLine
 10
-1.0
 20
0.166667
 30
0.0
 11
0.0
 21
0.0
 31
0.0
  0
LINE
  5
B5
330
B1
100
AcDbEntity
  8
0
  6
ByBlock
 62
     0
370
    -2
100
AcDbLine
 10
0.0
 20
0.0
 30
0.0
 11
-1.0
 21
-0.166667
 31
0.0
  0
LINE
  5
B6
330
B1
100
AcDbEntity
  8
0
  6
ByBlock
 62
     0
370
    -2
100
AcDbLine
 10
-1.0
 20
0.166667
 30
0.0
 11
-1.0
 21
-0.166667
 31
0.0
  0
LINE
  5
B7
330
B1
100
AcDbEntity
  8
0
  6
ByBlock
 62
     0
370
    -2
100
AcDbLine
 10
0.0
 20
0.0
 30
0.0
 11
-1.0
 21
0.0
 31
0.0
  0
ENDBLK
  5
B3
330
B1
100
AcDbEntity
  8
0
100
AcDbBlockEnd
  0
BLOCK
  5
B9
330
B8
100
AcDbEntity
  8
0
100
AcDbBlockBegin
  2
*D4
 70
     1
 10
0.0
 20
0.0
 30
0.0
  3
*D4
  1

  0
INSERT
  5
BB
330
B8
100
AcDbEntity
  8
0
  6
Continuous
 62
     7
370
     0
100
AcDbBlockReference
  2
_CLOSED
 10
8.91325
 20
24.4931746115
 30
0.0002
 41
0.3556
 42
0.3556
 50
90.0
  0
INSERT
  5
BC
330
B8
100
AcDbEntity
  8
0
  6
Continuous
 62
     7
370
     0
100
AcDbBlockReference
  2
_CLOSED
 10
8.91325
 20
20.2879637832
 30
0.0002
 41
0.3556
 42
0.3556
 50
270.0
  0
LINE
  5
BD
330
B8
100
AcDbEntity
  8
0
  6
Continuous
 62
     7
370
     0
100
AcDbLine
 10
7.4741910796
 20
21.5492447677
 30
0.0
 11
7.4741910796
 21
21.4781510191
 31
0.0
  0
LINE
  5
BE
330
B8
100
AcDbEntity
  8
0
  6
Continuous
 62
     7
370
     0
100
AcDbLine
 10
7.4741910796
 20
21.4781510191
 30
0.0
 11
8.3895869206
 21
21.4781510191
 31
0.0
  0
LINE
  5
BF
330
B8
100
AcDbEntity
  8
0
  6
Continuous
 62
     7
370
     0
100
AcDbLine
 10
8.3895869206
 20
21.4781510191
 30
0.0
 11
8.3895869206
 21
21.5492447677
 31
0.0
  0
LINE
  5
C0
330
B8
100
AcDbEntity
  8
0
  6
Continuous
 62
     7
370
     0
100
AcDbLine
 10
7.4741910796
 20
22.8523264827
 30
0.0
 11
7.4741910796
 21
22.9234202312
 31
0.0
  0
LINE
  5
C1
330
B8
100
AcDbEntity
  8
0
  6
Continuous
 62
     7
370
     0
100
AcDbLine
 10
7.4741910796
 20
22.9234202312
 30
0.0
 11
8.3895869206
 21
22.9234202312
 31
0.0
  0
LINE
  5
C2
330
B8
100
AcDbEntity
  8
0
  6
Continuous
 62
     7
370
     0
100
AcDbLine
 10
8.3895869206
 20
22.9234202312
 30
0.0
 11
8.3895869206
 21
22.8523264827
 31
0.0
  0
LINE
  5
C3
330
B8
100
AcDbEntity
  8
0
  6
Continuous
 62
     7
370
     0
100
AcDbLine
 10
7.8959896996
 20
22.2066189175
 30
0.0
 11
7.8959896996
 21
22.5677995024
 31
0.0
  0
LINE
  5
C4
330
B8
100
AcDbEntity
  8
0
  6
Continuous
 62
     7
370
     0
100
AcDbLine
 10
6.8143734509
 20
24.4931746115
 30
0.0
 11
9.01325
 21
24.4931746115
 31
0.0
  0
LINE
  5
C5
330
B8
100
AcDbEntity
  8
0
  6
Continuous
 62
     7
370
     0
100
AcDbLine
 10
7.41325
 20
20.2879637832
 30
0.0
 11
9.01325
 21
20.2879637832
 31
0.0
  0
LINE
  5
C6
330
B8
100
AcDbEntity
  8
0
  6
Continuous
 62
     7
370
     0
100
AcDbLine
 10
8.91325
 20
24.4931746115
 30
0.0
 11
8.91325
 21
20.2879637832
 31
0.0
  0
MTEXT
  5
C7
330
B8
100
AcDbEntity
  8
0
  6
Continuous
 62
     7
370
     0
100
AcDbMText
 10
8.4567291665
 20
21.4267751465
 30
0.0002
 40
0.35
 41
0.0
 71
     1
 72
     1
  1

  7
SLDTEXTSTYLE0
 11
-7.044195017643634E-15
 21
1.0
 31
0.0
 73
     1
 44
1.0
  0
MTEXT
  5
C8
330
B8
100
AcDbEntity
  8
0
  6
Continuous
 62
     7
370
     0
100
AcDbMText
 10
7.7313055753
 20
21.6381119577
 30
0.0002
 40
0.35
 41
0.0
 71
     1
 72
     1
  1
82
  7
SLDTEXTSTYLE0
 11
-7.044195017643634E-15
 21
1.0
 31
0.0
 73
     1
 44
1.0
  0
MTEXT
  5
C9
330
B8
100
AcDbEntity
  8
0
  6
Continuous
 62
     7
370
     0
100
AcDbMText
 10
7.4755868238
 20
22.2579036503
 30
0.0002
 40
0.35
 41
0.0
 71
     1
 72
     1
  1
3
  7
SLDTEXTSTYLE0
 11
-7.044195017643634E-15
 21
1.0
 31
0.0
 73
     1
 44
1.0
  0
MTEXT
  5
CA
330
B8
100
AcDbEntity
  8
0
  6
Continuous
 62
     7
370
     0
100
AcDbMText
 10
7.9384132212
 20
22.2579036503
 30
0.0002
 40
0.35
 41
0.0
 71
     1
 72
     1
  1
4
  7
SLDTEXTSTYLE0
 11
-7.044195017643634E-15
 21
1.0
 31
0.0
 73
     1
 44
1.0
  0
MTEXT
  5
CB
330
B8
100
AcDbEntity
  8
0
  6
Continuous
 62
     7
370
     0
100
AcDbMText
 10
7.7313055753
 20
22.6190842701
 30
0.0002
 40
0.35
 41
0.0
 71
     1
 72
     1
  1
"
  7
SLDTEXTSTYLE0
 11
-7.044195017643634E-15
 21
1.0
 31
0.0
 73
     1
 44
1.0
  0
MTEXT
  5
CC
330
B8
100
AcDbEntity
  8
0
  6
Continuous
 62
     7
370
     0
100
AcDbMText
 10
8.4620764308
 20
21.6706814723
 30
0.0002
 40
0.35
 41
0.0
 71
     1
 72
     1
  1
210
  7
SLDTEXTSTYLE0
 11
-7.044195017643634E-15
 21
1.0
 31
0.0
 73
     1
 44
1.0
  0
MTEXT
  5
CD
330
B8
100
AcDbEntity
  8
0
  6
Continuous
 62
     7
370
     0
100
AcDbMText
 10
8.4567291665
 20
23.1079904626
 30
0.0002
 40
0.35
 41
0.0
 71
     1
 72
     1
  1

  7
SLDTEXTSTYLE0
 11
-7.044195017643634E-15
 21
1.0
 31
0.0
 73
     1
 44
1.0
  0
ENDBLK
  5
BA
330
B8
100
AcDbEntity
  8
0
100
AcDbBlockEnd
  0
BLOCK
  5
D1
330
D0
100
AcDbEntity
  8
0
100
AcDbBlockBegin
  2
*D5
 70
     1
 10
0.0
 20
0.0
 30
0.0
  3
*D5
  1

  0
INSERT
  5
D3
330
D0
100
AcDbEntity
  8
0
  6
Continuous
 62
     7
370
     0
100
AcDbBlockReference
  2
_CLOSED
 10
6.11325
 20
18.6874938982
 30
-1.2603095687
 41
0.3556
 42
0.3556
 50
0.0
  0
INSERT
  5
D4
330
D0
100
AcDbEntity
  8
0
  6
Continuous
 62
     7
370
     0
100
AcDbBlockReference
  2
_CLOSED
 10
7.31325
 20
18.6874938982
 30
-1.2603095687
 41
0.3556
 42
0.3556
 50
180.0
  0
LINE
  5
D5
330
D0
100
AcDbEntity
  8
0
  6
Continuous
 62
     7
370
     0
100
AcDbLine
 10
6.0155773732
 20
20.1265528186
 30
0.0
 11
5.9444836246
 21
20.1265528186
 31
0.0
  0
LINE
  5
D6
330
D0
100
AcDbEntity
  8
0
  6
Continuous
 62
     7
370
     0
100
AcDbLine
 10
5.9444836246
 20
20.1265528186
 30
0.0
 11
5.9444836246
 21
19.2111569776
 31
0.0
  0
LINE
  5
D7
330
D0
100
AcDbEntity
  8
0
  6
Continuous
 62
     7
370
     0
100
AcDbLine
 10
5.9444836246
 20
19.2111569776
 30
0.0
 11
6.0155773732
 21
19.2111569776
 31
0.0
  0
LINE
  5
D8
330
D0
100
AcDbEntity
  8
0
  6
Continuous
 62
     7
370
     0
100
AcDbLine
 10
7.3186590882
 20
20.1265528186
 30
0.0
 11
7.3897528367
 21
20.1265528186
 31
0.0
  0
LINE
  5
D9
330
D0
100
AcDbEntity
  8
0
  6
Continuous
 62
     7
370
     0
100
AcDbLine
 10
7.3897528367
 20
20.1265528186
 30
0.0
 11
7.3897528367
 21
19.2111569776
 31
0.0
  0
LINE
  5
DA
330
D0
100
AcDbEntity
  8
0
  6
Continuous
 62
     7
370
     0
100
AcDbLine
 10
7.3897528367
 20
19.2111569776
 30
0.0
 11
7.3186590882
 21
19.2111569776
 31
0.0
  0
LINE
  5
DB
330
D0
100
AcDbEntity
  8
0
  6
Continuous
 62
     7
370
     0
100
AcDbLine
 10
6.672951523
 20
19.7047541987
 30
0.0
 11
7.0341321079
 21
19.7047541987
 31
0.0
  0
LINE
  5
DC
330
D0
100
AcDbEntity
  8
0
  6
Continuous
 62
     7
370
     0
100
AcDbLine
 10
6.11325
 20
20.1879637832
 30
0.0
 11
6.11325
 21
18.5874938982
 31
0.0
  0
LINE
  5
DD
330
D0
100
AcDbEntity
  8
0
  6
Continuous
 62
     7
370
     0
100
AcDbLine
 10
7.31325
 20
20.1879637832
 30
0.0
 11
7.31325
 21
18.5874938982
 31
0.0
  0
LINE
  5
DE
330
D0
100
AcDbEntity
  8
0
  6
Continuous
 62
     7
370
     0
100
AcDbLine
 10
6.11325
 20
18.6874938982
 30
0.0
 11
5.47825
 21
18.6874938982
 31
0.0
  0
LINE
  5
DF
330
D0
100
AcDbEntity
  8
0
  6
Continuous
 62
     7
370
     0
100
AcDbLine
 10
6.11325
 20
18.6874938982
 30
0.0
 11
7.31325
 21
18.6874938982
 31
0.0
  0
LINE
  5
E0
330
D0
100
AcDbEntity
  8
0
  6
Continuous
 62
     7
370
     0
100
AcDbLine
 10
7.31325
 20
18.6874938982
 30
0.0
 11
7.94825
 21
18.6874938982
 31
0.0
  0
MTEXT
  5
E1
330
D0
100
AcDbEntity
  8
0
  6
Continuous
 62
     7
370
     0
100
AcDbMText
 10
6.1044445632
 20
19.8694383229
 30
-1.2603095687
 40
0.35
 41
0.0
 71
     1
 72
     1
  1
23
  7
SLDTEXTSTYLE0
 73
     1
 44
1.0
  0
MTEXT
  5
E2
330
D0
100
AcDbEntity
  8
0
  6
Continuous
 62
     7
370
     0
100
AcDbMText
 10
6.7242362558
 20
20.1251570745
 30
-1.2603095687
 40
0.35
 41
0.0
 71
     1
 72
     1
  1
5
  7
SLDTEXTSTYLE0
 73
     1
 44
1.0
  0
MTEXT
  5
E3
330
D0
100
AcDbEntity
  8
0
  6
Continuous
 62
     7
370
     0
100
AcDbMText
 10
6.7242362558
 20
19.662330677
 30
-1.2603095687
 40
0.35
 41
0.0
 71
     1
 72
     1
  1
8
  7
SLDTEXTSTYLE0
 73
     1
 44
1.0
  0
MTEXT
  5
E4
330
D0
100
AcDbEntity
  8
0
  6
Continuous
 62
     7
370
     0
100
AcDbMText
 10
7.0854168756
 20
19.8694383229
 30
-1.2603095687
 40
0.35
 41
0.0
 71
     1
 72
     1
  1
"
  7
SLDTEXTSTYLE0
 73
     1
 44
1.0
  0
MTEXT
  5
E5
330
D0
100
AcDbEntity
  8
0
  6
Continuous
 62
     7
370
     0
100
AcDbMText
 10
6.0023977326
 20
19.1386674674
 30
-1.2603095687
 40
0.35
 41
0.0
 71
     1
 72
     1
  1
%%c
  7
SLDTEXTSTYLE0
 73
     1
 44
1.0
  0
MTEXT
  5
E6
330
D0
100
AcDbEntity
  8
0
  6
Continuous
 62
     7
370
     0
100
AcDbMText
 10
6.5302414725
 20
19.1386674674
 30
-1.2603095687
 40
0.35
 41
0.0
 71
     1
 72
     1
  1
60
  7
SLDTEXTSTYLE0
 73
     1
 44
1.0
  0
ENDBLK
  5
D2
330
D0
100
AcDbEntity
  8
0
100
AcDbBlockEnd
  0
BLOCK
  5
FF
330
FE
100
AcDbEntity
  8
0
100
AcDbBlockBegin
  2
*D6
 70
     1
 10
0.0
 20
0.0
 30
0.0
  3
*D6
  1

  0
INSERT
  5
101
330
FE
100
AcDbEntity
  8
0
  6
Continuous
 62
     7
370
     0
100
AcDbBlockReference
  2
_CLOSED
 10
16.1472595687
 20
18.6874938982
 30
0.0002
 41
0.3556
 42
0.3556
 50
0.0
  0
INSERT
  5
102
330
FE
100
AcDbEntity
  8
0
  6
Continuous
 62
     7
370
     0
100
AcDbBlockReference
  2
_CLOSED
 10
12.4262404313
 20
18.6874938982
 30
0.0002
 41
0.3556
 42
0.3556
 50
180.0
  0
LINE
  5
103
330
FE
100
AcDbEntity
  8
0
  6
Continuous
 62
     7
370
     0
100
AcDbLine
 10
13.6328213384
 20
20.1265528186
 30
0.0
 11
13.5617275899
 21
20.1265528186
 31
0.0
  0
LINE
  5
104
330
FE
100
AcDbEntity
  8
0
  6
Continuous
 62
     7
370
     0
100
AcDbLine
 10
13.5617275899
 20
20.1265528186
 30
0.0
 11
13.5617275899
 21
19.2111569776
 31
0.0
  0
LINE
  5
105
330
FE
100
AcDbEntity
  8
0
  6
Continuous
 62
     7
370
     0
100
AcDbLine
 10
13.5617275899
 20
19.2111569776
 30
0.0
 11
13.6328213384
 21
19.2111569776
 31
0.0
  0
LINE
  5
106
330
FE
100
AcDbEntity
  8
0
  6
Continuous
 62
     7
370
     0
100
AcDbLine
 10
14.9359030534
 20
20.1265528186
 30
0.0
 11
15.006996802
 21
20.1265528186
 31
0.0
  0
LINE
  5
107
330
FE
100
AcDbEntity
  8
0
  6
Continuous
 62
     7
370
     0
100
AcDbLine
 10
15.006996802
 20
20.1265528186
 30
0.0
 11
15.006996802
 21
19.2111569776
 31
0.0
  0
LINE
  5
108
330
FE
100
AcDbEntity
  8
0
  6
Continuous
 62
     7
370
     0
100
AcDbLine
 10
15.006996802
 20
19.2111569776
 30
0.0
 11
14.9359030534
 21
19.2111569776
 31
0.0
  0
LINE
  5
109
330
FE
100
AcDbEntity
  8
0
  6
Continuous
 62
     7
370
     0
100
AcDbLine
 10
14.2901954883
 20
19.7047541987
 30
0.0
 11
14.6513760732
 21
19.7047541987
 31
0.0
  0
LINE
  5
10A
330
FE
100
AcDbEntity
  8
0
  6
Continuous
 62
     7
370
     0
100
AcDbLine
 10
16.1472595687
 20
20.1879637832
 30
0.0
 11
16.1472595687
 21
18.5874938982
 31
0.0
  0
LINE
  5
10B
330
FE
100
AcDbEntity
  8
0
  6
Continuous
 62
     7
370
     0
100
AcDbLine
 10
12.4262404313
 20
23.4891755554
 30
0.0
 11
12.4262404313
 21
18.5874938982
 31
0.0
  0
LINE
  5
10C
330
FE
100
AcDbEntity
  8
0
  6
Continuous
 62
     7
370
     0
100
AcDbLine
 10
16.1472595687
 20
18.6874938982
 30
0.0
 11
12.4262404313
 21
18.6874938982
 31
0.0
  0
MTEXT
  5
10D
330
FE
100
AcDbEntity
  8
0
  6
Continuous
 62
     7
370
     0
100
AcDbMText
 10
13.5103517173
 20
19.1440147317
 30
0.0002
 40
0.35
 41
0.0
 71
     1
 72
     1
  1

  7
SLDTEXTSTYLE0
 73
     1
 44
1.0
  0
MTEXT
  5
10E
330
FE
100
AcDbEntity
  8
0
  6
Continuous
 62
     7
370
     0
100
AcDbMText
 10
13.7216885285
 20
19.8694383229
 30
0.0002
 40
0.35
 41
0.0
 71
     1
 72
     1
  1
73
  7
SLDTEXTSTYLE0
 73
     1
 44
1.0
  0
MTEXT
  5
10F
330
FE
100
AcDbEntity
  8
0
  6
Continuous
 62
     7
370
     0
100
AcDbMText
 10
14.3414802211
 20
20.1251570745
 30
0.0002
 40
0.35
 41
0.0
 71
     1
 72
     1
  1
1
  7
SLDTEXTSTYLE0
 73
     1
 44
1.0
  0
MTEXT
  5
110
330
FE
100
AcDbEntity
  8
0
  6
Continuous
 62
     7
370
     0
100
AcDbMText
 10
14.3414802211
 20
19.662330677
 30
0.0002
 40
0.35
 41
0.0
 71
     1
 72
     1
  1
4
  7
SLDTEXTSTYLE0
 73
     1
 44
1.0
  0
MTEXT
  5
111
330
FE
100
AcDbEntity
  8
0
  6
Continuous
 62
     7
370
     0
100
AcDbMText
 10
14.7026608409
 20
19.8694383229
 30
0.0002
 40
0.35
 41
0.0
 71
     1
 72
     1
  1
"
  7
SLDTEXTSTYLE0
 73
     1
 44
1.0
  0
MTEXT
  5
112
330
FE
100
AcDbEntity
  8
0
  6
Continuous
 62
     7
370
     0
100
AcDbMText
 10
13.7542580431
 20
19.1386674674
 30
0.0002
 40
0.35
 41
0.0
 71
     1
 72
     1
  1
186
  7
SLDTEXTSTYLE0
 73
     1
 44
1.0
  0
MTEXT
  5
113
330
FE
100
AcDbEntity
  8
0
  6
Continuous
 62
     7
370
     0
100
AcDbMText
 10
15.1915670334
 20
19.1440147317
 30
0.0002
 40
0.35
 41
0.0
 71
     1
 72
     1
  1

  7
SLDTEXTSTYLE0
 73
     1
 44
1.0
  0
ENDBLK
  5
100
330
FE
100
AcDbEntity
  8
0
100
AcDbBlockEnd
  0
ENDSEC
  0
SECTION
  2
ENTITIES
  0
LINE
  5
45
330
1F
100
AcDbEntity
  8
0
  6
Continuous
 62
     7
370
    40
100
AcDbLine
 10
1.0078843565
 20
0.5214780157
 30
0.0
 11
20.5078843565
 21
0.5214780157
 31
0.0
  0
LINE
  5
46
330
1F
100
AcDbEntity
  8
0
  6
Continuous
 62
     7
370
    40
100
AcDbLine
 10
0.0078843565
 20
0.0214780157
 30
0.0
 11
21.0078843565
 21
0.0214780157
 31
0.0
  0
LINE
  5
47
330
1F
100
AcDbEntity
  8
0
  6
Continuous
 62
     7
370
    40
100
AcDbLine
 10
0.0078843565
 20
0.0214780157
 30
0.0
 11
0.0078843565
 21
29.7214780157
 31
0.0
  0
LINE
  5
48
330
1F
100
AcDbEntity
  8
0
  6
Continuous
 62
     7
370
    40
100
AcDbLine
 10
0.0078843565
 20
29.7214780157
 30
0.0
 11
21.0078843565
 21
29.7214780157
 31
0.0
  0
LINE
  5
49
330
1F
100
AcDbEntity
  8
0
  6
Continuous
 62
     7
370
    40
100
AcDbLine
 10
21.0078843565
 20
0.0214780157
 30
0.0
 11
21.0078843565
 21
29.7214780157
 31
0.0
  0
LINE
  5
4A
330
1F
100
AcDbEntity
  8
0
  6
Continuous
 62
     7
370
    40
100
AcDbLine
 10
1.0078843565
 20
29.2214780157
 30
0.0
 11
20.5078843565
 21
29.2214780157
 31
0.0
  0
LINE
  5
4B
330
1F
100
AcDbEntity
  8
0
  6
Continuous
 62
     7
370
    40
100
AcDbLine
 10
20.5078843565
 20
0.5214780157
 30
0.0
 11
18.0988311848
 21
0.5214780157
 31
0.0
  0
LINE
  5
4C
330
1F
100
AcDbEntity
  8
0
  6
Continuous
 62
     7
370
    40
100
AcDbLine
 10
1.0078843565
 20
0.5214780157
 30
0.0
 11
1.0078843565
 21
29.2214780157
 31
0.0
  0
LINE
  5
4D
330
1F
100
AcDbEntity
  8
0
  6
Continuous
 62
     7
370
    40
100
AcDbLine
 10
1.0110820912
 20
0.9370927258
 30
0.0
 11
20.5078843565
 21
0.9370927258
 31
0.0
  0
LINE
  5
4E
330
1F
100
AcDbEntity
  8
0
  6
Continuous
 62
     7
370
    40
100
AcDbLine
 10
20.5078843565
 20
4.3370927258
 30
0.0
 11
1.0110820912
 21
4.3370927258
 31
0.0
  0
LINE
  5
4F
330
1F
100
AcDbEntity
  8
0
  6
Continuous
 62
     7
370
    40
100
AcDbLine
 10
1.0110820912
 20
6.0370927258
 30
0.0
 11
20.5078843565
 21
6.0370927258
 31
0.0
  0
LINE
  5
50
330
1F
100
AcDbEntity
  8
0
  6
Continuous
 62
     7
370
    40
100
AcDbLine
 10
21.0078843565
 20
29.2214780157
 30
0.0
 11
21.0078843565
 21
29.7214780157
 31
0.0
  0
LINE
  5
51
330
1F
100
AcDbEntity
  8
0
  6
Continuous
 62
     7
370
    40
100
AcDbLine
 10
3.7101773345
 20
4.3370927258
 30
0.0
 11
3.7101773345
 21
0.5120927258
 31
0.0
  0
LINE
  5
52
330
1F
100
AcDbEntity
  8
0
  6
Continuous
 62
     7
370
    40
100
AcDbLine
 10
10.8910820912
 20
2.6370927258
 30
0.0
 11
1.0110820912
 21
2.6370927258
 31
0.0
  0
LINE
  5
53
330
1F
100
AcDbEntity
  8
0
  6
Continuous
 62
     7
370
    40
100
AcDbLine
 10
10.8910820912
 20
3.0620927258
 30
0.0
 11
1.0110820912
 21
3.0620927258
 31
0.0
  0
LINE
  5
54
330
1F
100
AcDbEntity
  8
0
  6
Continuous
 62
     7
370
    40
100
AcDbLine
 10
10.8910820912
 20
3.4870927258
 30
0.0
 11
1.0110820912
 21
3.4870927258
 31
0.0
  0
LINE
  5
55
330
1F
100
AcDbEntity
  8
0
  6
Continuous
 62
     7
370
    40
100
AcDbLine
 10
10.8910820912
 20
3.9120927258
 30
0.0
 11
1.0110820912
 21
3.9120927258
 31
0.0
  0
LINE
  5
56
330
1F
100
AcDbEntity
  8
0
  6
Continuous
 62
     7
370
    40
100
AcDbLine
 10
6.4710820912
 20
0.5120927258
 30
0.0
 11
6.4710820912
 21
4.3370927258
 31
0.0
  0
LINE
  5
57
330
1F
100
AcDbEntity
  8
0
  6
Continuous
 62
     7
370
    40
100
AcDbLine
 10
1.0110820912
 20
6.0370927258
 30
0.0
 11
1.0110820912
 21
0.5120927258
 31
0.0
  0
LINE
  5
58
330
1F
100
AcDbEntity
  8
0
  6
Continuous
 62
     7
370
    40
100
AcDbLine
 10
2.3529807256
 20
4.3370927258
 30
0.0
 11
2.3529807256
 21
0.5214780157
 31
0.0
  0
LINE
  5
59
330
1F
100
AcDbEntity
  8
0
  6
Continuous
 62
     7
370
    40
100
AcDbLine
 10
4.3910820912
 20
4.3370927258
 30
0.0
 11
4.3910820912
 21
6.0370927258
 31
0.0
  0
LINE
  5
5A
330
1F
100
AcDbEntity
  8
0
  6
Continuous
 62
     7
370
    40
100
AcDbLine
 10
5.4509747075
 20
4.3370927258
 30
0.0
 11
5.4509747075
 21
0.5120927258
 31
0.0
  0
LINE
  5
5B
330
1F
100
AcDbEntity
  8
0
  6
Continuous
 62
     7
370
    40
100
AcDbLine
 10
7.5110820912
 20
2.6370927258
 30
0.0
 11
7.5110820912
 21
4.3370927258
 31
0.0
  0
LINE
  5
5C
330
1F
100
AcDbEntity
  8
0
  6
Continuous
 62
     7
370
    40
100
AcDbLine
 10
6.4710820912
 20
1.3620927258
 30
0.0
 11
1.0110820912
 21
1.3620927258
 31
0.0
  0
LINE
  5
5D
330
1F
100
AcDbEntity
  8
0
  6
Continuous
 62
     7
370
    40
100
AcDbLine
 10
9.0710820912
 20
6.0370927258
 30
0.0
 11
9.0710820912
 21
2.2120927258
 31
0.0
  0
LINE
  5
5E
330
1F
100
AcDbEntity
  8
0
  6
Continuous
 62
     7
370
    40
100
AcDbLine
 10
6.4710820912
 20
1.7870855258
 30
0.0
 11
1.0110820912
 21
1.7870855258
 31
0.0
  0
LINE
  5
5F
330
1F
100
AcDbEntity
  8
0
  6
Continuous
 62
     7
370
    40
100
AcDbLine
 10
6.4710820912
 20
2.2120927258
 30
0.0
 11
1.0110820912
 21
2.2120927258
 31
0.0
  0
LINE
  5
60
330
1F
100
AcDbEntity
  8
0
  6
Continuous
 62
     7
370
    40
100
AcDbLine
 10
6.4710820912
 20
2.2120927258
 30
0.0
 11
20.5078843565
 21
2.2120927258
 31
0.0
  0
LINE
  5
61
330
1F
100
AcDbEntity
  8
0
  6
Continuous
 62
     7
370
    40
100
AcDbLine
 10
10.8910820912
 20
6.0370927258
 30
0.0
 11
10.8910820912
 21
0.5120927258
 31
0.0
  0
LINE
  5
62
330
1F
100
AcDbEntity
  8
0
  6
Continuous
 62
     7
370
    40
100
AcDbLine
 10
16.0878843565
 20
0.5214780157
 30
0.0
 11
16.0878843565
 21
0.9464780157
 31
0.0
  0
LINE
  5
63
330
1F
100
AcDbEntity
  8
0
  6
Continuous
 62
     7
370
    40
100
AcDbLine
 10
16.8678843565
 20
5.4089780157
 30
0.0
 11
16.8678843565
 21
6.0464780157
 31
0.0
  0
LINE
  5
64
330
1F
100
AcDbEntity
  8
0
  6
Continuous
 62
     7
370
    40
100
AcDbLine
 10
19.2078843565
 20
0.9464780157
 30
0.0
 11
19.2078843565
 21
2.2214780157
 31
0.0
  0
LINE
  5
65
330
1F
100
AcDbEntity
  8
0
  6
Continuous
 62
     7
370
    40
100
AcDbLine
 10
20.5078843565
 20
5.3995927258
 30
0.0
 11
10.8910820912
 21
5.3995927258
 31
0.0
  0
LINE
  5
66
330
1F
100
AcDbEntity
  8
0
  6
Continuous
 62
     7
370
    40
100
AcDbLine
 10
20.5078843565
 20
1.3714780157
 30
0.0
 11
19.2078843565
 21
1.3714780157
 31
0.0
  0
LINE
  5
67
330
1F
100
AcDbEntity
  8
0
  6
Continuous
 62
     7
370
    40
100
AcDbLine
 10
20.5078843565
 20
0.5214780157
 30
0.0
 11
20.5078843565
 21
29.2214780157
 31
0.0
  0
MTEXT
  5
69
330
1F
100
AcDbEntity
  8
0
  6
Continuous
 62
     7
370
     0
100
AcDbMText
 10
15.7458736745
 20
3.5849896778
 30
0.0
 40
0.5291666667
 41
0.0
 71
     2
 72
     1
  1
$PRPSHEET:\{Descrizione\}
  7
SLDTEXTSTYLE0
 73
     1
 44
1.0
  0
MTEXT
  5
6A
330
1F
100
AcDbEntity
  8
0
  6
Continuous
 62
     7
370
     0
100
AcDbMText
 10
15.8060921265
 20
1.9846518799
 30
0.0
 40
0.635
 41
0.0
 71
     2
 72
     1
  1
Disegno31
  7
SLDTEXTSTYLE0
 73
     1
 44
1.0
  0
MTEXT
  5
6B
330
1F
100
AcDbEntity
  8
0
  6
Continuous
 62
     7
370
     0
100
AcDbMText
 10
6.572863204
 20
0.8070239161
 30
0.0
 40
0.14986
 41
0.0
 71
     1
 72
     1
  1
PESO: $PRPSHEET:\{Peso\}
  7
SLDTEXTSTYLE0
 73
     1
 44
1.0
  0
MTEXT
  5
6C
330
1F
100
AcDbEntity
  8
0
  6
Continuous
 62
     7
370
     0
100
AcDbMText
 10
6.917245415
 20
5.3102097813
 30
0.0
 40
0.238125
 41
0.0
 71
     2
 72
     1
  1
$PRPSHEET:\{Fine\}
  7
SLDTEXTSTYLE0
 73
     1
 44
1.0
  0
MTEXT
  5
6D
330
1F
100
AcDbEntity
  8
0
  6
Continuous
 62
     7
370
     0
100
AcDbMText
 10
8.9081811541
 20
1.6606492949
 30
0.0
 40
0.238125
 41
0.0
 71
     2
 72
     1
  1
$PRPSHEET:\{Materiale\}
  7
SLDTEXTSTYLE0
 73
     1
 44
1.0
  0
MTEXT
  5
6E
330
1F
100
AcDbEntity
  8
0
  6
Continuous
 62
     7
370
     0
100
AcDbMText
 10
19.5999828412
 20
1.9515224668
 30
0.0
 40
0.2910416667
 41
0.0
 71
     1
 72
     1
  1
A4
  7
SLDTEXTSTYLE0
 73
     1
 44
1.0
  0
MTEXT
  5
70
330
1F
100
AcDbEntity
  8
0
  6
Continuous
 62
     7
370
     0
100
AcDbMText
 10
16.2357137993
 20
0.8114867431
 30
0.0
 40
0.15
 41
0.0
 71
     1
 72
     1
  1
FOGLIO 1 DI 1
  7
SLDTEXTSTYLE1
 73
     1
 44
1.0
  0
MTEXT
  5
71
330
1F
100
AcDbEntity
  8
0
  6
Continuous
 62
     7
370
     0
100
AcDbMText
 10
11.0184787029
 20
0.8021014532
 30
0.0
 40
0.15
 41
0.0
 71
     1
 72
     1
  1
SCALA:1:50
  7
SLDTEXTSTYLE0
 73
     1
 44
1.0
  0
MTEXT
  5
72
330
1F
100
AcDbEntity
  8
0
  6
Continuous
 62
     7
370
     0
100
AcDbMText
 10
11.0184787029
 20
1.9989565085
 30
0.0
 40
0.15
 41
0.0
 71
     1
 72
     1
  1
N. DISEGNO
  7
SLDTEXTSTYLE0
 73
     1
 44
1.0
  0
MTEXT
  5
73
330
1F
100
AcDbEntity
  8
0
  6
Continuous
 62
     7
370
     0
100
AcDbMText
 10
11.0067007848
 20
4.1399261544
 30
0.0
 40
0.15
 41
0.0
 71
     1
 72
     1
  1
TITOLO:
  7
SLDTEXTSTYLE0
 73
     1
 44
1.0
  0
MTEXT
  5
74
330
1F
100
AcDbEntity
  8
0
  6
Continuous
 62
     7
370
     0
100
AcDbMText
 10
17.1206425265
 20
5.7549688837
 30
0.0
 40
0.15
 41
0.0
 71
     1
 72
     1
  1
REVISIONE
  7
SLDTEXTSTYLE0
 73
     1
 44
1.0
  0
MTEXT
  5
75
330
1F
100
AcDbEntity
  8
0
  6
Continuous
 62
     7
370
     0
100
AcDbMText
 10
13.0493484088
 20
5.7747773732
 30
0.0
 40
0.15
 41
0.0
 71
     1
 72
     1
  1
NON SCALARE IL DISEGNO
  7
SLDTEXTSTYLE0
 73
     1
 44
1.0
  0
MTEXT
  5
76
330
1F
100
AcDbEntity
  8
0
  6
Continuous
 62
     7
370
     0
100
AcDbMText
 10
6.575668322
 20
2.1106983547
 30
0.0
 40
0.15
 41
0.0
 71
     1
 72
     1
  1
MATERIALE:
  7
SLDTEXTSTYLE0
 73
     1
 44
1.0
  0
MTEXT
  5
77
330
1F
100
AcDbEntity
  8
0
  6
Continuous
 62
     7
370
     0
100
AcDbMText
 10
5.7325522877
 20
4.1697106479
 30
0.0
 40
0.15
 41
0.0
 71
     1
 72
     1
  1
DATA
  7
SLDTEXTSTYLE0
 73
     1
 44
1.0
  0
MTEXT
  5
78
330
1F
100
AcDbEntity
  8
0
  6
Continuous
 62
     7
370
     0
100
AcDbMText
 10
4.0144408475
 20
4.1682683637
 30
0.0
 40
0.15
 41
0.0
 71
     1
 72
     1
  1
FIRMA
  7
SLDTEXTSTYLE0
 73
     1
 44
1.0
  0
MTEXT
  5
79
330
1F
100
AcDbEntity
  8
0
  6
Continuous
 62
     7
370
     0
100
AcDbMText
 10
2.4433060129
 20
4.1622409891
 30
0.0
 40
0.15
 41
0.0
 71
     1
 72
     1
  1
NOME
  7
SLDTEXTSTYLE0
 73
     1
 44
1.0
  0
INSERT
  5
80
330
1F
100
AcDbEntity
  8
0
  6
Continuous
 62
     7
370
     0
100
AcDbBlockReference
  2
SW_NOTE_0
 10
9.1420036598
 20
5.7190416901
 30
0.0
  0
MTEXT
  5
81
330
1F
100
AcDbEntity
  8
0
  6
Continuous
 62
     7
370
     0
100
AcDbMText
 10
4.4482113078
 20
5.9040199253
 30
0.0
 40
0.15
 41
0.0
 71
     1
 72
     1
  1
FINITURA:
  7
SLDTEXTSTYLE0
 73
     1
 44
1.0
  0
INSERT
  5
8B
330
1F
100
AcDbEntity
  8
0
  6
Continuous
 62
     7
370
     0
100
AcDbBlockReference
  2
SW_NOTE_1
 10
1.0704489657
 20
5.7108297132
 30
0.0
  0
MTEXT
  5
8C
330
1F
100
AcDbEntity
  8
0
  6
Continuous
 62
     7
370
     0
100
AcDbMText
 10
1.0779863774
 20
2.0470576465
 30
0.0
 40
0.15
 41
0.0
 71
     1
 72
     1
  1
QUALITA'
  7
SLDTEXTSTYLE0
 73
     1
 44
1.0
  0
MTEXT
  5
8D
330
1F
100
AcDbEntity
  8
0
  6
Continuous
 62
     7
370
     0
100
AcDbMText
 10
1.0566007411
 20
2.4854631908
 30
0.0
 40
0.15
 41
0.0
 71
     1
 72
     1
  1
FATTO
  7
SLDTEXTSTYLE0
 73
     1
 44
1.0
  0
MTEXT
  5
8E
330
1F
100
AcDbEntity
  8
0
  6
Continuous
 62
     7
370
     0
100
AcDbMText
 10
1.051254332
 20
2.9185223261
 30
0.0
 40
0.15
 41
0.0
 71
     1
 72
     1
  1
APPROVATO
  7
SLDTEXTSTYLE0
 73
     1
 44
1.0
  0
MTEXT
  5
8F
330
1F
100
AcDbEntity
  8
0
  6
Continuous
 62
     7
370
     0
100
AcDbMText
 10
1.0521289779
 20
3.3275334418
 30
0.0
 40
0.15
 41
0.0
 71
     1
 72
     1
  1
VERIFICATO
  7
SLDTEXTSTYLE0
 73
     1
 44
1.0
  0
MTEXT
  5
90
330
1F
100
AcDbEntity
  8
0
  6
Continuous
 62
     7
370
     0
100
AcDbMText
 10
1.0322970156
 20
3.7550642144
 30
0.0
 40
0.15
 41
0.0
 71
     1
 72
     1
  1
DISEGNATO
  7
SLDTEXTSTYLE0
 73
     1
 44
1.0
  0
SPLINE
  5
91
330
1F
100
AcDbEntity
  8
0
  6
Continuous
 62
     7
370
    15
100
AcDbSpline
210
0.0
220
0.0
230
1.0
 70
     8
 71
     3
 72
   140
 73
   136
 74
     0
 42
0.00000001
 43
0.00000001
 40
0.0
 40
0.0
 40
0.0
 40
0.0
 40
0.0142358394770962
 40
0.0280759770871394
 40
0.0412277546033384
 40
0.0536911760928128
 40
0.0654662665519141
 40
0.0765530681481566
 40
0.086951636386402
 40
0.0975952297738394
 40
0.1074062348782309
 40
0.116384751016158
 40
0.1245308775175876
 40
0.1318447103387869
 40
0.1380035111666862
 40
0.1434161018645854
 40
0.1480825448516888
 40
0.1520028944524829
 40
0.1551771965167834
 40
0.1576054882555347
 40
0.1597060353195992
 40
0.1617264925838051
 40
0.1636769547066197
 40
0.1659628035050333
 40
0.1689383498499345
 40
0.1726035614027394
 40
0.1769583987568221
 40
0.1837198502846645
 40
0.1906886595882344
 40
0.197840852370604
 40
0.2051764189862874
 40
0.2187317178186364
 40
0.2328710643112702
 40
0.2469854513885024
 40
0.2605418032970847
 40
0.2737998059037974
 40
0.2864771985294838
 40
0.298605009104966
 40
0.3103653221647881
 40
0.3217880226805507
 40
0.3328731755626993
 40
0.3439509961254563
 40
0.350625139435064
 40
0.3576733778566392
 40
0.3650957603290451
 40
0.3728923425148251
 40
0.3810631872567237
 40
0.3896083649889404
 40
0.3981667750937237
 40
0.4042416891618041
 40
0.4097107598558603
 40
0.4145739305113847
 40
0.4188311476141219
 40
0.4224823620510503
 40
0.4255129252700702
 40
0.4278713663050139
 40
0.4295450620916352
 40
0.4317765438154239
 40
0.4345918302979078
 40
0.4379909566434061
 40
0.4419739661546663
 40
0.4464542373296091
 40
0.4514978330325463
 40
0.4568337860331219
 40
0.4620294343826801
 40
0.4738126238340523
 40
0.4847683314452232
 40
0.4948963575655426
 40
0.501588918804625
 40
0.5079109715278995
 40
0.5144951972459453
 40
0.5215394676934503
 40
0.5290438661770832
 40
0.5370084810215444
 40
0.5426317909327479
 40
0.5484639083236227
 40
0.5545048630545653
 40
0.5607546853566908
 40
0.56721338452148
 40
0.5738219326066889
 40
0.5799295422859709
 40
0.584715192348926
 40
0.5889795219969781
 40
0.5927225087634439
 40
0.5959441447358009
 40
0.598644431690567
 40
0.6008233770860405
 40
0.6024809908430544
 40
0.6037986936305103
 40
0.606485398770286
 40
0.6099526523797577
 40
0.6140880863986184
 40
0.618890642806141
 40
0.6244658364512478
 40
0.6307323757590348
 40
0.6376900715707248
 40
0.6452583928662349
 40
0.6530174036189671
 40
0.6686367644808854
 40
0.684757062670378
 40
0.7013776632018598
 40
0.718498163786102
 40
0.7253608429175702
 40
0.7322647856610366
 40
0.7387224981510877
 40
0.7445800223122644
 40
0.7502316741185842
 40
0.7551837846732382
 40
0.7594364868750472
 40
0.7629898777507036
 40
0.7658440247795104
 40
0.7681542950274437
 40
0.7706470270475959
 40
0.773417070581772
 40
0.7767652539533626
 40
0.7806915799392424
 40
0.7852940188659263
 40
0.790498515140509
 40
0.7963158196840985
 40
0.8028530465568117
 40
0.8101380449909483
 40
0.8181710872509285
 40
0.8269525117587162
 40
0.8364827168221637
 40
0.8467621472489496
 40
0.857791273080341
 40
0.8695705600209075
 40
0.8821004315750953
 40
0.8953812234316892
 40
0.9094131312641024
 40
0.9257157579194694
 40
0.9429268653920576
 40
0.9610456246618412
 40
0.9800706613449454
 40
1.0
 40
1.0
 40
1.0
 40
1.0
 10
6.732750807959809
 20
20.29996378317378
 30
0.0
 10
6.73272747198595
 20
20.31433882502057
 30
0.0
 10
6.732681448689018
 20
20.34268933755385
 30
0.0
 10
6.732616701581952
 20
20.38431980299992
 30
0.0
 10
6.732556053797547
 20
20.4241596914121
 30
0.0
 10
6.732499641832185
 20
20.46191326418825
 30
0.0
 10
6.732446972849686
 20
20.49758044150133
 30
0.0
 10
6.732397741900235
 20
20.53116128709019
 30
0.0
 10
6.732350340558925
 20
20.56359811860172
 30
0.0
 10
6.732304829650928
 20
20.59474516816932
 30
0.0
 10
6.732261299470475
 20
20.62445676713987
 30
0.0
 10
6.732221280930572
 20
20.65164549919793
 30
0.0
 10
6.732184762238727
 20
20.67631197431052
 30
0.0
 10
6.732152249770797
 20
20.6981310099025
 30
0.0
 10
6.732123666047432
 20
20.71719001546662
 30
0.0
 10
6.732098941033976
 20
20.73357634132959
 30
0.0
 10
6.732077505067009
 20
20.74770299804621
 30
0.0
 10
6.732059406594204
 20
20.75957043932436
 30
0.0
 10
6.732044690208823
 20
20.76917906757097
 30
0.0
 10
6.732032745714299
 20
20.77695120005206
 30
0.0
 10
6.732022562526536
 20
20.78355886929576
 30
0.0
 10
6.732013098410597
 20
20.78968426983733
 30
0.0
 10
6.732003321467593
 20
20.79599643647105
 30
0.0
 10
6.731992022348009
 20
20.80327181290758
 30
0.0
 10
6.731977989270704
 20
20.81227660350671
 30
0.0
 10
6.731960627771133
 20
20.82336794594923
 30
0.0
 10
6.731937162907456
 20
20.83827728969724
 30
0.0
 10
6.731908238233498
 20
20.856517348072
 30
0.0
 10
6.731874529332742
 20
20.87757654104905
 30
0.0
 10
6.731839567301103
 20
20.89921228012588
 30
0.0
 10
6.731793444293456
 20
20.92748607982668
 30
0.0
 10
6.731735082387362
 20
20.96279803460595
 30
0.0
 10
6.731664378982728
 20
21.00493205270062
 30
0.0
 10
6.731592807057607
 20
21.04705428633279
 30
0.0
 10
6.731522172796297
 20
21.08827476670761
 30
0.0
 10
6.73145379004837
 20
21.12803379055824
 30
0.0
 10
6.731388040929333
 20
21.16633991119484
 30
0.0
 10
6.731325287609538
 20
21.20312444282587
 30
0.0
 10
6.731265190586383
 20
21.23863313275613
 30
0.0
 10
6.731207456176932
 20
21.27308013510924
 30
0.0
 10
6.731151514724114
 20
21.30682826318369
 30
0.0
 10
6.731104079881618
 20
21.33579370211766
 30
0.0
 10
6.731063722319518
 20
21.36069616030061
 30
0.0
 10
6.731029609408481
 20
21.38192294326931
 30
0.0
 10
6.730994018156224
 20
21.40427080763685
 30
0.0
 10
6.730956999325123
 20
21.42773909141725
 30
0.0
 10
6.730918600077923
 20
21.45232710331123
 30
0.0
 10
6.730879420929134
 20
21.47767193604491
 30
0.0
 10
6.730843857646001
 20
21.50090817136936
 30
0.0
 10
6.73081326504046
 20
21.52105571897718
 30
0.0
 10
6.730788444600205
 20
21.5374964907991
 30
0.0
 10
6.730766482137147
 20
21.55211322894449
 30
0.0
 10
6.730747332318614
 20
21.56490663533089
 30
0.0
 10
6.730730981803462
 20
21.57586270345787
 30
0.0
 10
6.730717502335914
 20
21.58491580671303
 30
0.0
 10
6.730706990353894
 20
21.59198788256553
 30
0.0
 10
6.730697679452098
 20
21.59825919796428
 30
0.0
 10
6.730687700668119
 20
21.60498731152946
 30
0.0
 10
6.730675176040711
 20
21.6134420245301
 30
0.0
 10
6.730660074737152
 20
21.62364896252201
 30
0.0
 10
6.73064253099058
 20
21.63552093451658
 30
0.0
 10
6.730622577095616
 20
21.64903677138823
 30
0.0
 10
6.730600639430413
 20
21.66390409332801
 30
0.0
 10
6.730577646015233
 20
21.67948446810676
 30
0.0
 10
6.730544675358152
 20
21.70180271050575
 30
0.0
 10
6.730503289114001
 20
21.72973360956661
 30
0.0
 10
6.730454197829948
 20
21.76258362741174
 30
0.0
 10
6.730412223158456
 20
21.79033570734826
 30
0.0
 10
6.730376812341188
 20
21.81345151941692
 30
0.0
 10
6.730346483900925
 20
21.83302319480427
 30
0.0
 10
6.730315219345258
 20
21.85294175731536
 30
0.0
 10
6.730281605493528
 20
21.87403605932591
 30
0.0
 10
6.730245158526736
 20
21.89650297125263
 30
0.0
 10
6.730210298200961
 20
21.9175467176136
 30
0.0
 10
6.730177555841942
 20
21.93691796294471
 30
0.0
 10
6.73014752854402
 20
21.95436733435163
 30
0.0
 10
6.730115818613662
 20
21.97243830706445
 30
0.0
 10
6.730082309392012
 20
21.99113067134416
 30
0.0
 10
6.73004700888894
 20
22.01038530134382
 30
0.0
 10
6.730011352930408
 20
22.02949412693936
 30
0.0
 10
6.729978399524474
 20
22.04693178356496
 30
0.0
 10
6.729949649387295
 20
22.06203068603331
 30
0.0
 10
6.729925284764803
 20
22.07477178469031
 30
0.0
 10
6.729903853686875
 20
22.0859532882118
 30
0.0
 10
6.729885394242971
 20
22.09557583689236
 30
0.0
 10
6.729869924633099
 20
22.10364005289932
 30
0.0
 10
6.729857450138267
 20
22.11014649981996
 30
0.0
 10
6.72984762265057
 20
22.11527623428687
 30
0.0
 10
6.729836836825312
 20
22.12091066312082
 30
0.0
 10
6.729822623329307
 20
22.12834511996765
 30
0.0
 10
6.729803102730736
 20
22.13858163735226
 30
0.0
 10
6.729779668862335
 20
22.15092068718452
 30
0.0
 10
6.729752425804334
 20
22.1653528915671
 30
0.0
 10
6.729721461667988
 20
22.18189938142692
 30
0.0
 10
6.729686915879158
 20
22.20058164259326
 30
0.0
 10
6.729649319925096
 20
22.22123583706273
 30
0.0
 10
6.729609842791488
 20
22.24336155533449
 30
0.0
 10
6.729556341786481
 20
22.27407023112249
 30
0.0
 10
6.729490833468797
 20
22.31323013120386
 30
0.0
 10
6.729415629104954
 20
22.36110924226702
 30
0.0
 10
6.729343395889788
 20
22.41039431707791
 30
0.0
 10
6.729288645462499
 20
22.45045253841457
 30
0.0
 10
6.729248762917182
 20
22.48087775753912
 30
0.0
 10
6.729223219044156
 20
22.50078121703709
 30
0.0
 10
6.729199378305934
 20
22.51967762873742
 30
0.0
 10
6.729177378452291
 20
22.53732677691105
 30
0.0
 10
6.729157395290796
 20
22.55348276122468
 30
0.0
 10
6.72913944103157
 20
22.5680515262357
 30
0.0
 10
6.729124038984451
 20
22.58055340860164
 30
0.0
 10
6.729111153716208
 20
22.59099288329254
 30
0.0
 10
6.729100589919572
 20
22.59952580837841
 30
0.0
 10
6.729091283741452
 20
22.60701779875064
 30
0.0
 10
6.729082048227636
 20
22.61442468134158
 30
0.0
 10
6.729071497256123
 20
22.62284370351642
 30
0.0
 10
6.72905910702466
 20
22.63265958818148
 30
0.0
 10
6.729044312867607
 20
22.64425880877041
 30
0.0
 10
6.729026973877916
 20
22.65766045640455
 30
0.0
 10
6.729006919290738
 20
22.67289366637884
 30
0.0
 10
6.728983937580415
 20
22.68999578781428
 30
0.0
 10
6.728957631603963
 20
22.70910335987818
 30
0.0
 10
6.72892757166847
 20
22.73034068858066
 30
0.0
 10
6.728893431882729
 20
22.75372750155287
 30
0.0
 10
6.728854900645014
 20
22.7792564366035
 30
0.0
 10
6.728811658890733
 20
22.80692012586377
 30
0.0
 10
6.728763401569651
 20
22.83671136643938
 30
0.0
 10
6.728709866452998
 20
22.86862331646453
 30
0.0
 10
6.72865087140088
 20
22.90264970292915
 30
0.0
 10
6.728586360571878
 20
22.93878504510041
 30
0.0
 10
6.72851646266478
 20
22.97702489361151
 30
0.0
 10
6.72843884901968
 20
23.01882234749525
 30
0.0
 10
6.728353928502489
 20
23.06431920881709
 30
0.0
 10
6.7282628501346
 20
23.11366023787359
 30
0.0
 10
6.728170687131593
 20
23.16554585202985
 30
0.0
 10
6.728079493364561
 20
23.21998323435173
 30
0.0
 10
6.72802690348864
 20
23.25712332836148
 30
0.0
 10
6.727999998129795
 20
23.27612446763724
 30
0.0
  0
SPLINE
  5
92
330
1F
100
AcDbEntity
  8
0
  6
Continuous
 62
     7
370
    15
100
AcDbSpline
210
0.0
220
0.0
230
1.0
 70
     8
 71
     3
 72
   163
 73
   159
 74
     0
 42
0.00000001
 43
0.00000001
 40
0.0
 40
0.0
 40
0.0
 40
0.0
 40
0.0048887721891897
 40
0.0091682408963457
 40
0.0131113184952148
 40
0.0174106592517911
 40
0.0221002735973506
 40
0.0288314556059756
 40
0.0362315176231416
 40
0.0443001840861435
 40
0.0555845015713354
 40
0.0664297497977371
 40
0.0768112671213537
 40
0.086729249669273
 40
0.0979322998957822
 40
0.1085662654480232
 40
0.1191046325195894
 40
0.1296186179322772
 40
0.1401083123963693
 40
0.1505903427343986
 40
0.1597865812088176
 40
0.1695384560567711
 40
0.179845959507679
 40
0.1907092078416562
 40
0.1966213703919014
 40
0.2026861560124536
 40
0.208603030732209
 40
0.2138791741742106
 40
0.2185075028604393
 40
0.2224880227349721
 40
0.2258207071505258
 40
0.2285055155968967
 40
0.2306983113054324
 40
0.2329788029284129
 40
0.2354881457946737
 40
0.2386056099450929
 40
0.2431177168194304
 40
0.2485366145663798
 40
0.2548625147521997
 40
0.2620956872969665
 40
0.2694543189736384
 40
0.2765237742480806
 40
0.2831418451957115
 40
0.2893084027436592
 40
0.2950233169377641
 40
0.3002864612378881
 40
0.3050977156285831
 40
0.3098680298377907
 40
0.3141713609310537
 40
0.3188032368386799
 40
0.3239678805339944
 40
0.3296654151872891
 40
0.3348205226760129
 40
0.3403458560938518
 40
0.3462414873814034
 40
0.3525074836694105
 40
0.3591430168388291
 40
0.3656398682595198
 40
0.3725675458866198
 40
0.3787059045166525
 40
0.3840547685668333
 40
0.3886140064577048
 40
0.3918631497884004
 40
0.3945515846217636
 40
0.3967029687022979
 40
0.3986054817972719
 40
0.4012839014739736
 40
0.4048295145146667
 40
0.4089668164843439
 40
0.4138750569990465
 40
0.419554219501011
 40
0.4259176973139936
 40
0.4321023889197232
 40
0.4385316338980431
 40
0.4444615833170673
 40
0.4498922678318613
 40
0.4548237375029763
 40
0.4592560399307398
 40
0.4631892194334858
 40
0.46662464136846
 40
0.4700774981548164
 40
0.475536085103101
 40
0.4818199648325807
 40
0.4889290180971813
 40
0.4968631058506988
 40
0.5056220683645559
 40
0.5152057247716632
 40
0.5221246519134091
 40
0.5294174703659476
 40
0.536716106772851
 40
0.5433620906742229
 40
0.5493424576262211
 40
0.5546573059747271
 40
0.5593067236311385
 40
0.5632907876225448
 40
0.566609563853598
 40
0.5692631070253021
 40
0.5712514606618126
 40
0.5726191804635489
 40
0.5742055510613705
 40
0.5763273305759644
 40
0.5799862729164266
 40
0.5844395412753084
 40
0.5896870568245028
 40
0.5957287288082007
 40
0.6014777030705551
 40
0.6077982724087673
 40
0.6146746376922039
 40
0.6215941658420908
 40
0.628309530137554
 40
0.6348207692540027
 40
0.6446403861050176
 40
0.6539561616535237
 40
0.6627682147997721
 40
0.6716508410351435
 40
0.6799554451819344
 40
0.687788870516312
 40
0.6960327761140775
 40
0.7048832871268904
 40
0.7144614894308242
 40
0.7246615494115953
 40
0.7354835912067629
 40
0.7469277816454086
 40
0.7544398002726669
 40
0.7621977611014472
 40
0.7702017203233815
 40
0.7784506404517018
 40
0.7865068580350181
 40
0.7959842062448947
 40
0.8045663307098784
 40
0.8122531049970616
 40
0.8190444063082365
 40
0.8249401210032167
 40
0.829940148020059
 40
0.8340444008213547
 40
0.8361650264763635
 40
0.8378411363818399
 40
0.8391891605735444
 40
0.8409545297708828
 40
0.8432671954607197
 40
0.8461271818427056
 40
0.8495345185180788
 40
0.8539148199957652
 40
0.8589428690920737
 40
0.864597394071846
 40
0.8708782745574979
 40
0.8777855735277684
 40
0.8857960835430444
 40
0.8945113872550108
 40
0.9039315513532163
 40
0.9140566309222984
 40
0.9248866636722329
 40
0.9364216634067482
 40
0.9479431974797093
 40
0.9600913718305741
 40
0.9728661039293236
 40
0.986267268695984
 40
0.9999999999999999
 40
0.9999999999999999
 40
0.9999999999999999
 40
0.9999999999999999
 10
6.6985000018663
 20
23.27612446478283
 30
0.0
 10
6.698493676609194
 20
23.27146232125527
 30
0.0
 10
6.698481814432225
 20
23.26271909221946
 30
0.0
 10
6.698463919559769
 20
23.25021533852097
 30
0.0
 10
6.698446308529685
 20
23.23827326546728
 30
0.0
 10
6.698427550281771
 20
23.22593915733769
 30
0.0
 10
6.698404065903289
 20
23.2109444826029
 30
0.0
 10
6.69837498714857
 20
23.19298959213243
 30
0.0
 10
6.698339457094468
 20
23.17180634600666
 30
0.0
 10
6.698295255055495
 20
23.1462706604246
 30
0.0
 10
6.698243760405849
 20
23.11743335695315
 30
0.0
 10
6.698186926294514
 20
23.08636769901073
 30
0.0
 10
6.698131674096643
 20
23.05658599124799
 30
0.0
 10
6.698075416966148
 20
23.02643818017795
 30
0.0
 10
6.698018703574422
 20
22.99602058329391
 30
0.0
 10
6.697961294316844
 20
22.96497577173449
 30
0.0
 10
6.697905855702333
 20
22.93455523443326
 30
0.0
 10
6.697851700819922
 20
22.90423448743447
 30
0.0
 10
6.69779892148328
 20
22.87392636251437
 30
0.0
 10
6.697749771626289
 20
22.84484504309851
 30
0.0
 10
6.697703271541078
 20
22.81643243825858
 30
0.0
 10
6.697658512753399
 20
22.78814594340551
 30
0.0
 10
6.697612900337298
 20
22.7581990048809
 30
0.0
 10
6.697574529998534
 20
22.73192423554401
 30
0.0
 10
6.69754319321219
 20
22.70973376733778
 30
0.0
 10
6.69751919477973
 20
22.69233085299877
 30
0.0
 10
6.697496555978501
 20
22.67552890447365
 30
0.0
 10
6.697476208013176
 20
22.66011032308035
 30
0.0
 10
6.697458643426359
 20
22.64656678551896
 30
0.0
 10
6.6974437412129
 20
22.63490973936728
 30
0.0
 10
6.697431388847042
 20
22.62514332081625
 30
0.0
 10
6.697421313495573
 20
22.61711872351187
 30
0.0
 10
6.69741256890571
 20
22.61011902843603
 30
0.0
 10
6.697404068256476
 20
22.60328799743028
 30
0.0
 10
6.697394470785875
 20
22.59554892691221
 30
0.0
 10
6.697382197089223
 20
22.58562053857349
 30
0.0
 10
6.697366434298354
 20
22.57283478553969
 30
0.0
 10
6.697346792716822
 20
22.5568925262573
 30
0.0
 10
6.697323768311043
 20
22.5382651959312
 30
0.0
 10
6.697298141657251
 20
22.51771370194297
 30
0.0
 10
6.697271177701376
 20
22.49641016346354
 30
0.0
 10
6.697244440103539
 20
22.47569186649332
 30
0.0
 10
6.697218637339509
 20
22.45613014500091
 30
0.0
 10
6.697194022057095
 20
22.4378888433461
 30
0.0
 10
6.697170669170513
 20
22.42097176509227
 30
0.0
 10
6.69714867113654
 20
22.4053822809589
 30
0.0
 10
6.697127544715074
 20
22.39071726699439
 30
0.0
 10
6.697107375126563
 20
22.37699334661997
 30
0.0
 10
6.697087074524901
 20
22.36344009583091
 30
0.0
 10
6.697065784235227
 20
22.34949067977145
 30
0.0
 10
6.697041894080124
 20
22.33415474273738
 30
0.0
 10
6.697016627439736
 20
22.31829297345488
 30
0.0
 10
6.696990212618714
 20
22.30206624098643
 30
0.0
 10
6.696962909151287
 20
22.28563577806949
 30
0.0
 10
6.696933141989205
 20
22.26809600632423
 30
0.0
 10
6.696900815703609
 20
22.249446412433
 30
0.0
 10
6.696866740094374
 20
22.23019105283532
 30
0.0
 10
6.696830805969187
 20
22.21026964117739
 30
0.0
 10
6.696795134985696
 20
22.19083320840684
 30
0.0
 10
6.696761058417157
 20
22.17252973951548
 30
0.0
 10
6.696731041302256
 20
22.15657483327008
 30
0.0
 10
6.696706240169199
 20
22.14348890379707
 30
0.0
 10
6.696686358393383
 20
22.1330467086305
 30
0.0
 10
6.696670991545868
 20
22.12499854371896
 30
0.0
 10
6.696658157890035
 20
22.11828938931878
 30
0.0
 10
6.696645326625561
 20
22.11158960268907
 30
0.0
 10
6.696629820768001
 20
22.10350162679183
 30
0.0
 10
6.696610033169382
 20
22.0931879616184
 30
0.0
 10
6.696585986858781
 20
22.08065251442207
 30
0.0
 10
6.696557909021303
 20
22.06598995126089
 30
0.0
 10
6.696525717081796
 20
22.04910672164967
 30
0.0
 10
6.696491368624589
 20
22.03094761172381
 30
0.0
 10
6.696456037408921
 20
22.01203669146483
 30
0.0
 10
6.696422070771482
 20
21.99355363752177
 30
0.0
 10
6.696390168996551
 20
21.97581856408011
 30
0.0
 10
6.696361528898302
 20
21.95957372695727
 30
0.0
 10
6.696335963292286
 20
21.94481977570131
 30
0.0
 10
6.696313326010035
 20
21.93155730211174
 30
0.0
 10
6.696293491222802
 20
21.9197855083306
 30
0.0
 10
6.696275499671459
 20
21.90898961644469
 30
0.0
 10
6.696255173477981
 20
21.8966707839211
 30
0.0
 10
6.6962304615416
 20
21.88150793086336
 30
0.0
 10
6.696200258896626
 20
21.86269318663859
 30
0.0
 10
6.69616661772764
 20
21.84140306910569
 30
0.0
 10
6.696129650400497
 20
21.81763610750116
 30
0.0
 10
6.696089436917275
 20
21.79139064687529
 30
0.0
 10
6.696051283147354
 20
21.76615103445388
 30
0.0
 10
6.696015663114856
 20
21.74236933487742
 30
0.0
 10
6.695983654125877
 20
21.72086587507657
 30
0.0
 10
6.695952185329331
 20
21.69962968008834
 30
0.0
 10
6.695922732090518
 20
21.67970080745093
 30
0.0
 10
6.695896235510967
 20
21.66175198847243
 30
0.0
 10
6.695872684452432
 20
21.64579730805389
 30
0.0
 10
6.695852065356298
 20
21.6318376697159
 30
0.0
 10
6.695834375852303
 20
21.61987386987377
 30
0.0
 10
6.695819620371105
 20
21.60990658756549
 30
0.0
 10
6.695807806872894
 20
21.60193640779074
 30
0.0
 10
6.695798878168169
 20
21.59591917148546
 30
0.0
 10
6.695791528252534
 20
21.59097036381962
 30
0.0
 10
6.695783973258076
 20
21.58588788831966
 30
0.0
 10
6.695772994511676
 20
21.57851070788665
 30
0.0
 10
6.695757712996239
 20
21.56826202381898
 30
0.0
 10
6.695737703259379
 20
21.5548815343158
 30
0.0
 10
6.695714030369114
 20
21.53911209873681
 30
0.0
 10
6.69568827699962
 20
21.5220414013041
 30
0.0
 10
6.69566073858087
 20
21.50389178355152
 30
0.0
 10
6.695631740718587
 20
21.48490155325954
 30
0.0
 10
6.695600711825763
 20
21.46473314365714
 30
0.0
 10
6.695568803044718
 20
21.44416375195597
 30
0.0
 10
6.695537188046099
 20
21.42395554364864
 30
0.0
 10
6.695500708896507
 20
21.4008328094485
 30
0.0
 10
6.695459676575758
 20
21.3750935051397
 30
0.0
 10
6.695414404376909
 20
21.34703558387431
 30
0.0
 10
6.695370150426255
 20
21.31990978510689
 30
0.0
 10
6.695327104796974
 20
21.29379155989684
 30
0.0
 10
6.695285289369648
 20
21.26864919671279
 30
0.0
 10
6.69524422120887
 20
21.24414225867898
 30
0.0
 10
6.69520194233051
 20
21.21908014223689
 30
0.0
 10
6.695156405710943
 20
21.1922563067566
 30
0.0
 10
6.69510723914599
 20
21.1634564564536
 30
0.0
 10
6.695054417558271
 20
21.13266316864824
 30
0.0
 10
6.694998220232024
 20
21.09998104780897
 30
0.0
 10
6.69494673612409
 20
21.06999487034258
 30
0.0
 10
6.694900728140975
 20
21.04308713750894
 30
0.0
 10
6.694860824085906
 20
21.01963987431285
 30
0.0
 10
6.694819898826132
 20
20.99544550271842
 30
0.0
 10
6.694778767141623
 20
20.97094596297258
 30
0.0
 10
6.694735504023876
 20
20.94495681839803
 30
0.0
 10
6.694692115628816
 20
20.91862700980353
 30
0.0
 10
6.694649822289035
 20
20.89266522447783
 30
0.0
 10
6.694612349296339
 20
20.86940866992655
 30
0.0
 10
6.694579570042862
 20
20.84885901851939
 30
0.0
 10
6.694551363549568
 20
20.83101766016625
 30
0.0
 10
6.694527621209732
 20
20.81588573270444
 30
0.0
 10
6.694509962338957
 20
20.80456155871785
 30
0.0
 10
6.694497582308793
 20
20.79659053414368
 30
0.0
 10
6.694489540162038
 20
20.79140003743504
 30
0.0
 10
6.694482067484242
 20
20.78656790705216
 30
0.0
 10
6.694473617913505
 20
20.78109344976333
 30
0.0
 10
6.694462840886076
 20
20.77409336066826
 30
0.0
 10
6.694449555128562
 20
20.76543632863882
 30
0.0
 10
6.694433129371838
 20
20.75469267718744
 30
0.0
 10
6.69441344910423
 20
20.74176077953003
 30
0.0
 10
6.694390440626289
 20
20.72656056976606
 30
0.0
 10
6.694364675328644
 20
20.70944167954151
 30
0.0
 10
6.694336224595511
 20
20.69042528338721
 30
0.0
 10
6.694304406320615
 20
20.66902994746674
 30
0.0
 10
6.694269142268272
 20
20.6451761070283
 30
0.0
 10
6.694230336601619
 20
20.61878419543374
 30
0.0
 10
6.694188564810098
 20
20.59025595412156
 30
0.0
 10
6.694143768392943
 20
20.55959099830204
 30
0.0
 10
6.694095836133658
 20
20.52678905736092
 30
0.0
 10
6.694045654345886
 20
20.49257535683624
 30
0.0
 10
6.693993102872509
 20
20.45702908736558
 30
0.0
 10
6.693938031495179
 20
20.42022959232497
 30
0.0
 10
6.693879020712018
 20
20.38153092143975
 30
0.0
 10
6.693816240934123
 20
20.34123129446639
 30
0.0
 10
6.693771725907359
 20
20.31383122662515
 30
0.0
 10
6.693749196415097
 20
20.29996378317378
 30
0.0
  0
SPLINE
  5
93
330
1F
100
AcDbEntity
  8
0
  6
Continuous
 62
     7
370
    15
100
AcDbSpline
210
0.0
220
0.0
230
1.0
 70
     8
 71
     3
 72
    39
 73
    35
 74
     0
 42
0.00000001
 43
0.00000001
 40
0.0
 40
0.0
 40
0.0
 40
0.0
 40
0.0094503471566165
 40
0.0492860158395742
 40
0.0870396110580017
 40
0.1227269082173204
 40
0.1563608372659342
 40
0.1879519294268077
 40
0.2225728918052086
 40
0.2543791215679547
 40
0.2833802081726637
 40
0.3095838413586486
 40
0.3296272415592525
 40
0.3479318286909595
 40
0.3661236387670213
 40
0.3844757404700176
 40
0.4029895265942595
 40
0.4216664629475436
 40
0.4663435006411058
 40
0.5119575618146893
 40
0.5592971967311289
 40
0.6063401860709573
 40
0.6526790571573045
 40
0.6982985832915672
 40
0.743205437767892
 40
0.7642668075504209
 40
0.7876451176843113
 40
0.8133395827273928
 40
0.841348455136786
 40
0.8716687055676745
 40
0.9036928936043085
 40
0.9379359057308163
 40
0.9743892848135518
 40
1.0
 40
1.0
 40
1.0
 40
1.0
 10
6.722305128363987
 20
24.16901341787427
 30
0.0
 10
6.722310474861132
 20
24.17094800764451
 30
0.0
 10
6.722338358232889
 20
24.18103739594729
 30
0.0
 10
6.722387726313689
 20
24.19807317735393
 30
0.0
 10
6.722452035671854
 20
24.21974047877433
 30
0.0
 10
6.722512912426418
 20
24.2394804495549
 30
0.0
 10
6.722570344173909
 20
24.25748019699181
 30
0.0
 10
6.722627218807242
 20
24.27469947412825
 30
0.0
 10
6.722683095155928
 20
24.29101075686022
 30
0.0
 10
6.722737529409027
 20
24.30630078257165
 30
0.0
 10
6.722787183233263
 20
24.31974210622781
 30
0.0
 10
6.722830133523609
 20
24.33096808503107
 30
0.0
 10
6.722866980072931
 20
24.34030862240428
 30
0.0
 10
6.722899252249315
 20
24.34827771240717
 30
0.0
 10
6.722930555500533
 20
24.35581101230272
 30
0.0
 10
6.722961972381883
 20
24.36317320339773
 30
0.0
 10
6.722993658065901
 20
24.37039549853959
 30
0.0
 10
6.723040345425995
 20
24.38073422913855
 30
0.0
 10
6.723102449048857
 20
24.393796740143
 30
0.0
 10
6.723180773852923
 20
24.40901773930833
 30
0.0
 10
6.723260300822119
 20
24.4231480289428
 30
0.0
 10
6.723340109527146
 20
24.43595902663439
 30
0.0
 10
6.723418835687895
 20
24.44724008331412
 30
0.0
 10
6.723496254829245
 20
24.45700205165612
 30
0.0
 10
6.723559336457735
 20
24.46387128881272
 30
0.0
 10
6.723609761523984
 20
24.46872334310871
 30
0.0
 10
6.723649264521649
 20
24.47218590330255
 30
0.0
 10
6.723692587803676
 20
24.47557199648465
 30
0.0
 10
6.723739684297056
 20
24.47876462339789
 30
0.0
 10
6.723790159588261
 20
24.48161418328098
 30
0.0
 10
6.723843906181941
 20
24.48400451340397
 30
0.0
 10
6.723900785141812
 20
24.48576394662151
 30
0.0
 10
6.723953874190046
 20
24.48678109023702
 30
0.0
 10
6.723987807418706
 20
24.48676999247467
 30
0.0
 10
6.7240018099473
 20
24.48676541298899
 30
0.0
  0
SPLINE
  5
94
330
1F
100
AcDbEntity
  8
0
  6
Continuous
 62
     7
370
    15
100
AcDbSpline
210
0.0
220
0.0
230
1.0
 70
     8
 71
     3
 72
    15
 73
    11
 74
     0
 42
0.00000001
 43
0.00000001
 40
0.0
 40
0.0
 40
0.0
 40
0.0
 40
0.1455561418965751
 40
0.2861523715434855
 40
0.4218442370612777
 40
0.5526806817851323
 40
0.6787047519156931
 40
0.7999542296241533
 40
0.9367696259174174
 40
1.0
 40
1.0
 40
1.0
 40
1.0
 10
6.727949995771033
 20
23.27612583870378
 30
0.0
 10
6.727918099946313
 20
23.29187579381167
 30
0.0
 10
6.727855395166103
 20
23.32283901492416
 30
0.0
 10
6.727762681649799
 20
23.36789352947557
 30
0.0
 10
6.72767303620017
 20
23.41094328841602
 30
0.0
 10
6.727586437720813
 20
23.45198843921383
 30
0.0
 10
6.727502892947583
 20
23.49109154729205
 30
0.0
 10
6.727417900711263
 20
23.53033550082678
 30
0.0
 10
6.727346722875084
 20
23.56284545317096
 30
0.0
 10
6.727302334507727
 20
23.58272872314595
 30
0.0
 10
6.727288304253213
 20
23.58901341787427
 30
0.0
  0
SPLINE
  5
95
330
1F
100
AcDbEntity
  8
0
  6
Continuous
 62
     7
370
    15
100
AcDbSpline
210
0.0
220
0.0
230
1.0
 70
     8
 71
     3
 72
    33
 73
    29
 74
     0
 42
0.00000001
 43
0.00000001
 40
0.0
 40
0.0
 40
0.0
 40
0.0
 40
0.0462220979471998
 40
0.1107046444608458
 40
0.1752077651993561
 40
0.239753702041996
 40
0.3043582478459778
 40
0.3686249678978664
 40
0.4092199711909694
 40
0.4485210175878617
 40
0.4864289499063219
 40
0.5038030636121323
 40
0.5208607512298096
 40
0.5383216283728564
 40
0.5580859054010215
 40
0.5802500775161652
 40
0.6063738671044475
 40
0.6351848830167806
 40
0.666677518863156
 40
0.7008470972285654
 40
0.7376907383595094
 40
0.7772110663152954
 40
0.8101462244902555
 40
0.844745247492661
 40
0.8810169936188367
 40
0.9189731501922068
 40
0.9586286217680745
 40
0.9999999999999999
 40
0.9999999999999999
 40
0.9999999999999999
 40
0.9999999999999999
 10
6.725775061953941
 20
24.16917555536897
 30
0.0
 10
6.725748064198189
 20
24.17754580035323
 30
0.0
 10
6.725683402984517
 20
24.19759302962638
 30
0.0
 10
6.725581235976586
 20
24.22767920864412
 30
0.0
 10
6.725468541783767
 20
24.25964812309038
 30
0.0
 10
6.725355982832533
 20
24.29010952976401
 30
0.0
 10
6.725243785279752
 20
24.31903975439549
 30
0.0
 10
6.725145708758184
 20
24.34305633692241
 30
0.0
 10
6.725062431069703
 20
24.36252419382594
 30
0.0
 10
6.724994539965381
 20
24.37791129227426
 30
0.0
 10
6.724939955363928
 20
24.38957054623006
 30
0.0
 10
6.724898136030913
 20
24.39804480404483
 30
0.0
 10
6.724868111107603
 20
24.40393351959618
 30
0.0
 10
6.724836674652138
 20
24.40989065565084
 30
0.0
 10
6.724802242103587
 20
24.41616937848029
 30
0.0
 10
6.724762741926803
 20
24.42305307203675
 30
0.0
 10
6.724717933667545
 20
24.43044380806572
 30
0.0
 10
6.724667634965716
 20
24.4382046428305
 30
0.0
 10
6.724612575036707
 20
24.44605466891731
 30
0.0
 10
6.724552745977936
 20
24.45381867602291
 30
0.0
 10
6.724488135656231
 20
24.46130607219997
 30
0.0
 10
6.724424160438256
 20
24.46776115923586
 30
0.0
 10
6.724361438604527
 20
24.47319531550809
 30
0.0
 10
6.724300577199768
 20
24.47765592488073
 30
0.0
 10
6.724236741212765
 20
24.48144481396489
 30
0.0
 10
6.724169925020394
 20
24.48440757150165
 30
0.0
 10
6.724100119993892
 20
24.48650793490161
 30
0.0
 10
6.724052610646902
 20
24.48696315679035
 30
0.0
 10
6.724028352920376
 20
24.48719558785466
 30
0.0
  0
LINE
  5
96
330
1F
100
AcDbEntity
  8
0
  6
Continuous
 62
     7
370
    15
100
AcDbLine
 10
6.7240039647
 20
24.4870962333
 30
0.0
 11
6.7239586463
 21
24.4867214091
 31
0.0
  0
SPLINE
  5
97
330
1F
100
AcDbEntity
  8
0
  6
Continuous
 62
     7
370
    15
100
AcDbSpline
210
0.0
220
0.0
230
1.0
 70
     8
 71
     3
 72
    23
 73
    19
 74
     0
 42
0.00000001
 43
0.00000001
 40
0.0
 40
0.0
 40
0.0
 40
0.0
 40
0.1534659575501469
 40
0.2699528210571381
 40
0.3500047922309461
 40
0.3768215285112888
 40
0.3955254182528157
 40
0.4085187488416863
 40
0.446040436689347
 40
0.4972350491218068
 40
0.5481835300257926
 40
0.5607546265191118
 40
0.5763892358279054
 40
0.6208295358364028
 40
0.685017359719258
 40
0.7694921328697137
 40
0.874328373612319
 40
1.0
 40
1.0
 40
1.0
 40
1.0
 10
6.724054943308501
 20
24.48687744322377
 30
0.0
 10
6.723985110825098
 20
24.48746008073082
 30
0.0
 10
6.723862272664784
 20
24.48848496365075
 30
0.0
 10
6.722935149610483
 20
24.48984074658127
 30
0.0
 10
6.721919890111796
 20
24.49075788500707
 30
0.0
 10
6.720933577447486
 20
24.49137554541304
 30
0.0
 10
6.720298698785013
 20
24.4917154655572
 30
0.0
 10
6.719086285257822
 20
24.49225432873614
 30
0.0
 10
6.717186019002054
 20
24.4928475714668
 30
0.0
 10
6.71439159799702
 20
24.49324576667027
 30
0.0
 10
6.712073454921668
 20
24.49319745981985
 30
0.0
 10
6.710499033792281
 20
24.49300083177552
 30
0.0
 10
6.709279559937237
 20
24.49278961534388
 30
0.0
 10
6.707719028863603
 20
24.49237044120984
 30
0.0
 10
6.705904129908098
 20
24.49161487431765
 30
0.0
 10
6.704179582933534
 20
24.49046934439973
 30
0.0
 10
6.702762841479277
 20
24.48887001498247
 30
0.0
 10
6.702557181425931
 20
24.4875804868806
 30
0.0
 10
6.702445056691496
 20
24.48687744322377
 30
0.0
  0
SPLINE
  5
98
330
1F
100
AcDbEntity
  8
0
  6
Continuous
 62
     7
370
    15
100
AcDbSpline
210
0.0
220
0.0
230
1.0
 70
     8
 71
     3
 72
    41
 73
    37
 74
     0
 42
0.00000001
 43
0.00000001
 40
0.0
 40
0.0
 40
0.0
 40
0.0
 40
0.0295496595614196
 40
0.0693549362186068
 40
0.1066483585086318
 40
0.141419638350592
 40
0.1736613874455811
 40
0.2028604064103936
 40
0.2296117161049073
 40
0.2539138101814679
 40
0.2757661379507199
 40
0.2914842853551151
 40
0.3056349498706105
 40
0.3182186032815979
 40
0.3292417582425102
 40
0.3403599823187556
 40
0.3570249919827873
 40
0.3760749045890428
 40
0.3975058517792661
 40
0.4205265054415666
 40
0.4457699571037912
 40
0.4732288917898934
 40
0.5028943145107198
 40
0.5347588122945585
 40
0.5688215775898162
 40
0.6050849695513457
 40
0.6435544302275372
 40
0.6799045358583373
 40
0.7180423194634209
 40
0.7579801873014537
 40
0.7997332221186926
 40
0.8433155092847101
 40
0.8879151069730171
 40
0.934311877733147
 40
0.9825272177502189
 40
1.0
 40
1.0
 40
1.0
 40
1.0
 10
6.702497852213392
 20
24.48674888678054
 30
0.0
 10
6.702514119556565
 20
24.4867460412489
 30
0.0
 10
6.702552300048828
 20
24.48673936260461
 30
0.0
 10
6.702611308706192
 20
24.48547992542048
 30
0.0
 10
6.702673397424065
 20
24.48334916257219
 30
0.0
 10
6.702731488759881
 20
24.48050144375501
 30
0.0
 10
6.702785231296953
 20
24.47717307462044
 30
0.0
 10
6.702834625440633
 20
24.47352331964635
 30
0.0
 10
6.702879676876183
 20
24.46970712523878
 30
0.0
 10
6.702920686079085
 20
24.46582924938694
 30
0.0
 10
6.702955548690325
 20
24.46222498049766
 30
0.0
 10
6.702984729524117
 20
24.45899977101152
 30
0.0
 10
6.703008705733955
 20
24.45621425540905
 30
0.0
 10
6.703030049254482
 20
24.45362689737244
 30
0.0
 10
6.703049698735053
 20
24.45115759633584
 30
0.0
 10
6.703071670313367
 20
24.4483049908067
 30
0.0
 10
6.703098192619795
 20
24.44472323282826
 30
0.0
 10
6.703130569454874
 20
24.440134982907
 30
0.0
 10
6.703166565003691
 20
24.43476347708972
 30
0.0
 10
6.703206095177007
 20
24.42854057476857
 30
0.0
 10
6.703249075314494
 20
24.42139490089091
 30
0.0
 10
6.703295867485366
 20
24.41316762728905
 30
0.0
 10
6.703346474458735
 20
24.40374920148725
 30
0.0
 10
6.703400901153834
 20
24.39302216971878
 30
0.0
 10
6.703459143114866
 20
24.38086263237658
 30
0.0
 10
6.703521200769859
 20
24.36713928438371
 30
0.0
 10
6.703584600758123
 20
24.35229366687817
 30
0.0
 10
6.703649088295123
 20
24.33636117021366
 30
0.0
 10
6.703714414462677
 20
24.31939051344674
 30
0.0
 10
6.703782804141946
 20
24.30072148310125
 30
0.0
 10
6.70385425359596
 20
24.28024368347919
 30
0.0
 10
6.703928293275515
 20
24.25797751830603
 30
0.0
 10
6.704004892493451
 20
24.23386534701349
 30
0.0
 10
6.704084001466307
 20
24.2077332359901
 30
0.0
 10
6.704147619194306
 20
24.18601628245619
 30
0.0
 10
6.704184792425474
 20
24.17258585797926
 30
0.0
 10
6.704194680358806
 20
24.16901341787428
 30
0.0
  0
SPLINE
  5
99
330
1F
100
AcDbEntity
  8
0
  6
Continuous
 62
     7
370
    15
100
AcDbSpline
210
0.0
220
0.0
230
1.0
 70
     8
 71
     3
 72
    30
 73
    26
 74
     0
 42
0.00000001
 43
0.00000001
 40
0.0
 40
0.0
 40
0.0
 40
0.0
 40
0.0420226593962432
 40
0.0818994667264387
 40
0.1196485082268735
 40
0.1552852319515095
 40
0.188821128637563
 40
0.2202643081492321
 40
0.2496200229962924
 40
0.2746982089092371
 40
0.2980255263430978
 40
0.3196013665711592
 40
0.3394238088537055
 40
0.357490568337494
 40
0.3742870897049572
 40
0.4296968593776946
 40
0.4861571223842677
 40
0.543699201878395
 40
0.60204336874422
 40
0.6603285834758791
 40
0.7185147493647901
 40
0.7766145356468868
 40
0.8564305384747283
 40
0.9362169543221187
 40
1.0
 40
1.0
 40
1.0
 40
1.0
 10
6.70247164707962
 20
24.48719558785466
 30
0.0
 10
6.702446954580661
 20
24.48695635441431
 30
0.0
 10
6.702398830484614
 20
24.48649010378978
 30
0.0
 10
6.702328538884212
 20
24.48435259241876
 30
0.0
 10
6.702262029164878
 20
24.48138306734554
 30
0.0
 10
6.702199286495682
 20
24.47764978515958
 30
0.0
 10
6.702140295362295
 20
24.47333644778498
 30
0.0
 10
6.702085041792049
 20
24.46858564631277
 30
0.0
 10
6.702034796135527
 20
24.46366324111976
 30
0.0
 10
6.701989348243158
 20
24.45872418225848
 30
0.0
 10
6.701948489890749
 20
24.45389590215545
 30
0.0
 10
6.701910739058295
 20
24.44910320771565
 30
0.0
 10
6.701876089952464
 20
24.44442436057851
 30
0.0
 10
6.701844255123664
 20
24.43989066858094
 30
0.0
 10
6.701791749942844
 20
24.43205787041951
 30
0.0
 10
6.701717005263011
 20
24.41985908817192
 30
0.0
 10
6.701618834939826
 20
24.40173080379668
 30
0.0
 10
6.701519272219027
 20
24.38113779737951
 30
0.0
 10
6.70141892529189
 20
24.35830864068674
 30
0.0
 10
6.70131785766319
 20
24.33427750890703
 30
0.0
 10
6.701216742219317
 20
24.30897979356386
 30
0.0
 10
6.701102926869237
 20
24.27919876405127
 30
0.0
 10
6.700976301093406
 20
24.24427293690902
 30
0.0
 10
6.700846123236369
 20
24.20657479986929
 30
0.0
 10
6.700762280263649
 20
24.18067981809749
 30
0.0
 10
6.700725031672603
 20
24.16917555536897
 30
0.0
  0
SPLINE
  5
9A
330
1F
100
AcDbEntity
  8
0
  6
Continuous
 62
     7
370
    15
100
AcDbSpline
210
0.0
220
0.0
230
1.0
 70
     8
 71
     3
 72
    18
 73
    14
 74
     0
 42
0.00000001
 43
0.00000001
 40
0.0
 40
0.0
 40
0.0
 40
0.0
 40
0.0024612504202051
 40
0.0772927221518806
 40
0.1584497526971194
 40
0.2459517945610272
 40
0.3398217507512271
 40
0.440086478239917
 40
0.5405071681468218
 40
0.64667105651223
 40
0.7586132663917672
 40
0.8763741552979092
 40
1.0
 40
1.0
 40
1.0
 40
1.0
 10
6.69921154132563
 20
23.58901341787427
 30
0.0
 10
6.699210995257319
 20
23.58876916355345
 30
0.0
 10
6.69919384661376
 20
23.58109863917348
 30
0.0
 10
6.699158722141547
 20
23.5652149058143
 30
0.0
 10
6.699104772447782
 20
23.54068842931067
 30
0.0
 10
6.699046658986912
 20
23.51400077228609
 30
0.0
 10
6.698984376403122
 20
23.48512975755527
 30
0.0
 10
6.698919311049427
 20
23.45466337470051
 30
0.0
 10
6.698851615237846
 20
23.42264540648283
 30
0.0
 10
6.698781439118413
 20
23.38912092257149
 30
0.0
 10
6.698707560201369
 20
23.35345614659122
 30
0.0
 10
6.698629963991594
 20
23.31563077960787
 30
0.0
 10
6.698577085742821
 20
23.28950573840965
 30
0.0
 10
6.698550004228965
 20
23.27612583870378
 30
0.0
  0
LINE
  5
9B
330
1F
100
AcDbEntity
  8
0
  6
Continuous
 62
     7
370
    15
100
AcDbLine
 10
7.17325
 20
23.5891755554
 30
0.0
 11
7.1260748501
 21
24.1691755554
 31
0.0
  0
LINE
  5
9C
330
1F
100
AcDbEntity
  8
0
  6
Continuous
 62
     7
370
    15
100
AcDbLine
 10
6.3004251499
 20
24.1691755554
 30
0.0
 11
6.25325
 21
23.5891755554
 31
0.0
  0
LINE
  5
9D
330
1F
100
AcDbEntity
  8
0
  6
Continuous
 62
     7
370
    15
100
AcDbLine
 10
6.25325
 20
23.5891755554
 30
0.0
 11
6.255243417
 21
23.5890134179
 31
0.0
  0
LINE
  5
9E
330
1F
100
AcDbEntity
  8
0
  6
Continuous
 62
     7
370
    15
100
AcDbLine
 10
7.171256583
 20
23.5890134179
 30
0.0
 11
7.17325
 21
23.5891755554
 31
0.0
  0
LINE
  5
9F
330
1F
100
AcDbEntity
  8
0
  6
Continuous
 62
     7
370
    15
100
AcDbLine
 10
7.31325
 20
20.2879637832
 30
0.0
 11
7.31325
 21
20.2999637832
 31
0.0
  0
LINE
  5
A0
330
1F
100
AcDbEntity
  8
0
  6
Continuous
 62
     7
370
    15
100
AcDbLine
 10
6.11325
 20
20.2999637832
 30
0.0
 11
6.11325
 21
20.2879637832
 31
0.0
  0
SPLINE
  5
A1
330
1F
100
AcDbEntity
  8
0
  6
Continuous
 62
   144
370
     0
100
AcDbSpline
210
0.0
220
0.0
230
1.0
 70
     8
 71
     3
 72
    14
 73
    10
 74
     0
 42
0.00000001
 43
0.00000001
 40
0.0
 40
0.0
 40
0.0
 40
0.0
 40
0.1266301693608399
 40
0.2495432111964867
 40
0.4893665016503093
 40
0.729189792104146
 40
0.8521028339398001
 40
0.9787330033006332
 40
0.9999999999999999
 40
0.9999999999999999
 40
0.9999999999999999
 40
0.9999999999999999
 10
6.713249999999999
 20
23.27074180788435
 30
0.0
 10
6.714247287775412
 20
23.2707629064582
 30
0.0
 10
6.716212588739785
 20
23.27080448427411
 30
0.0
 10
6.719908314287784
 20
23.27123700026545
 30
0.0
 10
6.723933186593507
 20
23.27222090444284
 30
0.0
 10
6.726674632577987
 20
23.27369420962952
 30
0.0
 10
6.727770161826671
 20
23.27504011985472
 30
0.0
 10
6.728100280122944
 20
23.2758214516053
 30
0.0
 10
6.72796857341794
 20
23.27624309878492
 30
0.0
 10
6.727949634542131
 20
23.2763037298938
 30
0.0
  0
SPLINE
  5
A2
330
1F
100
AcDbEntity
  8
0
  6
Continuous
 62
   144
370
     0
100
AcDbSpline
210
0.0
220
0.0
230
1.0
 70
     8
 71
     3
 72
    14
 73
    10
 74
     0
 42
0.00000001
 43
0.00000001
 40
0.0
 40
0.0
 40
0.0
 40
0.0
 40
0.0212668530920316
 40
0.1478970410330354
 40
0.270810100903443
 40
0.5106334265460197
 40
0.7504567521885878
 40
0.8733698120589966
 40
1.0
 40
1.0
 40
1.0
 40
1.0
 10
6.698550365110378
 20
23.27630372863813
 30
0.0
 10
6.698531426377663
 20
23.27624309794738
 30
0.0
 10
6.69839971988976
 20
23.27582145118467
 30
0.0
 10
6.698729838238246
 20
23.27504011985366
 30
0.0
 10
6.699825367385929
 20
23.27369420963011
 30
0.0
 10
6.702566813418938
 20
23.27222090444264
 30
0.0
 10
6.706591685710639
 20
23.27123700026547
 30
0.0
 10
6.710287411260504
 20
23.27080448427411
 30
0.0
 10
6.712252712224684
 20
23.2707629064582
 30
0.0
 10
6.713249999999999
 20
23.27074180788435
 30
0.0
  0
SPLINE
  5
A3
330
1F
100
AcDbEntity
  8
0
  6
Continuous
 62
   144
370
     0
100
AcDbSpline
210
0.0
220
0.0
230
1.0
 70
     8
 71
     3
 72
    13
 73
     9
 74
     0
 42
0.00000001
 43
0.00000001
 40
0.0
 40
0.0
 40
0.0
 40
0.0
 40
0.0865879604550868
 40
0.2731993139710857
 40
0.4654541548526861
 40
0.6577089957342864
 40
0.8443203492502853
 40
0.9999999999999999
 40
0.9999999999999999
 40
0.9999999999999999
 40
0.9999999999999999
 10
6.706419156373213
 20
23.27145503606926
 30
0.0
 10
6.706780581938082
 20
23.27135760086175
 30
0.0
 10
6.707920939279395
 20
23.27105017669205
 30
0.0
 10
6.710320983567968
 20
23.27084766727201
 30
0.0
 10
6.713247950925261
 20
23.27071683131162
 30
0.0
 10
6.716187092433078
 20
23.27084273996999
 30
0.0
 10
6.718909883060596
 20
23.27109796238641
 30
0.0
 10
6.720324256503574
 20
23.27149333944289
 30
0.0
 10
6.720967537106594
 20
23.27167316351451
 30
0.0
  0
LINE
  5
A4
330
1F
100
AcDbEntity
  8
0
  6
Continuous
 62
     7
370
    15
100
AcDbLine
 10
6.71325
 20
23.5891755554
 30
0.0
 11
6.25325
 21
23.5891755554
 31
0.0
  0
LINE
  5
A5
330
1F
100
AcDbEntity
  8
0
  6
Continuous
 62
     7
370
    15
100
AcDbLine
 10
7.17325
 20
23.5891755554
 30
0.0
 11
6.71325
 21
23.5891755554
 31
0.0
  0
LINE
  5
A6
330
1F
100
AcDbEntity
  8
0
  6
Continuous
 62
     7
370
    15
100
AcDbLine
 10
6.71325
 20
24.1691755554
 30
0.0
 11
6.3004251499
 21
24.1691755554
 31
0.0
  0
LINE
  5
A7
330
1F
100
AcDbEntity
  8
0
  6
Continuous
 62
     7
370
    15
100
AcDbLine
 10
7.1260748501
 20
24.1691755554
 30
0.0
 11
6.71325
 21
24.1691755554
 31
0.0
  0
LINE
  5
A8
330
1F
100
AcDbEntity
  8
0
  6
Continuous
 62
     7
370
    15
100
AcDbLine
 10
6.71325
 20
23.5890134179
 30
0.0
 11
6.255243417
 21
23.5890134179
 31
0.0
  0
LINE
  5
A9
330
1F
100
AcDbEntity
  8
0
  6
Continuous
 62
     7
370
    15
100
AcDbLine
 10
7.171256583
 20
23.5890134179
 30
0.0
 11
6.71325
 21
23.5890134179
 31
0.0
  0
LINE
  5
AA
330
1F
100
AcDbEntity
  8
0
  6
Continuous
 62
     7
370
    15
100
AcDbLine
 10
6.71325
 20
20.2999637832
 30
0.0
 11
7.31325
 21
20.2999637832
 31
0.0
  0
LINE
  5
AB
330
1F
100
AcDbEntity
  8
0
  6
Continuous
 62
     7
370
    15
100
AcDbLine
 10
6.11325
 20
20.2999637832
 30
0.0
 11
6.71325
 21
20.2999637832
 31
0.0
  0
LINE
  5
AC
330
1F
100
AcDbEntity
  8
0
  6
Continuous
 62
     7
370
    15
100
AcDbLine
 10
6.71325
 20
20.2879637832
 30
0.0
 11
7.31325
 21
20.2879637832
 31
0.0
  0
LINE
  5
AD
330
1F
100
AcDbEntity
  8
0
  6
Continuous
 62
     7
370
    15
100
AcDbLine
 10
6.11325
 20
20.2879637832
 30
0.0
 11
6.71325
 21
20.2879637832
 31
0.0
  0
POINT
  5
AE
330
1F
100
AcDbEntity
  8
0
  6
Continuous
 62
     7
370
     0
100
AcDbPoint
 10
6.7143734509
 20
24.4931746115
 30
0.0
  0
DIMENSION
  5
AF
330
1F
100
AcDbEntity
  8
0
  6
Continuous
 62
     7
370
     0
100
AcDbDimension
  2
*D4
 10
8.91325
 20
20.2879637832
 30
0.0
 11
8.91325
 21
22.2007855902
 31
0.0
 70
   160
 71
     2
 42
-1.0
  3
SLDDIMSTYLE0
100
AcDbAlignedDimension
 13
6.7143734509
 23
24.4931746115
 33
0.0
 14
7.31325
 24
20.2879637832
 34
0.0
 50
90.0
100
AcDbRotatedDimension
  0
DIMENSION
  5
CE
330
1F
100
AcDbEntity
  8
0
  6
Continuous
 62
     7
370
     0
100
AcDbDimension
  2
*D5
 10
7.31325
 20
18.6874938982
 30
0.0
 11
6.6671182307
 21
18.6874938982
 31
0.0
 70
   160
  1
%%c<>
 71
     2
 42
-1.0
  3
SLDDIMSTYLE1
100
AcDbAlignedDimension
 13
6.11325
 23
20.2879637832
 33
0.0
 14
7.31325
 24
20.2879637832
 34
0.0
100
AcDbRotatedDimension
  0
SPLINE
  5
E7
330
1F
100
AcDbEntity
  8
0
  6
Continuous
 62
     7
370
    15
100
AcDbSpline
210
0.0
220
0.0
230
1.0
 70
     8
 71
     3
 72
   136
 73
   132
 74
     0
 42
0.00000001
 43
0.00000001
 40
0.0
 40
0.0
 40
0.0
 40
0.0
 40
0.0029797650100642
 40
0.0118202732346045
 40
0.0198975424762645
 40
0.0272116438693809
 40
0.0337626453715105
 40
0.0402807614757463
 40
0.045813633577836
 40
0.0503613326497797
 40
0.0539239171658017
 40
0.0565288255319432
 40
0.0587115465888244
 40
0.0606790093913093
 40
0.0625073699251922
 40
0.064816025137291
 40
0.0677410308691943
 40
0.0712823646747753
 40
0.0754399998939719
 40
0.0811393791284066
 40
0.0875222888795418
 40
0.0940545875673797
 40
0.100699125068171
 40
0.1074559023520871
 40
0.114324922502241
 40
0.1309603169307865
 40
0.1482195175972
 40
0.1641568521822844
 40
0.1805170375703447
 40
0.1966865286821785
 40
0.212529932035521
 40
0.2309661693612741
 40
0.2489406693788424
 40
0.2664535420974831
 40
0.2835048398289869
 40
0.2999872669121402
 40
0.3157952965444263
 40
0.3300516884193897
 40
0.3437109377087369
 40
0.3470127629175039
 40
0.3498431994381965
 40
0.3522002509475861
 40
0.3540838930288578
 40
0.3554941060350846
 40
0.3565430822232379
 40
0.3583259149911422
 40
0.3608601180876757
 40
0.3641457343428916
 40
0.3681828197314072
 40
0.3729701444841154
 40
0.3925954028147305
 40
0.403531375306289
 40
0.4141426012573495
 40
0.4244290081930923
 40
0.4344778813245257
 40
0.4451050441208806
 40
0.4565105751581871
 40
0.4686947043033943
 40
0.4796190206458935
 40
0.4911017662265745
 40
0.5030955882035788
 40
0.5146833234413559
 40
0.525512385606424
 40
0.5305523366234792
 40
0.5354091904550738
 40
0.5400829156339917
 40
0.5445734867527282
 40
0.5487392519667841
 40
0.5521149231527668
 40
0.5546640927774842
 40
0.5563867675229637
 40
0.5580576272507197
 40
0.5605071968723506
 40
0.5637357069218719
 40
0.5677431259877789
 40
0.5725126870013566
 40
0.5774794046893132
 40
0.5823669237247356
 40
0.5871752330907589
 40
0.6017712970921826
 40
0.6155847618562912
 40
0.6258266555604448
 40
0.6366254205120724
 40
0.6480109631794354
 40
0.6599829713864694
 40
0.6725411515531621
 40
0.6853973947813936
 40
0.7019588466409633
 40
0.7180336704114602
 40
0.7229853970071358
 40
0.7278607379853496
 40
0.7321548325369664
 40
0.7356819634862519
 40
0.738442182187862
 40
0.7403739284402847
 40
0.741768102393395
 40
0.7436106358823757
 40
0.7460581729664713
 40
0.7491107072060322
 40
0.7527127925712492
 40
0.7588311196298251
 40
0.7654156084704898
 40
0.7724663979778053
 40
0.7791559270454256
 40
0.786217483510012
 40
0.7936512459695134
 40
0.8014574165166433
 40
0.8095471681186136
 40
0.8172840809757278
 40
0.825937255082125
 40
0.8339017066653962
 40
0.8411771729052259
 40
0.8477633874546985
 40
0.8536600935753338
 40
0.8587801214478626
 40
0.8636751543142948
 40
0.8691509053254192
 40
0.8752247422888891
 40
0.8820237203548243
 40
0.8894431682587147
 40
0.8974833140250045
 40
0.9061443789998439
 40
0.9153458701263905
 40
0.9271353968852897
 40
0.9383944421024668
 40
0.949122531504643
 40
0.9600272429042063
 40
0.9703215280731878
 40
0.980145185071493
 40
0.9900215226748974
 40
1.0
 40
1.0
 40
1.0
 40
1.0
 10
15.82423498040716
 20
20.62849538045034
 30
0.0
 10
15.8240720205403
 20
20.63118303117077
 30
0.0
 10
15.82342558360787
 20
20.6418445315802
 30
0.0
 10
15.82231248890343
 20
20.65978994349405
 30
0.0
 10
15.82094034310553
 20
20.68164341078666
 30
0.0
 10
15.81967646336348
 20
20.7014307401837
 30
0.0
 10
15.81848516793328
 20
20.7198109368488
 30
0.0
 10
15.81738211586059
 20
20.73658390741711
 30
0.0
 10
15.81638433785591
 20
20.75154965217579
 30
0.0
 10
15.81555459152477
 20
20.76384997787389
 30
0.0
 10
15.81489666896735
 20
20.77351010150771
 30
0.0
 10
15.81438017802131
 20
20.78103785559258
 30
0.0
 10
15.81395994220219
 20
20.78712743465617
 30
0.0
 10
15.8135861447375
 20
20.79251684204469
 30
0.0
 10
15.81320270725127
 20
20.79801965089764
 30
0.0
 10
15.81275687463489
 20
20.80438546750009
 30
0.0
 10
15.81219931923028
 20
20.81229513298231
 30
0.0
 10
15.81151884001844
 20
20.82187105963918
 30
0.0
 10
15.81065233550878
 20
20.83394707555483
 30
0.0
 10
15.80958886562655
 20
20.84858327088057
 30
0.0
 10
15.80835082175621
 20
20.86535823144055
 30
0.0
 10
15.80702782464047
 20
20.88298329883471
 30
0.0
 10
15.80565585933386
 20
20.90094346120732
 30
0.0
 10
15.80423548254945
 20
20.91920506522937
 30
0.0
 10
15.80207557941676
 20
20.94646436185548
 30
0.0
 10
15.79907168647863
 20
20.9831767322941
 30
0.0
 10
15.79522176871446
 20
21.02804129225143
 30
0.0
 10
15.79120847901599
 20
21.07264184326281
 30
0.0
 10
15.78709807741831
 20
21.1162446162183
 30
0.0
 10
15.7827982986767
 20
21.1597438430232
 30
0.0
 10
15.77810496956772
 20
21.20508878616127
 30
0.0
 10
15.77301914962006
 20
21.25203238176796
 30
0.0
 10
15.76753124578026
 20
21.30044919225437
 30
0.0
 10
15.76196330878446
 20
21.34759690626648
 30
0.0
 10
15.75635018937697
 20
21.39338116441505
 30
0.0
 10
15.75073916199497
 20
21.43761319232556
 30
0.0
 10
15.74528212944106
 20
21.4793186250672
 30
0.0
 10
15.74001654823228
 20
21.5184759877673
 30
0.0
 10
15.73616678844961
 20
21.54642095271442
 30
0.0
 10
15.7336921189863
 20
21.56413299115364
 30
0.0
 10
15.73262540359242
 20
21.57172960806565
 30
0.0
 10
15.73173321583954
 20
21.57805665429311
 30
0.0
 10
15.73101783285268
 20
21.58311258734106
 30
0.0
 10
15.73046662547254
 20
21.58699796849145
 30
0.0
 10
15.7299271789345
 20
21.59079301227741
 30
0.0
 10
15.72924329384196
 20
21.59559339816269
 30
0.0
 10
15.72827111629647
 20
21.60239419991212
 30
0.0
 10
15.72700504480387
 20
21.61121069147409
 30
0.0
 10
15.72544091035535
 20
21.62204123755738
 30
0.0
 10
15.7217419999026
 20
21.64748153724942
 30
0.0
 10
15.71706315288543
 20
21.67907890847729
 30
0.0
 10
15.71149664739569
 20
21.71586455550151
 30
0.0
 10
15.70713032966585
 20
21.74429686948265
 30
0.0
 10
15.70282796752099
 20
21.77192793739053
 30
0.0
 10
15.69846825445327
 20
21.799564592219
 30
0.0
 10
15.69389395272483
 20
21.82819111214775
 30
0.0
 10
15.68895170204885
 20
21.85871271816939
 30
0.0
 10
15.68389945334059
 20
21.88948845341194
 30
0.0
 10
15.67877158710436
 20
21.92032240550959
 30
0.0
 10
15.67361130938395
 20
21.95097657990502
 30
0.0
 10
15.66828804322122
 20
21.98221116706891
 30
0.0
 10
15.66300381359555
 20
22.01285314285112
 30
0.0
 10
15.6587381825527
 20
22.03729429078161
 30
0.0
 10
15.65548908328861
 20
22.05573869046047
 30
0.0
 10
15.65319163908292
 20
22.06870297444507
 30
0.0
 10
15.65096801759877
 20
22.08117616627817
 30
0.0
 10
15.64884187228273
 20
22.09303239912543
 30
0.0
 10
15.64691208209249
 20
22.10373217474569
 30
0.0
 10
15.64528562707406
 20
22.11270405386994
 30
0.0
 10
15.64404805875693
 20
22.11950281249995
 30
0.0
 10
15.64308357811133
 20
22.1247854577917
 30
0.0
 10
15.64213305313795
 20
22.12997916184832
 30
0.0
 10
15.64093415539449
 20
22.13651071829945
 30
0.0
 10
15.63934777676817
 20
22.14511779338252
 30
0.0
 10
15.63737125043322
 20
22.1557846658393
 30
0.0
 10
15.63509408255126
 20
22.16799324595416
 30
0.0
 10
15.6326534965774
 20
22.18098032830267
 30
0.0
 10
15.63018804114575
 20
22.19399835130376
 30
0.0
 10
15.62607256743585
 20
22.21555983654792
 30
0.0
 10
15.6203579978226
 20
22.2450273894317
 30
0.0
 10
15.61354828661588
 20
22.27928357928595
 30
0.0
 10
15.60727607700513
 20
22.31014779214596
 30
0.0
 10
15.60132824405131
 20
22.3388389371399
 30
0.0
 10
15.59493156821514
 20
22.369033373094
 30
0.0
 10
15.58805216473827
 20
22.40075032246462
 30
0.0
 10
15.58071468639481
 20
22.43372732636623
 30
0.0
 10
15.57226043297316
 20
22.47070377112256
 30
0.0
 10
15.56281277178446
 20
22.51071199305331
 30
0.0
 10
15.55472861437561
 20
22.54370179666009
 30
0.0
 10
15.54902717598737
 20
22.56640234559762
 30
0.0
 10
15.54588500831183
 20
22.57876965635651
 30
0.0
 10
15.54303095785333
 20
22.58988192499728
 30
0.0
 10
15.54063154247507
 20
22.59913762413336
 30
0.0
 10
15.53875465421399
 20
22.60632352840965
 30
0.0
 10
15.53735750919651
 20
22.61164267999324
 30
0.0
 10
15.53616658850697
 20
22.61615862570323
 30
0.0
 10
15.53485204436483
 20
22.62112398315737
 30
0.0
 10
15.53314576408243
 20
22.62753578634103
 30
0.0
 10
15.53101742759247
 20
22.63548057335175
 30
0.0
 10
15.52800819729866
 20
22.64662333059584
 30
0.0
 10
15.52412424297158
 20
22.66083571404761
 30
0.0
 10
15.51935291698517
 20
22.67803607213198
 30
0.0
 10
15.51437292032048
 20
22.69571404375281
 30
0.0
 10
15.50920534388834
 20
22.71378688322741
 30
0.0
 10
15.50387274941166
 20
22.73217233215299
 30
0.0
 10
15.49818407253768
 20
22.75150495726726
 30
0.0
 10
15.49215357559514
 20
22.77170532421721
 30
0.0
 10
15.48596393816434
 20
22.79214388988906
 30
0.0
 10
15.47947265057658
 20
22.81329062887583
 30
0.0
 10
15.47293580154532
 20
22.8343047927156
 30
0.0
 10
15.46644827716417
 20
22.85489745293138
 30
0.0
 10
15.46046249771845
 20
22.87368981805483
 30
0.0
 10
15.45499703821472
 20
22.89068687722281
 30
0.0
 10
15.45009190308083
 20
22.90581813375518
 30
0.0
 10
15.44563052602957
 20
22.91948672137012
 30
0.0
 10
15.44126371505869
 20
22.93278601191478
 30
0.0
 10
15.43660318978077
 20
22.94689600189417
 30
0.0
 10
15.43137349822646
 20
22.96262983895542
 30
0.0
 10
15.42555512669871
 20
22.98001882481402
 30
0.0
 10
15.41913331605106
 20
22.99907948481993
 30
0.0
 10
15.41213062950083
 20
23.01971994779448
 30
0.0
 10
15.40456379019394
 20
23.04186940503079
 30
0.0
 10
15.39584943568228
 20
23.06720706102886
 30
0.0
 10
15.38631167212182
 20
23.0947440208937
 30
0.0
 10
15.37626366355685
 20
23.12356404597553
 30
0.0
 10
15.36643324789957
 20
23.15161314528308
 30
0.0
 10
15.35685575801961
 20
23.17882708807504
 30
0.0
 10
15.34752373268706
 20
23.20526099886253
 30
0.0
 10
15.33848424670908
 20
23.23081270699531
 30
0.0
 10
15.32952972330897
 20
23.2560917659703
 30
0.0
 10
15.32353722057863
 20
23.27300269417942
 30
0.0
 10
15.32052555550744
 20
23.28150165598232
 30
0.0
  0
SPLINE
  5
E8
330
1F
100
AcDbEntity
  8
0
  6
Continuous
 62
     7
370
    15
100
AcDbSpline
210
0.0
220
0.0
230
1.0
 70
     8
 71
     3
 72
    16
 73
    12
 74
     0
 42
0.00000001
 43
0.00000001
 40
0.0
 40
0.0
 40
0.0
 40
0.0
 40
0.1536326099904336
 40
0.2993497972829068
 40
0.4371503083275804
 40
0.5670334342034034
 40
0.688998922418676
 40
0.8030468869576773
 40
0.9091777216797361
 40
0.9995098471480954
 40
1.0
 40
1.0
 40
1.0
 40
1.0
 10
15.84278170982361
 20
20.3000947403206
 30
0.0
 10
15.84191750324762
 20
20.31600401692069
 30
0.0
 10
15.84023361554079
 20
20.34700289616546
 30
0.0
 10
15.83776528805638
 20
20.39227107047453
 30
0.0
 10
15.83541051271319
 20
20.43507879418748
 30
0.0
 10
15.83316372173625
 20
20.47542551716861
 30
0.0
 10
15.83102138792001
 20
20.51331092850014
 30
0.0
 10
15.8289849494371
 20
20.54873511109915
 30
0.0
 10
15.82709805672656
 20
20.58088184962682
 30
0.0
 10
15.82588886052991
 20
20.60127139773976
 30
0.0
 10
15.82531769261342
 20
20.61067294386908
 30
0.0
 10
15.82531461011441
 20
20.61072368246244
 30
0.0
  0
SPLINE
  5
E9
330
1F
100
AcDbEntity
  8
0
  6
Continuous
 62
     7
370
    15
100
AcDbSpline
210
0.0
220
0.0
230
1.0
 70
     8
 71
     3
 72
   151
 73
   147
 74
     0
 42
0.00000001
 43
0.00000001
 40
0.0
 40
0.0
 40
0.0
 40
0.0
 40
0.0040956039360774
 40
0.0075833157027832
 40
0.010513031211746
 40
0.0135286998503844
 40
0.0168275659419117
 40
0.0204096140783621
 40
0.0266106422025513
 40
0.0335108094107236
 40
0.0411099842921041
 40
0.0484855033882284
 40
0.0562779469653281
 40
0.0639417946139576
 40
0.0714221876093541
 40
0.078719124381423
 40
0.0858326130940104
 40
0.0980790448335973
 40
0.1097407140904609
 40
0.1208178344147518
 40
0.1315047210473309
 40
0.142724574529383
 40
0.1545968421659288
 40
0.1650736612220999
 40
0.17601077287016
 40
0.1874083025763835
 40
0.1992556035911446
 40
0.2062855601188165
 40
0.2124768584030568
 40
0.2178295544805518
 40
0.2223436499399509
 40
0.226019104248744
 40
0.2284413113007064
 40
0.2303479161598883
 40
0.2322734317179294
 40
0.2343702230185986
 40
0.2369465297669751
 40
0.240072059119721
 40
0.2444609066590384
 40
0.249612887741834
 40
0.2555281953196951
 40
0.262207071295217
 40
0.2731440726978051
 40
0.2843304714768966
 40
0.2953041540478416
 40
0.3060650503772611
 40
0.316613041026554
 40
0.3269479677522519
 40
0.3370696429315535
 40
0.3469778578888162
 40
0.3555203374752137
 40
0.3637714302057909
 40
0.3712349190757458
 40
0.377859748399579
 40
0.3824764516660086
 40
0.3865751447582279
 40
0.3901557468319009
 40
0.3932179617043975
 40
0.3953480707917893
 40
0.3969968888195113
 40
0.3988234452472305
 40
0.4013741543597449
 40
0.4046490473486159
 40
0.4086481550907255
 40
0.4130820851275332
 40
0.4181598541305655
 40
0.4238814460359763
 40
0.4302156659650401
 40
0.436575353124201
 40
0.4474410355506964
 40
0.4576773122385165
 40
0.4672842476124913
 40
0.4762619204018935
 40
0.4846104167946083
 40
0.4920486075998783
 40
0.4991887876343724
 40
0.5068130560284028
 40
0.5149664163974201
 40
0.5236487721301897
 40
0.5328600223341212
 40
0.5379368799096322
 40
0.5431611408480868
 40
0.548525610872694
 40
0.5535850513703223
 40
0.5580755732861529
 40
0.5619321898080534
 40
0.5652401221298651
 40
0.5679994078601356
 40
0.5702100778801309
 40
0.5720829552708613
 40
0.5740814023375521
 40
0.5765838948770153
 40
0.5795595045781758
 40
0.5829868833831352
 40
0.5868660035442225
 40
0.5911968348357421
 40
0.5959793451284999
 40
0.6014740115452645
 40
0.6074643229775967
 40
0.6136635113262553
 40
0.6196770705791926
 40
0.6255026085538555
 40
0.6311401508384157
 40
0.641582634930247
 40
0.6513119338691816
 40
0.6603281722053406
 40
0.6688130048953383
 40
0.6774313032453453
 40
0.6862444083307365
 40
0.6952523785849019
 40
0.7079567927754392
 40
0.7211881510726323
 40
0.7350863135969937
 40
0.7496516022906407
 40
0.7592679255942164
 40
0.7691488364717992
 40
0.778950847839933
 40
0.7884727557324904
 40
0.7977145255233606
 40
0.8066761152414198
 40
0.8153574777693295
 40
0.8237116013419522
 40
0.8274120907744392
 40
0.8306087024061652
 40
0.8333014017133303
 40
0.8354901597896017
 40
0.8372544074013473
 40
0.839294796758487
 40
0.8417755959861176
 40
0.8458713188783675
 40
0.8503723129331862
 40
0.8551676984223853
 40
0.8602575013477036
 40
0.8673071443518424
 40
0.8748534618105694
 40
0.8828965106216634
 40
0.8916153500756501
 40
0.9011985648242073
 40
0.9116462839107835
 40
0.9229585917581222
 40
0.9340877794285594
 40
0.9459435435122321
 40
0.9585258856293356
 40
0.9718347751579354
 40
0.9858701432775574
 40
1.0
 40
1.0
 40
1.0
 40
1.0
 10
15.29305783501759
 20
23.27074180788435
 30
0.0
 10
15.29442846715627
 20
23.26684285291513
 30
0.0
 10
15.2969662946372
 20
23.25962364741969
 30
0.0
 10
15.30048350243029
 20
23.24961501728905
 30
0.0
 10
15.3036384344004
 20
23.24063416564374
 30
0.0
 10
15.30672906003123
 20
23.2318327033748
 30
0.0
 10
15.31003622316612
 20
23.22240960792901
 30
0.0
 10
15.31440518312496
 20
23.20995261791792
 30
0.0
 10
15.31997122089277
 20
23.19406438955412
 30
0.0
 10
15.32686575324392
 20
23.17434635455454
 30
0.0
 10
15.33413465266911
 20
23.15350369126056
 30
0.0
 10
15.34167831908774
 20
23.13180328722069
 30
0.0
 10
15.34921771941713
 20
23.11003232282614
 30
0.0
 10
15.35676151779319
 20
23.08815090914674
 30
0.0
 10
15.3641096419403
 20
23.066730956594
 30
0.0
 10
15.37124295647406
 20
23.04582447767686
 30
0.0
 10
15.37988419662758
 20
23.02035091742666
 30
0.0
 10
15.3898636006773
 20
22.99068039877454
 30
0.0
 10
15.40099626861504
 20
22.95717814737849
 30
0.0
 10
15.41150895734999
 20
22.92512847884646
 30
0.0
 10
15.4217540492328
 20
22.89346052287652
 30
0.0
 10
15.43210170904055
 20
22.86098274758406
 30
0.0
 10
15.4422206056677
 20
22.82865497439782
 30
0.0
 10
15.45208301443306
 20
22.79654641302698
 30
0.0
 10
15.46163168199346
 20
22.7648431031558
 30
0.0
 10
15.47137813999283
 20
22.73175567594496
 30
0.0
 10
15.47981263937814
 20
22.70239264904757
 30
0.0
 10
15.48665471950909
 20
22.67803889298807
 30
0.0
 10
15.49164776178772
 20
22.65997326163633
 30
0.0
 10
15.49590500037521
 20
22.64433833037846
 30
0.0
 10
15.49945107686555
 20
22.63114100550844
 30
0.0
 10
15.50220095903205
 20
22.62079183020371
 30
0.0
 10
15.50425919504796
 20
22.61298140761689
 30
0.0
 10
15.50585865159066
 20
22.60687623331447
 30
0.0
 10
15.50736755139282
 20
22.60108679718249
 30
0.0
 10
15.50903836950403
 20
22.59464119888058
 30
0.0
 10
15.51100141884623
 20
22.58702041008047
 30
0.0
 10
15.51352322093809
 20
22.57715516176721
 30
0.0
 10
15.51665891722249
 20
22.5647641932534
 30
0.0
 10
15.5204397343442
 20
22.5496326486984
 30
0.0
 10
15.5247211339737
 20
22.53224437547497
 30
0.0
 10
15.53031008627285
 20
22.50916622386389
 30
0.0
 10
15.53700362490951
 20
22.48088303812386
 30
0.0
 10
15.54449095893269
 20
22.44833480437617
 30
0.0
 10
15.55174359054318
 20
22.41591556892916
 30
0.0
 10
15.55867646903359
 20
22.38408549666643
 30
0.0
 10
15.56530797483373
 20
22.35284993657147
 30
0.0
 10
15.57165541116944
 20
22.32221388417939
 30
0.0
 10
15.57773503728659
 20
22.29218199432089
 30
0.0
 10
15.58333625782943
 20
22.26389897694287
 30
0.0
 10
15.58847345390454
 20
22.23744853857361
 30
0.0
 10
15.59306384128576
 20
22.21340509404443
 30
0.0
 10
15.59722879736465
 20
22.19125057448153
 30
0.0
 10
15.60067151307084
 20
22.17269203240072
 30
0.0
 10
15.60346705449098
 20
22.15746679984156
 30
0.0
 10
15.6056910911241
 20
22.14525991402012
 30
0.0
 10
15.60762147749064
 20
22.13459398501537
 30
0.0
 10
15.60918951337094
 20
22.12588124202069
 30
0.0
 10
15.61040717570168
 20
22.11908611650704
 30
0.0
 10
15.61140191761849
 20
22.11351780405113
 30
0.0
 10
15.61246838953649
 20
22.10753116163849
 30
0.0
 10
15.61381805835998
 20
22.09992827264612
 30
0.0
 10
15.61554326701123
 20
22.09016546548436
 30
0.0
 10
15.61758812045914
 20
22.07852935578909
 30
0.0
 10
15.6199336249116
 20
22.06509893625056
 30
0.0
 10
15.62256083589323
 20
22.04995326566225
 30
0.0
 10
15.62549479076637
 20
22.0329146071904
 30
0.0
 10
15.62862465624708
 20
22.01459708263894
 30
0.0
 10
15.63259913765645
 20
21.99115778781839
 30
0.0
 10
15.63718968732605
 20
21.96382922398629
 30
0.0
 10
15.64226599536235
 20
21.93325962212544
 30
0.0
 10
15.64697757021092
 20
21.90456077517005
 30
0.0
 10
15.65133322506857
 20
21.87773399241465
 30
0.0
 10
15.65529645017156
 20
21.85306065993825
 30
0.0
 10
15.65892957263892
 20
21.83021230901216
 30
0.0
 10
15.6624150113592
 20
21.80808049684478
 30
0.0
 10
15.66597761513674
 20
21.78523029388231
 30
0.0
 10
15.66973906715349
 20
21.7608361229766
 30
0.0
 10
15.67369708324546
 20
21.73485196136119
 30
0.0
 10
15.67714208032309
 20
21.71192999187213
 30
0.0
 10
15.68003684071627
 20
21.69245410413001
 30
0.0
 10
15.68234238432779
 20
21.67681506105844
 30
0.0
 10
15.68462609713117
 20
21.66119057711195
 30
0.0
 10
15.6867844142168
 20
21.64629605680174
 30
0.0
 10
15.68870926225064
 20
21.63290517493431
 30
0.0
 10
15.69037091866109
 20
21.62126207267445
 30
0.0
 10
15.69177711298975
 20
21.61134719988927
 30
0.0
 10
15.69294392907004
 20
21.60307591758901
 30
0.0
 10
15.69390427555634
 20
21.596237955341
 30
0.0
 10
15.69475476793671
 20
21.59015985892404
 30
0.0
 10
15.69564299963949
 20
21.58378969837119
 30
0.0
 10
15.69668070066703
 20
21.57631685305709
 30
0.0
 10
15.69791060164868
 20
21.56741493506951
 30
0.0
 10
15.69932230053717
 20
21.55713579367367
 30
0.0
 10
15.70090923802719
 20
21.54550033940498
 30
0.0
 10
15.70266727159625
 20
21.53250811065242
 30
0.0
 10
15.70462665418534
 20
21.51789803955455
 30
0.0
 10
15.70678673904812
 20
21.50162533213945
 30
0.0
 10
15.70910804824869
 20
21.48393194189207
 30
0.0
 10
15.71146773483015
 20
21.46571551069612
 30
0.0
 10
15.71377617446262
 20
21.44766012818135
 30
0.0
 10
15.71598433561802
 20
21.43016331601018
 30
0.0
 10
15.71871723167395
 20
21.40822809841409
 30
0.0
 10
15.72187892911116
 20
21.38237661503075
 30
0.0
 10
15.72537031253225
 20
21.35313074997041
 30
0.0
 10
15.72855323573047
 20
21.32583765279374
 30
0.0
 10
15.73153871434156
 20
21.29965032740149
 30
0.0
 10
15.73443448442738
 20
21.27365916824265
 30
0.0
 10
15.73731857368438
 20
21.24713563637202
 30
0.0
 10
15.74056439945477
 20
21.21650396684075
 30
0.0
 10
15.74416122080933
 20
21.18142623407806
 30
0.0
 10
15.74809624484861
 20
21.14142295604207
 30
0.0
 10
15.75203118754052
 20
21.09953320054887
 30
0.0
 10
15.75545828601639
 20
21.06126008678614
 30
0.0
 10
15.75840430025424
 20
21.02701420378746
 30
0.0
 10
15.7608587452677
 20
20.99755049543504
 30
0.0
 10
15.76322854833727
 20
20.9681754472931
 30
0.0
 10
15.76547601093602
 20
20.93943767211811
 30
0.0
 10
15.76759385366634
 20
20.91154049359534
 30
0.0
 10
15.76959041203161
 20
20.88448480414667
 30
0.0
 10
15.771469959407
 20
20.85831868986162
 30
0.0
 10
15.77293157379207
 20
20.83744522192071
 30
0.0
 10
15.7739879245715
 20
20.8220915843982
 30
0.0
 10
15.77464557426048
 20
20.81243693788175
 30
0.0
 10
15.77519491288491
 20
20.80430393019236
 30
0.0
 10
15.7756437318343
 20
20.79761281800286
 30
0.0
 10
15.77604625248069
 20
20.79157832187411
 30
0.0
 10
15.77646614527863
 20
20.78524963250914
 30
0.0
 10
15.77703818413037
 20
20.77657318522697
 30
0.0
 10
15.77776693253145
 20
20.76541869597841
 30
0.0
 10
15.77863772771161
 20
20.75193287357352
 30
0.0
 10
15.77956163276661
 20
20.73744527483847
 30
0.0
 10
15.78063524626118
 20
20.72039017572845
 30
0.0
 10
15.78186401358985
 20
20.70056340490048
 30
0.0
 10
15.78325183698026
 20
20.67776068291797
 30
0.0
 10
15.78471462532037
 20
20.65327504677326
 30
0.0
 10
15.78627010641118
 20
20.62673587533849
 30
0.0
 10
15.78793452075314
 20
20.5977723973426
 30
0.0
 10
15.7897130406673
 20
20.56619412150752
 30
0.0
 10
15.79154239838717
 20
20.53305622266964
 30
0.0
 10
15.79341527803914
 20
20.49849773076354
 30
0.0
 10
15.79532562102015
 20
20.46265781797653
 30
0.0
 10
15.79732315489242
 20
20.42461991663366
 30
0.0
 10
15.79940966259064
 20
20.38438423936512
 30
0.0
 10
15.80155680182975
 20
20.34258802490046
 30
0.0
 10
15.80300601018257
 20
20.31420360506849
 30
0.0
 10
15.80373304525866
 20
20.29996378317378
 30
0.0
  0
SPLINE
  5
EA
330
1F
100
AcDbEntity
  8
0
  6
Continuous
 62
     7
370
    15
100
AcDbSpline
210
0.0
220
0.0
230
1.0
 70
     8
 71
     3
 72
    92
 73
    88
 74
     0
 42
0.00000001
 43
0.00000001
 40
0.0
 40
0.0
 40
0.0
 40
0.0
 40
0.0000036620225738
 40
0.0124128921093649
 40
0.0241501707554601
 40
0.0352209966923218
 40
0.0456298737695637
 40
0.0553804688083761
 40
0.0639736445133347
 40
0.0719862628641654
 40
0.0794201335388206
 40
0.0862768498837901
 40
0.0925575723494338
 40
0.0997359318356494
 40
0.1065304219305862
 40
0.1133730146760678
 40
0.1202644881532972
 40
0.1272056555410405
 40
0.1341973663466066
 40
0.1412405076881842
 40
0.1574427054678075
 40
0.1737500504230043
 40
0.1898314755387769
 40
0.2056720564471246
 40
0.2212658218963434
 40
0.2367475164890345
 40
0.2522781296035858
 40
0.2644858899569285
 40
0.2767186968338791
 40
0.2889740060184463
 40
0.301445823435145
 40
0.3143655886843875
 40
0.3274885633255077
 40
0.3410445826820538
 40
0.3550386185324936
 40
0.3694767277618385
 40
0.3820810361730425
 40
0.3949965880477196
 40
0.4076810285392926
 40
0.4198830125249837
 40
0.4316027984178691
 40
0.4428402600320563
 40
0.4529934208534657
 40
0.4627167224130738
 40
0.4720092776850567
 40
0.4808665207297656
 40
0.4895160546700151
 40
0.5022519910118655
 40
0.5154797915218514
 40
0.5291986441168813
 40
0.5434013962569098
 40
0.5577722230476163
 40
0.5765844324387268
 40
0.5953928726554534
 40
0.6142002984031221
 40
0.6393839965405116
 40
0.664569479610221
 40
0.6897568428825921
 40
0.7149416181161856
 40
0.7292535852798991
 40
0.7435659680224386
 40
0.7578764433297984
 40
0.7721864605317252
 40
0.7864974925778158
 40
0.8007407178475907
 40
0.8145262160300203
 40
0.8277940811996027
 40
0.8331884489663087
 40
0.8384923322453425
 40
0.8437057216092873
 40
0.8488286016034842
 40
0.8539489815618619
 40
0.859656142435899
 40
0.8656753212647704
 40
0.8723148395805206
 40
0.8795758196670591
 40
0.8874595771014144
 40
0.895967646392512
 40
0.9051018097717805
 40
0.9148641294553784
 40
0.9252569837529203
 40
0.9362831074581601
 40
0.947945637022842
 40
0.96002284375328
 40
0.9727212685214264
 40
0.9860453194004336
 40
0.9999999999999999
 40
0.9999999999999999
 40
0.9999999999999999
 40
0.9999999999999999
 10
12.96327305854546
 20
24.16917555536897
 30
0.0
 10
12.96327566280962
 20
24.16917802449979
 30
0.0
 10
12.97210314800551
 20
24.1775474580239
 30
0.0
 10
12.9899828925187
 20
24.19307280495109
 30
0.0
 10
13.01637448994778
 20
24.21531034721289
 30
0.0
 10
13.04193647883369
 20
24.23547533828409
 30
0.0
 10
13.06644504572959
 20
24.25381005053594
 30
0.0
 10
13.08942902460707
 20
24.27011487651167
 30
0.0
 10
13.11083030684423
 20
24.28457875252532
 30
0.0
 10
13.13061792505889
 20
24.29736626612252
 30
0.0
 10
13.14919984863037
 20
24.30887625432819
 30
0.0
 10
13.16652436522151
 20
24.31918664286125
 30
0.0
 10
13.18379742311597
 20
24.32908828791249
 30
0.0
 10
13.20118058746362
 20
24.3386702928767
 30
0.0
 10
13.2192142647324
 20
24.34820611773157
 30
0.0
 10
13.237156403546
 20
24.35730747277906
 30
0.0
 10
13.25538074445936
 20
24.36616374778581
 30
0.0
 10
13.2738873183838
 20
24.37476667184832
 30
0.0
 10
13.2926761711273
 20
24.38310787125832
 30
0.0
 10
13.31996571553364
 20
24.3946571240452
 30
0.0
 10
13.35609393718815
 20
24.40872993395916
 30
0.0
 10
13.40113653085624
 20
24.42421693945598
 30
0.0
 10
13.44642224930302
 20
24.43779058274776
 30
0.0
 10
13.49152927613168
 20
24.44939685958112
 30
0.0
 10
13.53647824138127
 20
24.4591182327936
 30
0.0
 10
13.58146986485506
 20
24.46704277316361
 30
0.0
 10
13.62344610439307
 20
24.47277382322591
 30
0.0
 10
13.66242136078914
 20
24.47673981414914
 30
0.0
 10
13.69829672299899
 20
24.47930138560333
 30
0.0
 10
13.73449147097406
 20
24.48079154308616
 30
0.0
 10
13.77138829548488
 20
24.48118688295927
 30
0.0
 10
13.80913017301981
 20
24.48040931410864
 30
0.0
 10
13.84788875727809
 20
24.47835951929157
 30
0.0
 10
13.88760808486906
 20
24.47494049270028
 30
0.0
 10
13.92846794289792
 20
24.47001497050974
 30
0.0
 10
13.96820856362249
 20
24.4638001753099
 30
0.0
 10
14.00667878262836
 20
24.45646082442937
 30
0.0
 10
14.04322235346203
 20
24.44829046154955
 30
0.0
 10
14.07910848999734
 20
24.43907248081236
 30
0.0
 10
14.11356982106006
 20
24.42908764223423
 30
0.0
 10
14.1463723946847
 20
24.41852891899207
 30
0.0
 10
14.17697034289321
 20
24.40771804611324
 30
0.0
 10
14.2054458135118
 20
24.39680745810555
 30
0.0
 10
14.23188258094596
 20
24.38592856879309
 30
0.0
 10
14.25689725238621
 20
24.37495024407659
 30
0.0
 10
14.28069781618068
 20
24.36384443082594
 30
0.0
 10
14.30740270342599
 20
24.35098975112536
 30
0.0
 10
14.33772924795898
 20
24.33578988662341
 30
0.0
 10
14.37215874506829
 20
24.31770456352712
 30
0.0
 10
14.40748135697501
 20
24.29824473208027
 30
0.0
 10
14.44336634127605
 20
24.27750185241272
 30
0.0
 10
14.48307478711087
 20
24.25341979913271
 30
0.0
 10
14.52598672252512
 20
24.22593865785777
 30
0.0
 10
14.57171646822593
 20
24.19483433395936
 30
0.0
 10
14.62163190109979
 20
24.15882313188377
 30
0.0
 10
14.675310629648
 20
24.11739260061875
 30
0.0
 10
14.73222472238402
 20
24.07000318786718
 30
0.0
 10
14.78734838230744
 20
24.02054130679549
 30
0.0
 10
14.83294348647794
 20
23.97648193759263
 30
0.0
 10
14.86978926372042
 20
23.9387541950108
 30
0.0
 10
14.89855139723247
 20
23.90804047446049
 30
0.0
 10
14.92666187838561
 20
23.87673200177387
 30
0.0
 10
14.95410919316521
 20
23.84484224780147
 30
0.0
 10
14.98084036863103
 20
23.81243526941869
 30
0.0
 10
15.00656972733002
 20
23.77988003777389
 30
0.0
 10
15.03100850559712
 20
23.74761914173034
 30
0.0
 10
15.04970528008042
 20
23.72189582895492
 30
0.0
 10
15.06325338415491
 20
23.7027108640262
 30
0.0
 10
15.07214836367532
 20
23.6899035080251
 30
0.0
 10
15.08079447782373
 20
23.67724781312692
 30
0.0
 10
15.08924436693696
 20
23.66467637772593
 30
0.0
 10
15.09786677691262
 20
23.65163839611983
 30
0.0
 10
15.10686442432819
 20
23.6377960724835
 30
0.0
 10
15.11654370261472
 20
23.62262197427478
 30
0.0
 10
15.12688916393781
 20
23.60606759739418
 30
0.0
 10
15.13801851132705
 20
23.58784957300241
 30
0.0
 10
15.14988283093747
 20
23.56793628065657
 30
0.0
 10
15.16242844560905
 20
23.54629404453559
 30
0.0
 10
15.17559676312234
 20
23.52288728448489
 30
0.0
 10
15.18932413960073
 20
23.4976786925527
 30
0.0
 10
15.20354161537177
 20
23.47062937506476
 30
0.0
 10
15.21817511626178
 20
23.44169919520804
 30
0.0
 10
15.23304731019957
 20
23.4110450294875
 30
0.0
 10
15.24807929225238
 20
23.37865228372494
 30
0.0
 10
15.26316919141761
 20
23.3444988543404
 30
0.0
 10
15.27837230796451
 20
23.30838815326299
 30
0.0
 10
15.28811859144429
 20
23.28349457759368
 30
0.0
 10
15.29310439047605
 20
23.27076004491502
 30
0.0
  0
SPLINE
  5
EB
330
1F
100
AcDbEntity
  8
0
  6
Continuous
 62
     7
370
    15
100
AcDbSpline
210
0.0
220
0.0
230
1.0
 70
     8
 71
     3
 72
    84
 73
    80
 74
     0
 42
0.00000001
 43
0.00000001
 40
0.0
 40
0.0
 40
0.0
 40
0.0
 40
0.0145160727780232
 40
0.0282004521837362
 40
0.0410589678273315
 40
0.0530966109140896
 40
0.0643176425543214
 40
0.0747256888302862
 40
0.0837971383600869
 40
0.0921507815471475
 40
0.0997884743815507
 40
0.1067117848779495
 40
0.1129242593486074
 40
0.1306832028667794
 40
0.1487723697880403
 40
0.1671938379964484
 40
0.1872081357730284
 40
0.2072374284237198
 40
0.2272674629144164
 40
0.2473001315987434
 40
0.2673300648240042
 40
0.2885739494847047
 40
0.3098204547245944
 40
0.3310637415689969
 40
0.3523070561165966
 40
0.3735527140566435
 40
0.394795194083961
 40
0.4148244301832439
 40
0.4348020031989607
 40
0.4544594266417479
 40
0.47376326650199
 40
0.4927544043199504
 40
0.5062587344948555
 40
0.5198277470102285
 40
0.533431846261328
 40
0.5470446816635068
 40
0.5607587882484623
 40
0.5749770030779078
 40
0.5897485024856005
 40
0.6050744889440309
 40
0.616881492126905
 40
0.6290020728020632
 40
0.6414396874236031
 40
0.6541984476066812
 40
0.6669407461937651
 40
0.6792027635604051
 40
0.6930371535681533
 40
0.7062006425298004
 40
0.7186879576829514
 40
0.7304949129251518
 40
0.7399770805782523
 40
0.7490641322324243
 40
0.758339298710886
 40
0.767897836600822
 40
0.7777385399024956
 40
0.7878599638077732
 40
0.80014664710957
 40
0.8125739861325114
 40
0.8246188043509941
 40
0.8362624777684254
 40
0.842035925797053
 40
0.8477051209220261
 40
0.8532703417427638
 40
0.8587321739062269
 40
0.8642730475542766
 40
0.8704376178584075
 40
0.8773770110382372
 40
0.8850908863404512
 40
0.893579360638204
 40
0.9030187729353368
 40
0.9132635682647384
 40
0.9243163945585529
 40
0.9361809706582259
 40
0.9488612168911424
 40
0.9593996850836145
 40
0.9704474604107296
 40
0.9820080046216785
 40
0.9940854890299831
 40
1.0
 40
1.0
 40
1.0
 40
1.0
 10
15.32047900004898
 20
23.28148341895165
 30
0.0
 10
15.3150376761965
 20
23.29489350021149
 30
0.0
 10
15.30446678726086
 20
23.32094533676062
 30
0.0
 10
15.28807926443603
 20
23.35845914414442
 30
0.0
 10
15.2720503216338
 20
23.39342369598067
 30
0.0
 10
15.25643683696091
 20
23.42587071141537
 30
0.0
 10
15.24137199369187
 20
23.45586463604656
 30
0.0
 10
15.22720161198651
 20
23.48299412250498
 30
0.0
 10
15.21400497926743
 20
23.50740354053299
 30
0.0
 10
15.20184200403996
 20
23.52922965526744
 30
0.0
 10
15.1904883878646
 20
23.54905320754974
 30
0.0
 10
15.18000444420644
 20
23.56691350082173
 30
0.0
 10
15.16415765538212
 20
23.59332408791958
 30
0.0
 10
15.14195267146697
 20
23.62889950077559
 30
0.0
 10
15.1121070609064
 20
23.67403271411594
 30
0.0
 10
15.07977529909615
 20
23.72019406253275
 30
0.0
 10
15.04500302438769
 20
23.76698128516714
 30
0.0
 10
15.00788105913364
 20
23.81398832465396
 30
0.0
 10
14.96938608571488
 20
23.85990167869704
 30
0.0
 10
14.92956235527919
 20
23.90466828074533
 30
0.0
 10
14.88761429143604
 20
23.94912972528596
 30
0.0
 10
14.8434864960387
 20
23.99316137525092
 30
0.0
 10
14.79713029941865
 20
24.03662899838988
 30
0.0
 10
14.74944712651772
 20
24.07863587800342
 30
0.0
 10
14.70048319682282
 20
24.11914130266998
 30
0.0
 10
14.65028551688726
 20
24.15810594292068
 30
0.0
 10
14.59988042373554
 20
24.19478031217336
 30
0.0
 10
14.54943692093727
 20
24.22920336236601
 30
0.0
 10
14.49933857138472
 20
24.26128332525547
 30
0.0
 10
14.44895189220271
 20
24.29152562797285
 30
0.0
 10
14.39858051710051
 20
24.31983534676412
 30
0.0
 10
14.35286939015791
 20
24.34387561644306
 30
0.0
 10
14.31171607342063
 20
24.36426012648022
 30
0.0
 10
14.2750572562418
 20
24.3816054920655
 30
0.0
 10
14.23784423631053
 20
24.3980079651995
 30
0.0
 10
14.19994595866148
 20
24.41315541206479
 30
0.0
 10
14.16099546270222
 20
24.42725756403021
 30
0.0
 10
14.12048582060467
 20
24.44037722133407
 30
0.0
 10
14.0779926112504
 20
24.45250055314763
 30
0.0
 10
14.03741687784472
 20
24.46248374767981
 30
0.0
 10
13.99912396263883
 20
24.47057269150683
 30
0.0
 10
13.96344421190794
 20
24.47702658623739
 30
0.0
 10
13.92664802408725
 20
24.48254654864491
 30
0.0
 10
13.88908308621102
 20
24.48700146371336
 30
0.0
 10
13.85157163293297
 20
24.49026488581029
 30
0.0
 10
13.81290767938019
 20
24.49243702045883
 30
0.0
 10
13.77377219679237
 20
24.49338107504019
 30
0.0
 10
13.73440325949587
 20
24.49303184595012
 30
0.0
 10
13.69708503611556
 20
24.49153300997722
 30
0.0
 10
13.66348960945287
 20
24.48918555708693
 30
0.0
 10
13.63334297300709
 20
24.48628992317413
 30
0.0
 10
13.60577657789374
 20
24.48300815106622
 30
0.0
 10
13.57821569154383
 20
24.47909492138606
 30
0.0
 10
13.55001178643684
 20
24.47441902643996
 30
0.0
 10
13.5210990827573
 20
24.46891039151684
 30
0.0
 10
13.48967161216929
 20
24.46211930755917
 30
0.0
 10
13.45593586352671
 20
24.45385316425086
 30
0.0
 10
13.42061743399052
 20
24.44405836379513
 30
0.0
 10
13.38622079578979
 20
24.43340089017861
 30
0.0
 10
13.35842515701778
 20
24.42389653757519
 30
0.0
 10
13.33681146821071
 20
24.41598561779288
 30
0.0
 10
13.32097208622571
 20
24.40993378989282
 30
0.0
 10
13.30550676402903
 20
24.40377799828616
 30
0.0
 10
13.29024484416671
 20
24.39746128608779
 30
0.0
 10
13.27452118158167
 20
24.39070184982894
 30
0.0
 10
13.2575519986201
 20
24.38311444850433
 30
0.0
 10
13.23874456865085
 20
24.37433699030323
 30
0.0
 10
13.21801756903597
 20
24.36420251697868
 30
0.0
 10
13.19528066798415
 20
24.35251529724124
 30
0.0
 10
13.17058985218422
 20
24.33912376385246
 30
0.0
 10
13.14401462872473
 20
24.32386201391841
 30
0.0
 10
13.11578516827805
 20
24.3066472362317
 30
0.0
 10
13.08601689986558
 20
24.28731815552262
 30
0.0
 10
13.05726789994718
 20
24.26738827255691
 30
0.0
 10
13.02976290275132
 20
24.24712290439138
 30
0.0
 10
13.00367943205024
 20
24.22682618649705
 30
0.0
 10
12.97702985402461
 20
24.20478856721115
 30
0.0
 10
12.95475510407767
 20
24.18549162495304
 30
0.0
 10
12.94167951789568
 20
24.17321217917073
 30
0.0
 10
12.93738117875727
 20
24.16917555536897
 30
0.0
  0
LINE
  5
EC
330
1F
100
AcDbEntity
  8
0
  6
Continuous
 62
     7
370
    15
100
AcDbLine
 10
13.3462404313
 20
23.5891755554
 30
0.0
 11
13.2990652814
 21
24.1691755554
 31
0.0
  0
LINE
  5
ED
330
1F
100
AcDbEntity
  8
0
  6
Continuous
 62
     7
370
    15
100
AcDbLine
 10
12.4734155812
 20
24.1691755554
 30
0.0
 11
12.4262404313
 21
23.5891755554
 31
0.0
  0
LINE
  5
EE
330
1F
100
AcDbEntity
  8
0
  6
Continuous
 62
     7
370
    15
100
AcDbLine
 10
12.4262404313
 20
23.5891755554
 30
0.0
 11
12.4282338483
 21
23.5890134179
 31
0.0
  0
LINE
  5
EF
330
1F
100
AcDbEntity
  8
0
  6
Continuous
 62
     7
370
    15
100
AcDbLine
 10
13.3442470143
 20
23.5890134179
 30
0.0
 11
13.3462404313
 21
23.5891755554
 31
0.0
  0
LINE
  5
F0
330
1F
100
AcDbEntity
  8
0
  6
Continuous
 62
     7
370
    15
100
AcDbLine
 10
16.1472595687
 20
20.2879637832
 30
0.0
 11
16.1472595687
 21
20.2999637832
 31
0.0
  0
LINE
  5
F1
330
1F
100
AcDbEntity
  8
0
  6
Continuous
 62
     7
370
    15
100
AcDbLine
 10
14.9472595687
 20
20.2999637832
 30
0.0
 11
14.9472595687
 21
20.2879637832
 31
0.0
  0
SPLINE
  5
F2
330
1F
100
AcDbEntity
  8
0
  6
Continuous
 62
     7
370
    15
100
AcDbSpline
210
0.0
220
0.0
230
1.0
 70
     8
 71
     3
 72
    12
 73
     8
 74
     0
 42
0.00000001
 43
0.00000001
 40
0.0
 40
0.0
 40
0.0
 40
0.0
 40
0.197996288022543
 40
0.3954240061327878
 40
0.6070709708648228
 40
0.8312501088744736
 40
1.0
 40
1.0
 40
1.0
 40
1.0
 10
15.82252089714926
 20
20.6194720668412
 30
0.0
 10
15.82251193402041
 20
20.62041723474104
 30
0.0
 10
15.8224940335014
 20
20.62230485637857
 30
0.0
 10
15.82300000922109
 20
20.62489395635904
 30
0.0
 10
15.82362676289614
 20
20.6270016740621
 30
0.0
 10
15.82415163188965
 20
20.62837467876729
 30
0.0
 10
15.82418653199984
 20
20.62845769500504
 30
0.0
 10
15.82420152043123
 20
20.62849334770576
 30
0.0
  0
LINE
  5
F3
330
1F
100
AcDbEntity
  8
0
  6
Continuous
 62
     7
370
    15
100
AcDbLine
 10
15.8225416491
 20
20.6204316606
 30
0.0
 11
15.8226104245
 21
20.6185001563
 31
0.0
  0
SPLINE
  5
F4
330
1F
100
AcDbEntity
  8
0
  6
Continuous
 62
     7
370
    15
100
AcDbSpline
210
0.0
220
0.0
230
1.0
 70
     8
 71
     3
 72
    13
 73
     9
 74
     0
 42
0.00000001
 43
0.00000001
 40
0.0
 40
0.0
 40
0.0
 40
0.0
 40
0.0992122841614835
 40
0.291000403088112
 40
0.4914799079935747
 40
0.7102363338902521
 40
0.9331494337616764
 40
1.0
 40
1.0
 40
1.0
 40
1.0
 10
15.82526025937613
 20
20.61072038065712
 30
0.0
 10
15.82527143378999
 20
20.61069893912821
 30
0.0
 10
15.82530420955928
 20
20.61063604879553
 30
0.0
 10
15.824862688805
 20
20.61145957694886
 30
0.0
 10
15.82409477688156
 20
20.61305322659599
 30
0.0
 10
15.82317871267831
 20
20.61545077277109
 30
0.0
 10
15.82265364260558
 20
20.61777946787033
 30
0.0
 10
15.82254578148678
 20
20.61915477384122
 30
0.0
 10
15.82252089714926
 20
20.6194720668412
 30
0.0
  0
SPLINE
  5
F5
330
1F
100
AcDbEntity
  8
0
  6
Continuous
 62
   144
370
     0
100
AcDbSpline
210
0.0
220
0.0
230
1.0
 70
    24
 71
     3
 72
    14
 73
    10
 74
     0
 42
0.00000001
 43
0.00000001
 40
0.0
 40
0.0
 40
0.0
 40
0.0
 40
0.25
 40
0.25
 40
0.45
 40
0.4624999999999999
 40
0.4750000000000001
 40
0.4875
 40
0.5
 40
0.5
 40
0.5
 40
0.5
 10
15.32052555550744
 20
23.28150165598232
 30
0.0
 10
15.32052555550731
 20
23.28150165598227
 30
0.0
 10
15.3143716188758
 20
23.27909099276819
 30
0.0
 10
15.30072775637182
 20
23.27374632326543
 30
0.0
 10
15.29525449244809
 20
23.2716022979379
 30
0.0
 10
15.29344365704969
 20
23.27089294479648
 30
0.0
 10
15.29322352231272
 20
23.27080671207354
 30
0.0
 10
15.29308860470075
 20
23.27075386120042
 30
0.0
 10
15.29305783501759
 20
23.27074180788434
 30
0.0
 10
15.29305783501759
 20
23.27074180788434
 30
0.0
  0
SPLINE
  5
F6
330
1F
100
AcDbEntity
  8
0
  6
Continuous
 62
   144
370
     0
100
AcDbSpline
210
0.0
220
0.0
230
1.0
 70
    24
 71
     3
 72
    10
 73
     6
 74
     0
 42
0.00000001
 43
0.00000001
 40
0.0
 40
0.0
 40
0.0
 40
0.0
 40
0.2994646388463997
 40
0.6977115900491402
 40
1.0
 40
1.0
 40
1.0
 40
1.0
 10
15.84028289860482
 20
20.29996378317378
 30
0.0
 10
15.84074490412656
 20
20.29998799585719
 30
0.0
 10
15.84182131371009
 20
20.30004440809306
 30
0.0
 10
15.84265518709703
 20
20.30008810954547
 30
0.0
 10
15.84269253037137
 20
20.30009006662355
 30
0.0
 10
15.8427086443888
 20
20.30009091112342
 30
0.0
  0
LINE
  5
F7
330
1F
100
AcDbEntity
  8
0
  6
Continuous
 62
   144
370
     0
100
AcDbLine
 10
15.293243533
 20
23.2708145508
 30
0.0
 11
15.320479
 21
23.281483419
 31
0.0
  0
LINE
  5
F8
330
1F
100
AcDbEntity
  8
0
  6
Continuous
 62
     7
370
    15
100
AcDbLine
 10
13.3462404313
 20
23.5891755554
 30
0.0
 11
12.4262404313
 21
23.5891755554
 31
0.0
  0
LINE
  5
F9
330
1F
100
AcDbEntity
  8
0
  6
Continuous
 62
     7
370
    15
100
AcDbLine
 10
13.2990652814
 20
24.1691755554
 30
0.0
 11
12.4734155812
 21
24.1691755554
 31
0.0
  0
LINE
  5
FA
330
1F
100
AcDbEntity
  8
0
  6
Continuous
 62
     7
370
    15
100
AcDbLine
 10
13.3442470143
 20
23.5890134179
 30
0.0
 11
12.4282338483
 21
23.5890134179
 31
0.0
  0
LINE
  5
FB
330
1F
100
AcDbEntity
  8
0
  6
Continuous
 62
     7
370
    15
100
AcDbLine
 10
14.9472595687
 20
20.2879637832
 30
0.0
 11
16.1472595687
 21
20.2879637832
 31
0.0
  0
LINE
  5
FC
330
1F
100
AcDbEntity
  8
0
  6
Continuous
 62
     7
370
    15
100
AcDbLine
 10
14.9472595687
 20
20.2999637832
 30
0.0
 11
16.1472595687
 21
20.2999637832
 31
0.0
  0
DIMENSION
  5
FD
330
1F
100
AcDbEntity
  8
0
  6
Continuous
 62
     7
370
     0
100
AcDbDimension
  2
*D6
 10
12.4262404313
 20
18.6874938982
 30
0.0
 11
14.284362161
 21
18.6874938982
 31
0.0
 70
   160
 71
     2
 42
-1.0
  3
SLDDIMSTYLE0
100
AcDbAlignedDimension
 13
16.1472595687
 23
20.2879637832
 33
0.0
 14
12.4262404313
 24
23.5891755554
 34
0.0
100
AcDbRotatedDimension
  0
ENDSEC
  0
SECTION
  2
OBJECTS
  0
DICTIONARY
  5
C
330
0
100
AcDbDictionary
281
     1
  3
ACAD_GROUP
350
D
  3
ACAD_LAYOUT
350
1A
  3
ACAD_MLINESTYLE
350
17
  3
ACAD_PLOTSETTINGS
350
19
  3
ACAD_PLOTSTYLENAME
350
E
  0
DICTIONARY
  5
D
102
{ACAD_REACTORS
330
C
102
}
330
C
100
AcDbDictionary
281
     1
  0
DICTIONARY
  5
1A
102
{ACAD_REACTORS
330
C
102
}
330
C
100
AcDbDictionary
281
     1
  3
Layout1
350
1E
  3
Layout2
350
26
  3
Model
350
22
  0
DICTIONARY
  5
17
102
{ACAD_REACTORS
330
C
102
}
330
C
100
AcDbDictionary
281
     1
  3
Standard
350
18
  0
DICTIONARY
  5
19
102
{ACAD_REACTORS
330
C
102
}
330
C
100
AcDbDictionary
281
     1
  0
ACDBDICTIONARYWDFLT
  5
E
102
{ACAD_REACTORS
330
C
102
}
330
C
100
AcDbDictionary
281
     1
  3
Normal
350
F
100
AcDbDictionaryWithDefault
340
F
  0
LAYOUT
  5
1E
102
{ACAD_REACTORS
330
1A
102
}
330
1A
100
AcDbPlotSettings
  1

  2
none_device
  4

  6

 40
0.0
 41
0.0
 42
0.0
 43
0.0
 44
0.0
 45
0.0
 46
0.0
 47
0.0
 48
0.0
 49
0.0
140
0.0
141
0.0
142
1.0
143
1.0
 70
   688
 72
     0
 73
     0
 74
     5
  7

 75
    16
147
1.0
148
0.0
149
0.0
100
AcDbLayout
  1
Layout1
 70
     1
 71
     1
 10
0.0
 20
0.0
 11
420.0
 21
297.0
 12
0.0
 22
0.0
 32
0.0
 14
1.0000000000E+20
 24
1.0000000000E+20
 34
1.0000000000E+20
 15
-1.0000000000E+20
 25
-1.0000000000E+20
 35
-1.0000000000E+20
146
0.0
 13
0.0
 23
0.0
 33
0.0
 16
1.0
 26
0.0
 36
0.0
 17
0.0
 27
1.0
 37
0.0
 76
     0
330
1B
  0
LAYOUT
  5
26
102
{ACAD_REACTORS
330
1A
102
}
330
1A
100
AcDbPlotSettings
  1

  2
none_device
  4

  6

 40
0.0
 41
0.0
 42
0.0
 43
0.0
 44
0.0
 45
0.0
 46
0.0
 47
0.0
 48
0.0
 49
0.0
140
0.0
141
0.0
142
1.0
143
1.0
 70
   688
 72
     0
 73
     0
 74
     5
  7

 75
    16
147
1.0
148
0.0
149
0.0
100
AcDbLayout
  1
Layout2
 70
     1
 71
     2
 10
0.0
 20
0.0
 11
0.0
 21
0.0
 12
0.0
 22
0.0
 32
0.0
 14
0.0
 24
0.0
 34
0.0
 15
0.0
 25
0.0
 35
0.0
146
0.0
 13
0.0
 23
0.0
 33
0.0
 16
1.0
 26
0.0
 36
0.0
 17
0.0
 27
1.0
 37
0.0
 76
     0
330
23
  0
LAYOUT
  5
22
102
{ACAD_REACTORS
330
1A
102
}
330
1A
100
AcDbPlotSettings
  1

  2
none_device
  4

  6

 40
0.0
 41
0.0
 42
0.0
 43
0.0
 44
0.0
 45
0.0
 46
0.0
 47
0.0
 48
0.0
 49
0.0
140
0.0
141
0.0
142
1.0
143
1.0
 70
  1712
 72
     0
 73
     0
 74
     0
  7

 75
     0
147
1.0
148
0.0
149
0.0
100
AcDbLayout
  1
Model
 70
     1
 71
     0
 10
0.0
 20
0.0
 11
21.0
 21
29.7
 12
0.0
 22
0.0
 32
0.0
 14
0.0
 24
0.0
 34
0.0
 15
21.0
 25
29.7
 35
0.0
146
0.0
 13
0.0
 23
0.0
 33
0.0
 16
1.0
 26
0.0
 36
0.0
 17
0.0
 27
1.0
 37
0.0
 76
     0
330
1F
331
29
  0
MLINESTYLE
  5
18
102
{ACAD_REACTORS
330
17
102
}
330
17
100
AcDbMlineStyle
  2
Standard
 70
     0
  3

 62
   256
 51
90.0
 52
90.0
 71
     2
 49
0.5
 62
   256
  6
BYLAYER
 49
-0.5
 62
   256
  6
BYLAYER
  0
ACDBPLACEHOLDER
  5
F
102
{ACAD_REACTORS
330
E
102
}
330
E
  0
ENDSEC
  0
EOF
