  0
SECTION
  2
HEADER
  9
$ACADVER
  1
AC1015
  9
$ACADMAINTVER
 70
     6
  9
$DWGCODEPAGE
  3
ANSI_1252
  9
$INSBASE
 10
0.0
 20
0.0
 30
0.0
  9
$EXTMIN
 10
0.0
 20
0.0
 30
0.0
  9
$EXTMAX
 10
21.0
 20
29.7
 30
0.0
  9
$LIMMIN
 10
0.0
 20
0.0
  9
$LIMMAX
 10
21.0
 20
29.7
  9
$ORTHOMODE
 70
     0
  9
$REGENMODE
 70
     1
  9
$FILLMODE
 70
     1
  9
$QTEXTMODE
 70
     0
  9
$MIRRTEXT
 70
     1
  9
$LTSCALE
 40
1.0
  9
$ATTMODE
 70
     1
  9
$TEXTSIZE
 40
0.35
  9
$TRACEWID
 40
1.0
  9
$TEXTSTYLE
  7
Standard
  9
$CLAYER
  8
0
  9
$CELTYPE
  6
ByLayer
  9
$CECOLOR
 62
   256
  9
$CELTSCALE
 40
1.0
  9
$DISPSILH
 70
     0
  9
$DIMSCALE
 40
1.0
  9
$DIMASZ
 40
0.3556
  9
$DIMEXO
 40
0.1
  9
$DIMDLI
 40
3.75
  9
$DIMRND
 40
0.0
  9
$DIMDLE
 40
0.0
  9
$DIMEXE
 40
0.1
  9
$DIMTP
 40
0.0
  9
$DIMTM
 40
0.0
  9
$DIMTXT
 40
0.35
  9
$DIMCEN
 40
2.5
  9
$DIMTSZ
 40
0.0
  9
$DIMTOL
 70
     0
  9
$DIMLIM
 70
     0
  9
$DIMTIH
 70
     1
  9
$DIMTOH
 70
     1
  9
$DIMSE1
 70
     0
  9
$DIMSE2
 70
     0
  9
$DIMTAD
 70
     1
  9
$DIMZIN
 70
     0
  9
$DIMBLK
  1

  9
$DIMASO
 70
     1
  9
$DIMSHO
 70
     1
  9
$DIMPOST
  1

  9
$DIMAPOST
  1

  9
$DIMALT
 70
     0
  9
$DIMALTD
 70
     3
  9
$DIMALTF
 40
0.3937007874
  9
$DIMLFAC
 40
5.0
  9
$DIMTOFL
 70
     1
  9
$DIMTVP
 40
0.0
  9
$DIMTIX
 70
     0
  9
$DIMSOXD
 70
     0
  9
$DIMSAH
 70
     0
  9
$DIMBLK1
  1

  9
$DIMBLK2
  1

  9
$DIMSTYLE
  2
ISO-25
  9
$DIMCLRD
 70
     0
  9
$DIMCLRE
 70
     0
  9
$DIMCLRT
 70
     0
  9
$DIMTFAC
 40
1.0
  9
$DIMGAP
 40
0.1524
  9
$DIMJUST
 70
     0
  9
$DIMSD1
 70
     0
  9
$DIMSD2
 70
     0
  9
$DIMTOLJ
 70
     0
  9
$DIMTZIN
 70
     0
  9
$DIMALTZ
 70
     0
  9
$DIMALTTZ
 70
     0
  9
$DIMUPT
 70
     0
  9
$DIMDEC
 70
     0
  9
$DIMTDEC
 70
     0
  9
$DIMALTU
 70
     2
  9
$DIMALTTD
 70
     3
  9
$DIMTXSTY
  7
Standard
  9
$DIMAUNIT
 70
     0
  9
$DIMADEC
 70
     2
  9
$DIMALTRND
 40
0.0
  9
$DIMAZIN
 70
     0
  9
$DIMDSEP
 70
    44
  9
$DIMATFIT
 70
     3
  9
$DIMFRAC
 70
     0
  9
$DIMLDRBLK
  1

  9
$DIMLUNIT
 70
     2
  9
$DIMLWD
 70
    -2
  9
$DIMLWE
 70
    -2
  9
$DIMTMOVE
 70
     0
  9
$LUNITS
 70
     2
  9
$LUPREC
 70
     0
  9
$SKETCHINC
 40
1.0
  9
$FILLETRAD
 40
10.0
  9
$AUNITS
 70
     0
  9
$AUPREC
 70
     2
  9
$MENU
  1
.
  9
$ELEVATION
 40
0.0
  9
$PELEVATION
 40
0.0
  9
$THICKNESS
 40
0.0
  9
$LIMCHECK
 70
     0
  9
$CHAMFERA
 40
10.0
  9
$CHAMFERB
 40
10.0
  9
$CHAMFERC
 40
20.0
  9
$CHAMFERD
 40
0.0
  9
$SKPOLY
 70
     0
  9
$TDCREATE
 40
2455831.532476192
  9
$TDUCREATE
 40
2455831.449142859
  9
$TDUPDATE
 40
2455831.532476204
  9
$TDUUPDATE
 40
2455831.44914287
  9
$TDINDWG
 40
0.0000000116
  9
$TDUSRTIMER
 40
0.0000000116
  9
$USRTIMER
 70
     1
  9
$ANGBASE
 50
0.0
  9
$ANGDIR
 70
     0
  9
$PDMODE
 70
     0
  9
$PDSIZE
 40
-1.0
  9
$PLINEWID
 40
0.0
  9
$SPLFRAME
 70
     0
  9
$SPLINETYPE
 70
     6
  9
$SPLINESEGS
 70
     8
  9
$HANDSEED
  5
156
  9
$SURFTAB1
 70
     6
  9
$SURFTAB2
 70
     6
  9
$SURFTYPE
 70
     6
  9
$SURFU
 70
     6
  9
$SURFV
 70
     6
  9
$UCSBASE
  2

  9
$UCSNAME
  2

  9
$UCSORG
 10
0.0
 20
0.0
 30
0.0
  9
$UCSXDIR
 10
1.0
 20
0.0
 30
0.0
  9
$UCSYDIR
 10
0.0
 20
1.0
 30
0.0
  9
$UCSORTHOREF
  2

  9
$UCSORTHOVIEW
 70
     0
  9
$UCSORGTOP
 10
0.0
 20
0.0
 30
0.0
  9
$UCSORGBOTTOM
 10
0.0
 20
0.0
 30
0.0
  9
$UCSORGLEFT
 10
0.0
 20
0.0
 30
0.0
  9
$UCSORGRIGHT
 10
0.0
 20
0.0
 30
0.0
  9
$UCSORGFRONT
 10
0.0
 20
0.0
 30
0.0
  9
$UCSORGBACK
 10
0.0
 20
0.0
 30
0.0
  9
$PUCSBASE
  2

  9
$PUCSNAME
  2

  9
$PUCSORG
 10
0.0
 20
0.0
 30
0.0
  9
$PUCSXDIR
 10
1.0
 20
0.0
 30
0.0
  9
$PUCSYDIR
 10
0.0
 20
1.0
 30
0.0
  9
$PUCSORTHOREF
  2

  9
$PUCSORTHOVIEW
 70
     0
  9
$PUCSORGTOP
 10
0.0
 20
0.0
 30
0.0
  9
$PUCSORGBOTTOM
 10
0.0
 20
0.0
 30
0.0
  9
$PUCSORGLEFT
 10
0.0
 20
0.0
 30
0.0
  9
$PUCSORGRIGHT
 10
0.0
 20
0.0
 30
0.0
  9
$PUCSORGFRONT
 10
0.0
 20
0.0
 30
0.0
  9
$PUCSORGBACK
 10
0.0
 20
0.0
 30
0.0
  9
$USERI1
 70
     0
  9
$USERI2
 70
     0
  9
$USERI3
 70
     0
  9
$USERI4
 70
     0
  9
$USERI5
 70
     0
  9
$USERR1
 40
0.0
  9
$USERR2
 40
0.0
  9
$USERR3
 40
0.0
  9
$USERR4
 40
0.0
  9
$USERR5
 40
0.0
  9
$WORLDVIEW
 70
     1
  9
$SHADEDGE
 70
     3
  9
$SHADEDIF
 70
    70
  9
$TILEMODE
 70
     1
  9
$MAXACTVP
 70
    64
  9
$PINSBASE
 10
0.0
 20
0.0
 30
0.0
  9
$PLIMCHECK
 70
     0
  9
$PEXTMIN
 10
1.0000000000E+20
 20
1.0000000000E+20
 30
1.0000000000E+20
  9
$PEXTMAX
 10
-1.0000000000E+20
 20
-1.0000000000E+20
 30
-1.0000000000E+20
  9
$PLIMMIN
 10
0.0
 20
0.0
  9
$PLIMMAX
 10
420.0
 20
297.0
  9
$UNITMODE
 70
     0
  9
$VISRETAIN
 70
     1
  9
$PLINEGEN
 70
     0
  9
$PSLTSCALE
 70
     1
  9
$TREEDEPTH
 70
  3020
  9
$CMLSTYLE
  2
Standard
  9
$CMLJUST
 70
     0
  9
$CMLSCALE
 40
20.0
  9
$PROXYGRAPHICS
 70
     1
  9
$MEASUREMENT
 70
     1
  9
$CELWEIGHT
370
    -1
  9
$ENDCAPS
280
     0
  9
$JOINSTYLE
280
     0
  9
$LWDISPLAY
290
     1
  9
$INSUNITS
 70
     4
  9
$HYPERLINKBASE
  1

  9
$STYLESHEET
  1

  9
$XEDIT
290
     1
  9
$CEPSNTYPE
380
     0
  9
$PSTYLEMODE
290
     1
  9
$FINGERPRINTGUID
  2
{A4F2D282-27FD-44CF-8AA5-670DB853F374}
  9
$VERSIONGUID
  2
{FAEB1C32-E019-11D5-929B-00C0DF256EC4}
  9
$EXTNAMES
290
     1
  9
$PSVPSCALE
 40
0.0
  9
$OLESTARTUP
290
     0
  0
ENDSEC
  0
SECTION
  2
CLASSES
  0
CLASS
  1
ACDBDICTIONARYWDFLT
  2
AcDbDictionaryWithDefault
  3
ObjectDBX Classes
 90
        0
280
     0
281
     0
  0
CLASS
  1
VISUALSTYLE
  2
AcDbVisualStyle
  3
ObjectDBX Classes
 90
     4095
280
     0
281
     0
  0
CLASS
  1
MATERIAL
  2
AcDbMaterial
  3
ObjectDBX Classes
 90
     1153
280
     0
281
     0
  0
CLASS
  1
ACDBPLACEHOLDER
  2
AcDbPlaceHolder
  3
ObjectDBX Classes
 90
        0
280
     0
281
     0
  0
CLASS
  1
LAYOUT
  2
AcDbLayout
  3
ObjectDBX Classes
 90
        0
280
     0
281
     0
  0
ENDSEC
  0
SECTION
  2
TABLES
  0
TABLE
  2
VPORT
  5
8
330
0
100
AcDbSymbolTable
 70
     1
  0
VPORT
  5
29
330
8
100
AcDbSymbolTableRecord
100
AcDbViewportTableRecord
  2
*Active
 70
     0
 10
0.0
 20
0.0
 11
1.0
 21
1.0
 12
10.5
 22
14.85
 13
0.0
 23
0.0
 14
10.0
 24
10.0
 15
10.0
 25
10.0
 16
0.0
 26
0.0
 36
1.0
 17
0.0
 27
0.0
 37
0.0
 40
29.7
 41
0.7070707071
 42
50.0
 43
0.0
 44
0.0
 50
0.0
 51
0.0
 71
     0
 72
  2000
 73
     1
 74
     3
 75
     0
 76
     0
 77
     0
 78
     0
281
     0
 65
     1
110
0.0
120
0.0
130
0.0
111
1.0
121
0.0
131
0.0
112
0.0
122
1.0
132
0.0
 79
     0
146
0.0
  0
ENDTAB
  0
TABLE
  2
LTYPE
  5
5
330
0
100
AcDbSymbolTable
 70
     6
  0
LTYPE
  5
14
330
5
100
AcDbSymbolTableRecord
100
AcDbLinetypeTableRecord
  2
ByBlock
 70
     0
  3

 72
    65
 73
     0
 40
0.0
  0
LTYPE
  5
15
330
5
100
AcDbSymbolTableRecord
100
AcDbLinetypeTableRecord
  2
ByLayer
 70
     0
  3

 72
    65
 73
     0
 40
0.0
  0
LTYPE
  5
16
330
5
100
AcDbSymbolTableRecord
100
AcDbLinetypeTableRecord
  2
Continuous
 70
     0
  3
Solid line
 72
    65
 73
     0
 40
0.0
  0
LTYPE
  5
3F
330
5
100
AcDbSymbolTableRecord
100
AcDbLinetypeTableRecord
  2
HIDDEN
 70
     0
  3
Hidden __ __ __ __ __ __ __ __ __ __ __ __ __ __
 72
    65
 73
     2
 40
0.1905
 49
0.127
 74
     0
 49
-0.0635
 74
     0
  0
LTYPE
  5
40
330
5
100
AcDbSymbolTableRecord
100
AcDbLinetypeTableRecord
  2
PHANTOM
 70
     0
  3
Phantom ______  __  __  ______  __  __  ______
 72
    65
 73
     6
 40
1.27
 49
0.635
 74
     0
 49
-0.127
 74
     0
 49
0.127
 74
     0
 49
-0.127
 74
     0
 49
0.127
 74
     0
 49
-0.127
 74
     0
  0
LTYPE
  5
41
330
5
100
AcDbSymbolTableRecord
100
AcDbLinetypeTableRecord
  2
CENTER
 70
     0
  3
Center ____ _ ____ _ ____ _ ____ _ ____ _ ____
 72
    65
 73
     4
 40
1.016
 49
0.635
 74
     0
 49
-0.127
 74
     0
 49
0.127
 74
     0
 49
-0.127
 74
     0
  0
LTYPE
  5
42
330
5
100
AcDbSymbolTableRecord
100
AcDbLinetypeTableRecord
  2
CENTERX2
 70
     0
  3
Center (2x) ________  __  ________  __  _____
 72
    65
 73
     4
 40
2.032
 49
1.27
 74
     0
 49
-0.254
 74
     0
 49
0.254
 74
     0
 49
-0.254
 74
     0
  0
LTYPE
  5
43
330
5
100
AcDbSymbolTableRecord
100
AcDbLinetypeTableRecord
  2
DOT2
 70
     0
  3
Dot (.5x) ........................................
 72
    65
 73
     2
 40
0.0635
 49
0.0
 74
     0
 49
-0.0635
 74
     0
  0
ENDTAB
  0
TABLE
  2
LAYER
  5
2
330
0
100
AcDbSymbolTable
 70
     2
  0
LAYER
  5
10
330
2
100
AcDbSymbolTableRecord
100
AcDbLayerTableRecord
  2
0
 70
     0
 62
     7
  6
Continuous
370
    -3
390
F
  0
LAYER
  5
44
330
2
100
AcDbSymbolTableRecord
100
AcDbLayerTableRecord
  2
FORMAT
 70
     0
 62
     7
  6
Continuous
370
    -3
390
F
  0
ENDTAB
  0
TABLE
  2
STYLE
  5
3
330
0
100
AcDbSymbolTable
 70
     3
  0
STYLE
  5
11
330
3
100
AcDbSymbolTableRecord
100
AcDbTextStyleTableRecord
  2
Standard
 70
     0
 40
0.0
 41
1.0
 50
0.0
 71
     0
 42
2.5
  3
txt
  4

  0
STYLE
  5
68
330
3
100
AcDbSymbolTableRecord
100
AcDbTextStyleTableRecord
  2
SLDTEXTSTYLE0
 70
     0
 40
0.0
 41
0.75
 50
0.0
 71
     0
 42
0.2
  3
TXT
  4

  0
STYLE
  5
6F
330
3
100
AcDbSymbolTableRecord
100
AcDbTextStyleTableRecord
  2
SLDTEXTSTYLE1
 70
     0
 40
0.0
 41
0.6923076923
 50
0.0
 71
     0
 42
0.2
  3
TXT
  4

  0
ENDTAB
  0
TABLE
  2
VIEW
  5
6
330
0
100
AcDbSymbolTable
 70
     0
  0
ENDTAB
  0
TABLE
  2
UCS
  5
7
330
0
100
AcDbSymbolTable
 70
     0
  0
ENDTAB
  0
TABLE
  2
APPID
  5
9
330
0
100
AcDbSymbolTable
 70
     1
  0
APPID
  5
12
330
9
100
AcDbSymbolTableRecord
100
AcDbRegAppTableRecord
  2
ACAD
 70
     0
  0
ENDTAB
  0
TABLE
  2
DIMSTYLE
  5
A
330
0
100
AcDbSymbolTable
 70
     3
100
AcDbDimStyleTable
  0
DIMSTYLE
105
27
330
A
100
AcDbSymbolTableRecord
100
AcDbDimStyleTableRecord
  2
ISO-25
 70
     0
 41
2.5
 42
0.625
 43
3.75
 44
1.25
 73
     0
 74
     0
 77
     1
 78
     8
140
2.5
141
2.5
143
0.0393700787
147
0.625
171
     3
172
     1
178
     0
271
     2
272
     2
274
     3
278
    44
283
     0
284
     8
340
11
  0
DIMSTYLE
105
B9
102
{ACAD_REACTORS
330
B8
102
}
330
A
100
AcDbSymbolTableRecord
100
AcDbDimStyleTableRecord
  2
SLDDIMSTYLE0
 70
     0
 41
0.3556
 44
0.0
 45
0.000000001
 73
     0
 74
     0
 77
     1
 78
    12
 79
     3
140
0.35
143
0.3937007874
144
5.0
147
0.0875
148
0.000000001
170
     1
171
     0
173
     1
178
     0
271
     0
272
     0
274
     0
276
     2
284
    12
340
68
341
BA
343
BA
344
BA
  0
DIMSTYLE
105
131
102
{ACAD_REACTORS
330
130
102
}
330
A
100
AcDbSymbolTableRecord
100
AcDbDimStyleTableRecord
  2
SLDDIMSTYLE1
 70
     0
 41
0.3556
 44
0.0
 45
0.000000001
 73
     0
 74
     0
 77
     1
 78
    12
 79
     3
140
0.35
143
0.3937007874
144
5.0
147
0.0875
148
0.000000001
170
     1
171
     0
172
     1
173
     1
178
     0
271
     0
272
     0
274
     0
276
     2
284
    12
289
     0
340
68
341
BA
343
BA
344
BA
  0
ENDTAB
  0
TABLE
  2
BLOCK_RECORD
  5
1
330
0
100
AcDbSymbolTable
 70
     7
  0
BLOCK_RECORD
  5
1F
330
1
100
AcDbSymbolTableRecord
100
AcDbBlockTableRecord
  2
*Model_Space
340
22
  0
BLOCK_RECORD
  5
1B
330
1
100
AcDbSymbolTableRecord
100
AcDbBlockTableRecord
  2
*Paper_Space
340
1E
  0
BLOCK_RECORD
  5
23
330
1
100
AcDbSymbolTableRecord
100
AcDbBlockTableRecord
  2
*Paper_Space0
340
26
  0
BLOCK_RECORD
  5
7A
330
1
100
AcDbSymbolTableRecord
100
AcDbBlockTableRecord
  2
SW_NOTE_0
340
0
102
{BLKREFS
331
80
102
}
  0
BLOCK_RECORD
  5
82
330
1
100
AcDbSymbolTableRecord
100
AcDbBlockTableRecord
  2
SW_NOTE_1
340
0
102
{BLKREFS
331
8B
102
}
  0
BLOCK_RECORD
  5
BA
330
1
100
AcDbSymbolTableRecord
100
AcDbBlockTableRecord
  2
_CLOSED
340
0
102
{BLKREFS
331
C4
331
C5
331
135
331
136
102
}
  0
BLOCK_RECORD
  5
C1
330
1
100
AcDbSymbolTableRecord
100
AcDbBlockTableRecord
  2
*D4
340
0
  0
BLOCK_RECORD
  5
132
330
1
100
AcDbSymbolTableRecord
100
AcDbBlockTableRecord
  2
*D5
340
0
  0
BLOCK_RECORD
  5
14A
330
1
100
AcDbSymbolTableRecord
100
AcDbBlockTableRecord
  2
SW_CENTERMARKSYMBOL_0
340
0
102
{BLKREFS
331
155
102
}
  0
ENDTAB
  0
ENDSEC
  0
SECTION
  2
BLOCKS
  0
BLOCK
  5
20
330
1F
100
AcDbEntity
  8
0
100
AcDbBlockBegin
  2
*Model_Space
 70
     0
 10
0.0
 20
0.0
 30
0.0
  3
*Model_Space
  1

  0
ENDBLK
  5
21
330
1F
100
AcDbEntity
  8
0
100
AcDbBlockEnd
  0
BLOCK
  5
1C
330
1B
100
AcDbEntity
 67
     1
  8
0
100
AcDbBlockBegin
  2
*Paper_Space
 70
     0
 10
0.0
 20
0.0
 30
0.0
  3
*Paper_Space
  1

  0
ENDBLK
  5
1D
330
1B
100
AcDbEntity
 67
     1
  8
0
100
AcDbBlockEnd
  0
BLOCK
  5
24
330
23
100
AcDbEntity
  8
0
100
AcDbBlockBegin
  2
*Paper_Space0
 70
     0
 10
0.0
 20
0.0
 30
0.0
  3
*Paper_Space0
  1

  0
ENDBLK
  5
25
330
23
100
AcDbEntity
  8
0
100
AcDbBlockEnd
  0
BLOCK
  5
7B
330
7A
100
AcDbEntity
  8
0
100
AcDbBlockBegin
  2
SW_NOTE_0
 70
     0
 10
0.0
 20
0.0
 30
0.0
  3
SW_NOTE_0
  1

  0
MTEXT
  5
7D
330
7A
100
AcDbEntity
  8
0
  6
Continuous
 62
     0
370
     0
100
AcDbMText
 10
0.0
 20
0.193360161
 30
0.0
 40
0.15
 41
0.0
 71
     1
 72
     1
  1
SBAVATURA E
  7
SLDTEXTSTYLE0
 73
     1
 44
1.0
  0
MTEXT
  5
7E
330
7A
100
AcDbEntity
  8
0
  6
Continuous
 62
     0
370
     0
100
AcDbMText
 10
0.0
 20
-0.0566398334
 30
0.0
 40
0.15
 41
0.0
 71
     1
 72
     1
  1
INTERRUZIONE DEI
  7
SLDTEXTSTYLE0
 73
     1
 44
1.0
  0
MTEXT
  5
7F
330
7A
100
AcDbEntity
  8
0
  6
Continuous
 62
     0
370
     0
100
AcDbMText
 10
0.0
 20
-0.3066398279
 30
0.0
 40
0.15
 41
0.0
 71
     1
 72
     1
  1
BORDI NETTI
  7
SLDTEXTSTYLE0
 73
     1
 44
1.0
  0
ENDBLK
  5
7C
330
7A
100
AcDbEntity
  8
0
100
AcDbBlockEnd
  0
BLOCK
  5
83
330
82
100
AcDbEntity
  8
0
100
AcDbBlockBegin
  2
SW_NOTE_1
 70
     0
 10
0.0
 20
0.0
 30
0.0
  3
SW_NOTE_1
  1

  0
MTEXT
  5
85
330
82
100
AcDbEntity
  8
0
  6
Continuous
 62
     0
370
     0
100
AcDbMText
 10
0.0
 20
0.193360161
 30
0.0
 40
0.15
 41
0.0
 71
     1
 72
     1
  1
SE NON SPECIFICATO:
  7
SLDTEXTSTYLE0
 73
     1
 44
1.0
  0
MTEXT
  5
86
330
82
100
AcDbEntity
  8
0
  6
Continuous
 62
     0
370
     0
100
AcDbMText
 10
0.0
 20
-0.0566398334
 30
0.0
 40
0.15
 41
0.0
 71
     1
 72
     1
  1
QUOTE IN MILLIMETRI
  7
SLDTEXTSTYLE0
 73
     1
 44
1.0
  0
MTEXT
  5
87
330
82
100
AcDbEntity
  8
0
  6
Continuous
 62
     0
370
     0
100
AcDbMText
 10
0.0
 20
-0.3066398279
 30
0.0
 40
0.15
 41
0.0
 71
     1
 72
     1
  1
FINITURA SUPERFICIE:
  7
SLDTEXTSTYLE0
 73
     1
 44
1.0
  0
MTEXT
  5
88
330
82
100
AcDbEntity
  8
0
  6
Continuous
 62
     0
370
     0
100
AcDbMText
 10
0.0
 20
-0.5566398223
 30
0.0
 40
0.15
 41
0.0
 71
     1
 72
     1
  1
TOLLERANZE:
  7
SLDTEXTSTYLE0
 73
     1
 44
1.0
  0
MTEXT
  5
89
330
82
100
AcDbEntity
  8
0
  6
Continuous
 62
     0
370
     0
100
AcDbMText
 10
0.16875
 20
-0.8066398167
 30
0.0
 40
0.15
 41
0.0
 71
     1
 72
     1
  1
LINEARE:
  7
SLDTEXTSTYLE0
 73
     1
 44
1.0
  0
MTEXT
  5
8A
330
82
100
AcDbEntity
  8
0
  6
Continuous
 62
     0
370
     0
100
AcDbMText
 10
0.16875
 20
-1.0566398111
 30
0.0
 40
0.15
 41
0.0
 71
     1
 72
     1
  1
ANGOLARE:
  7
SLDTEXTSTYLE0
 73
     1
 44
1.0
  0
ENDBLK
  5
84
330
82
100
AcDbEntity
  8
0
100
AcDbBlockEnd
  0
BLOCK
  5
BB
330
BA
100
AcDbEntity
  8
0
100
AcDbBlockBegin
  2
_CLOSED
 70
     0
 10
0.0
 20
0.0
 30
0.0
  3
_CLOSED
  1

  0
LINE
  5
BD
330
BA
100
AcDbEntity
  8
0
  6
ByBlock
 62
     0
370
    -2
100
AcDbLine
 10
-1.0
 20
0.166667
 30
0.0
 11
0.0
 21
0.0
 31
0.0
  0
LINE
  5
BE
330
BA
100
AcDbEntity
  8
0
  6
ByBlock
 62
     0
370
    -2
100
AcDbLine
 10
0.0
 20
0.0
 30
0.0
 11
-1.0
 21
-0.166667
 31
0.0
  0
LINE
  5
BF
330
BA
100
AcDbEntity
  8
0
  6
ByBlock
 62
     0
370
    -2
100
AcDbLine
 10
-1.0
 20
0.166667
 30
0.0
 11
-1.0
 21
-0.166667
 31
0.0
  0
LINE
  5
C0
330
BA
100
AcDbEntity
  8
0
  6
ByBlock
 62
     0
370
    -2
100
AcDbLine
 10
0.0
 20
0.0
 30
0.0
 11
-1.0
 21
0.0
 31
0.0
  0
ENDBLK
  5
BC
330
BA
100
AcDbEntity
  8
0
100
AcDbBlockEnd
  0
BLOCK
  5
C2
330
C1
100
AcDbEntity
  8
0
100
AcDbBlockBegin
  2
*D4
 70
     1
 10
0.0
 20
0.0
 30
0.0
  3
*D4
  1

  0
INSERT
  5
C4
330
C1
100
AcDbEntity
  8
0
  6
Continuous
 62
     7
370
     0
100
AcDbBlockReference
  2
_CLOSED
 10
12.5700257541
 20
18.2806387132
 30
0.002
 41
0.3556
 42
0.3556
 50
270.0
  0
INSERT
  5
C5
330
C1
100
AcDbEntity
  8
0
  6
Continuous
 62
     7
370
     0
100
AcDbBlockReference
  2
_CLOSED
 10
12.5700257541
 20
24.278765011
 30
0.002
 41
0.3556
 42
0.3556
 50
90.0
  0
LINE
  5
C6
330
C1
100
AcDbEntity
  8
0
  6
Continuous
 62
     7
370
     0
100
AcDbLine
 10
11.1309668337
 20
20.4024045486
 30
0.0
 11
11.1309668337
 21
20.3313108
 31
0.0
  0
LINE
  5
C7
330
C1
100
AcDbEntity
  8
0
  6
Continuous
 62
     7
370
     0
100
AcDbLine
 10
11.1309668337
 20
20.3313108
 30
0.0
 11
12.0463626747
 21
20.3313108
 31
0.0
  0
LINE
  5
C8
330
C1
100
AcDbEntity
  8
0
  6
Continuous
 62
     7
370
     0
100
AcDbLine
 10
12.0463626747
 20
20.3313108
 30
0.0
 11
12.0463626747
 21
20.4024045486
 31
0.0
  0
LINE
  5
C9
330
C1
100
AcDbEntity
  8
0
  6
Continuous
 62
     7
370
     0
100
AcDbLine
 10
11.1309668337
 20
21.7054862636
 30
0.0
 11
11.1309668337
 21
21.7765800121
 31
0.0
  0
LINE
  5
CA
330
C1
100
AcDbEntity
  8
0
  6
Continuous
 62
     7
370
     0
100
AcDbLine
 10
11.1309668337
 20
21.7765800121
 30
0.0
 11
12.0463626747
 21
21.7765800121
 31
0.0
  0
LINE
  5
CB
330
C1
100
AcDbEntity
  8
0
  6
Continuous
 62
     7
370
     0
100
AcDbLine
 10
12.0463626747
 20
21.7765800121
 30
0.0
 11
12.0463626747
 21
21.7054862636
 31
0.0
  0
LINE
  5
CC
330
C1
100
AcDbEntity
  8
0
  6
Continuous
 62
     7
370
     0
100
AcDbLine
 10
11.5527654536
 20
21.0597786985
 30
0.0
 11
11.5527654536
 21
21.4209592833
 31
0.0
  0
LINE
  5
CD
330
C1
100
AcDbEntity
  8
0
  6
Continuous
 62
     7
370
     0
100
AcDbLine
 10
10.8276756455
 20
18.2806387132
 30
0.0
 11
12.6700257541
 21
18.2806387132
 31
0.0
  0
LINE
  5
CE
330
C1
100
AcDbEntity
  8
0
  6
Continuous
 62
     7
370
     0
100
AcDbLine
 10
10.3479371679
 20
24.278765011
 30
0.0
 11
12.6700257541
 21
24.278765011
 31
0.0
  0
LINE
  5
CF
330
C1
100
AcDbEntity
  8
0
  6
Continuous
 62
     7
370
     0
100
AcDbLine
 10
12.5700257541
 20
18.2806387132
 30
0.0
 11
12.5700257541
 21
24.278765011
 31
0.0
  0
MTEXT
  5
D0
330
C1
100
AcDbEntity
  8
0
  6
Continuous
 62
     7
370
     0
100
AcDbMText
 10
12.1135049206
 20
20.2799349275
 30
0.002
 40
0.35
 41
0.0
 71
     1
 72
     1
  1

  7
SLDTEXTSTYLE0
 11
6.123233995736766E-17
 21
1.0
 31
0.0
 73
     1
 44
1.0
  0
MTEXT
  5
D1
330
C1
100
AcDbEntity
  8
0
  6
Continuous
 62
     7
370
     0
100
AcDbMText
 10
11.3880813294
 20
20.4912717386
 30
0.002
 40
0.35
 41
0.0
 71
     1
 72
     1
  1
11
  7
SLDTEXTSTYLE0
 11
6.123233995736766E-17
 21
1.0
 31
0.0
 73
     1
 44
1.0
  0
MTEXT
  5
D2
330
C1
100
AcDbEntity
  8
0
  6
Continuous
 62
     7
370
     0
100
AcDbMText
 10
11.1323625778
 20
21.1110634312
 30
0.002
 40
0.35
 41
0.0
 71
     1
 72
     1
  1
3
  7
SLDTEXTSTYLE0
 11
6.123233995736766E-17
 21
1.0
 31
0.0
 73
     1
 44
1.0
  0
MTEXT
  5
D3
330
C1
100
AcDbEntity
  8
0
  6
Continuous
 62
     7
370
     0
100
AcDbMText
 10
11.5951889752
 20
21.1110634312
 30
0.002
 40
0.35
 41
0.0
 71
     1
 72
     1
  1
4
  7
SLDTEXTSTYLE0
 11
6.123233995736766E-17
 21
1.0
 31
0.0
 73
     1
 44
1.0
  0
MTEXT
  5
D4
330
C1
100
AcDbEntity
  8
0
  6
Continuous
 62
     7
370
     0
100
AcDbMText
 10
11.3880813294
 20
21.472244051
 30
0.002
 40
0.35
 41
0.0
 71
     1
 72
     1
  1
"
  7
SLDTEXTSTYLE0
 11
6.123233995736766E-17
 21
1.0
 31
0.0
 73
     1
 44
1.0
  0
MTEXT
  5
D5
330
C1
100
AcDbEntity
  8
0
  6
Continuous
 62
     7
370
     0
100
AcDbMText
 10
12.1188521848
 20
20.653146778
 30
0.002
 40
0.35
 41
0.0
 71
     1
 72
     1
  1
30
  7
SLDTEXTSTYLE0
 11
6.123233995736766E-17
 21
1.0
 31
0.0
 73
     1
 44
1.0
  0
MTEXT
  5
D6
330
C1
100
AcDbEntity
  8
0
  6
Continuous
 62
     7
370
     0
100
AcDbMText
 10
12.1135049206
 20
21.9611502435
 30
0.002
 40
0.35
 41
0.0
 71
     1
 72
     1
  1

  7
SLDTEXTSTYLE0
 11
6.123233995736766E-17
 21
1.0
 31
0.0
 73
     1
 44
1.0
  0
ENDBLK
  5
C3
330
C1
100
AcDbEntity
  8
0
100
AcDbBlockEnd
  0
BLOCK
  5
133
330
132
100
AcDbEntity
  8
0
100
AcDbBlockBegin
  2
*D5
 70
     1
 10
0.0
 20
0.0
 30
0.0
  3
*D5
  1

  0
INSERT
  5
135
330
132
100
AcDbEntity
  8
0
  6
Continuous
 62
     7
370
     0
100
AcDbBlockReference
  2
_CLOSED
 10
12.5700257541
 20
13.1474446422
 30
0.002
 41
0.3556
 42
0.3556
 50
270.0
  0
INSERT
  5
136
330
132
100
AcDbEntity
  8
0
  6
Continuous
 62
     7
370
     0
100
AcDbBlockReference
  2
_CLOSED
 10
12.5700257541
 20
11.3660917868
 30
0.002
 41
0.3556
 42
0.3556
 50
90.0
  0
LINE
  5
137
330
132
100
AcDbEntity
  8
0
  6
Continuous
 62
     7
370
     0
100
AcDbLine
 10
11.1309668337
 20
11.7743642009
 30
0.0
 11
11.1309668337
 21
11.7032704524
 31
0.0
  0
LINE
  5
138
330
132
100
AcDbEntity
  8
0
  6
Continuous
 62
     7
370
     0
100
AcDbLine
 10
11.1309668337
 20
11.7032704524
 30
0.0
 11
12.0463626747
 21
11.7032704524
 31
0.0
  0
LINE
  5
139
330
132
100
AcDbEntity
  8
0
  6
Continuous
 62
     7
370
     0
100
AcDbLine
 10
12.0463626747
 20
11.7032704524
 30
0.0
 11
12.0463626747
 21
11.7743642009
 31
0.0
  0
LINE
  5
13A
330
132
100
AcDbEntity
  8
0
  6
Continuous
 62
     7
370
     0
100
AcDbLine
 10
11.1309668337
 20
12.8188347733
 30
0.0
 11
11.1309668337
 21
12.8899285219
 31
0.0
  0
LINE
  5
13B
330
132
100
AcDbEntity
  8
0
  6
Continuous
 62
     7
370
     0
100
AcDbLine
 10
11.1309668337
 20
12.8899285219
 30
0.0
 11
12.0463626747
 21
12.8899285219
 31
0.0
  0
LINE
  5
13C
330
132
100
AcDbEntity
  8
0
  6
Continuous
 62
     7
370
     0
100
AcDbLine
 10
12.0463626747
 20
12.8899285219
 30
0.0
 11
12.0463626747
 21
12.8188347733
 31
0.0
  0
LINE
  5
13D
330
132
100
AcDbEntity
  8
0
  6
Continuous
 62
     7
370
     0
100
AcDbLine
 10
11.5527654536
 20
12.1731272315
 30
0.0
 11
11.5527654536
 21
12.5343078163
 31
0.0
  0
LINE
  5
13E
330
132
100
AcDbEntity
  8
0
  6
Continuous
 62
     7
370
     0
100
AcDbLine
 10
9.999875673
 20
13.1474446422
 30
0.0
 11
12.6700257541
 21
13.1474446422
 31
0.0
  0
LINE
  5
13F
330
132
100
AcDbEntity
  8
0
  6
Continuous
 62
     7
370
     0
100
AcDbLine
 10
10.0458381411
 20
11.3660917868
 30
0.0
 11
12.6700257541
 21
11.3660917868
 31
0.0
  0
LINE
  5
140
330
132
100
AcDbEntity
  8
0
  6
Continuous
 62
     7
370
     0
100
AcDbLine
 10
12.5700257541
 20
13.1474446422
 30
0.0
 11
12.5700257541
 21
13.7824446422
 31
0.0
  0
LINE
  5
141
330
132
100
AcDbEntity
  8
0
  6
Continuous
 62
     7
370
     0
100
AcDbLine
 10
12.5700257541
 20
13.1474446422
 30
0.0
 11
12.5700257541
 21
11.3660917868
 31
0.0
  0
LINE
  5
142
330
132
100
AcDbEntity
  8
0
  6
Continuous
 62
     7
370
     0
100
AcDbLine
 10
12.5700257541
 20
11.3660917868
 30
0.0
 11
12.5700257541
 21
10.7310917868
 31
0.0
  0
MTEXT
  5
143
330
132
100
AcDbEntity
  8
0
  6
Continuous
 62
     7
370
     0
100
AcDbMText
 10
12.1135049206
 20
11.6518945798
 30
0.002
 40
0.35
 41
0.0
 71
     1
 72
     1
  1

  7
SLDTEXTSTYLE0
 11
-7.044195017643634E-15
 21
1.0
 31
0.0
 73
     1
 44
1.0
  0
MTEXT
  5
144
330
132
100
AcDbEntity
  8
0
  6
Continuous
 62
     7
370
     0
100
AcDbMText
 10
11.3880813294
 20
11.863231391
 30
0.002
 40
0.35
 41
0.0
 71
     1
 72
     1
  1
3
  7
SLDTEXTSTYLE0
 11
-7.044195017643634E-15
 21
1.0
 31
0.0
 73
     1
 44
1.0
  0
MTEXT
  5
145
330
132
100
AcDbEntity
  8
0
  6
Continuous
 62
     7
370
     0
100
AcDbMText
 10
11.1323625778
 20
12.2244119642
 30
0.002
 40
0.35
 41
0.0
 71
     1
 72
     1
  1
1
  7
SLDTEXTSTYLE0
 11
-7.044195017643634E-15
 21
1.0
 31
0.0
 73
     1
 44
1.0
  0
MTEXT
  5
146
330
132
100
AcDbEntity
  8
0
  6
Continuous
 62
     7
370
     0
100
AcDbMText
 10
11.5951889752
 20
12.2244119642
 30
0.002
 40
0.35
 41
0.0
 71
     1
 72
     1
  1
2
  7
SLDTEXTSTYLE0
 11
-7.044195017643634E-15
 21
1.0
 31
0.0
 73
     1
 44
1.0
  0
MTEXT
  5
147
330
132
100
AcDbEntity
  8
0
  6
Continuous
 62
     7
370
     0
100
AcDbMText
 10
11.3880813294
 20
12.5855925608
 30
0.002
 40
0.35
 41
0.0
 71
     1
 72
     1
  1
"
  7
SLDTEXTSTYLE0
 11
-7.044195017643634E-15
 21
1.0
 31
0.0
 73
     1
 44
1.0
  0
MTEXT
  5
148
330
132
100
AcDbEntity
  8
0
  6
Continuous
 62
     7
370
     0
100
AcDbMText
 10
12.1188521848
 20
12.0251064303
 30
0.002
 40
0.35
 41
0.0
 71
     1
 72
     1
  1
9
  7
SLDTEXTSTYLE0
 11
-7.044195017643634E-15
 21
1.0
 31
0.0
 73
     1
 44
1.0
  0
MTEXT
  5
149
330
132
100
AcDbEntity
  8
0
  6
Continuous
 62
     7
370
     0
100
AcDbMText
 10
12.1135049206
 20
13.0744988464
 30
0.002
 40
0.35
 41
0.0
 71
     1
 72
     1
  1

  7
SLDTEXTSTYLE0
 11
-7.044195017643634E-15
 21
1.0
 31
0.0
 73
     1
 44
1.0
  0
ENDBLK
  5
134
330
132
100
AcDbEntity
  8
0
100
AcDbBlockEnd
  0
BLOCK
  5
14B
330
14A
100
AcDbEntity
  8
0
100
AcDbBlockBegin
  2
SW_CENTERMARKSYMBOL_0
 70
     0
 10
0.0
 20
0.0
 30
0.0
  3
SW_CENTERMARKSYMBOL_0
  1

  0
LINE
  5
14D
330
14A
100
AcDbEntity
  8
0
  6
Continuous
 62
     0
370
     0
100
AcDbLine
 10
0.0
 20
0.0
 30
0.0
 11
0.0
 21
0.05
 31
0.0
  0
LINE
  5
14E
330
14A
100
AcDbEntity
  8
0
  6
Continuous
 62
     0
370
     0
100
AcDbLine
 10
0.0
 20
0.0
 30
0.0
 11
-0.05
 21
0.0
 31
0.0
  0
LINE
  5
14F
330
14A
100
AcDbEntity
  8
0
  6
Continuous
 62
     0
370
     0
100
AcDbLine
 10
0.0
 20
0.0
 30
0.0
 11
0.0
 21
-0.05
 31
0.0
  0
LINE
  5
150
330
14A
100
AcDbEntity
  8
0
  6
Continuous
 62
     0
370
     0
100
AcDbLine
 10
0.0
 20
0.0
 30
0.0
 11
0.05
 21
0.0
 31
0.0
  0
LINE
  5
151
330
14A
100
AcDbEntity
  8
0
  6
Continuous
 62
     0
370
     0
100
AcDbLine
 10
0.0
 20
0.1
 30
0.0
 11
0.0
 21
0.148
 31
0.0
  0
LINE
  5
152
330
14A
100
AcDbEntity
  8
0
  6
Continuous
 62
     0
370
     0
100
AcDbLine
 10
-0.1
 20
0.0
 30
0.0
 11
-0.148
 21
0.0
 31
0.0
  0
LINE
  5
153
330
14A
100
AcDbEntity
  8
0
  6
Continuous
 62
     0
370
     0
100
AcDbLine
 10
0.0
 20
-0.1
 30
0.0
 11
0.0
 21
-0.148
 31
0.0
  0
LINE
  5
154
330
14A
100
AcDbEntity
  8
0
  6
Continuous
 62
     0
370
     0
100
AcDbLine
 10
0.1
 20
0.0
 30
0.0
 11
0.148
 21
0.0
 31
0.0
  0
ENDBLK
  5
14C
330
14A
100
AcDbEntity
  8
0
100
AcDbBlockEnd
  0
ENDSEC
  0
SECTION
  2
ENTITIES
  0
LINE
  5
45
330
1F
100
AcDbEntity
  8
0
  6
Continuous
 62
     7
370
    40
100
AcDbLine
 10
1.0078843565
 20
0.5214780157
 30
0.0
 11
20.5078843565
 21
0.5214780157
 31
0.0
  0
LINE
  5
46
330
1F
100
AcDbEntity
  8
0
  6
Continuous
 62
     7
370
    40
100
AcDbLine
 10
0.0078843565
 20
0.0214780157
 30
0.0
 11
21.0078843565
 21
0.0214780157
 31
0.0
  0
LINE
  5
47
330
1F
100
AcDbEntity
  8
0
  6
Continuous
 62
     7
370
    40
100
AcDbLine
 10
0.0078843565
 20
0.0214780157
 30
0.0
 11
0.0078843565
 21
29.7214780157
 31
0.0
  0
LINE
  5
48
330
1F
100
AcDbEntity
  8
0
  6
Continuous
 62
     7
370
    40
100
AcDbLine
 10
0.0078843565
 20
29.7214780157
 30
0.0
 11
21.0078843565
 21
29.7214780157
 31
0.0
  0
LINE
  5
49
330
1F
100
AcDbEntity
  8
0
  6
Continuous
 62
     7
370
    40
100
AcDbLine
 10
21.0078843565
 20
0.0214780157
 30
0.0
 11
21.0078843565
 21
29.7214780157
 31
0.0
  0
LINE
  5
4A
330
1F
100
AcDbEntity
  8
0
  6
Continuous
 62
     7
370
    40
100
AcDbLine
 10
1.0078843565
 20
29.2214780157
 30
0.0
 11
20.5078843565
 21
29.2214780157
 31
0.0
  0
LINE
  5
4B
330
1F
100
AcDbEntity
  8
0
  6
Continuous
 62
     7
370
    40
100
AcDbLine
 10
20.5078843565
 20
0.5214780157
 30
0.0
 11
18.0988311848
 21
0.5214780157
 31
0.0
  0
LINE
  5
4C
330
1F
100
AcDbEntity
  8
0
  6
Continuous
 62
     7
370
    40
100
AcDbLine
 10
1.0078843565
 20
0.5214780157
 30
0.0
 11
1.0078843565
 21
29.2214780157
 31
0.0
  0
LINE
  5
4D
330
1F
100
AcDbEntity
  8
0
  6
Continuous
 62
     7
370
    40
100
AcDbLine
 10
1.0110820912
 20
0.9370927258
 30
0.0
 11
20.5078843565
 21
0.9370927258
 31
0.0
  0
LINE
  5
4E
330
1F
100
AcDbEntity
  8
0
  6
Continuous
 62
     7
370
    40
100
AcDbLine
 10
20.5078843565
 20
4.3370927258
 30
0.0
 11
1.0110820912
 21
4.3370927258
 31
0.0
  0
LINE
  5
4F
330
1F
100
AcDbEntity
  8
0
  6
Continuous
 62
     7
370
    40
100
AcDbLine
 10
1.0110820912
 20
6.0370927258
 30
0.0
 11
20.5078843565
 21
6.0370927258
 31
0.0
  0
LINE
  5
50
330
1F
100
AcDbEntity
  8
0
  6
Continuous
 62
     7
370
    40
100
AcDbLine
 10
21.0078843565
 20
29.2214780157
 30
0.0
 11
21.0078843565
 21
29.7214780157
 31
0.0
  0
LINE
  5
51
330
1F
100
AcDbEntity
  8
0
  6
Continuous
 62
     7
370
    40
100
AcDbLine
 10
3.7101773345
 20
4.3370927258
 30
0.0
 11
3.7101773345
 21
0.5120927258
 31
0.0
  0
LINE
  5
52
330
1F
100
AcDbEntity
  8
0
  6
Continuous
 62
     7
370
    40
100
AcDbLine
 10
10.8910820912
 20
2.6370927258
 30
0.0
 11
1.0110820912
 21
2.6370927258
 31
0.0
  0
LINE
  5
53
330
1F
100
AcDbEntity
  8
0
  6
Continuous
 62
     7
370
    40
100
AcDbLine
 10
10.8910820912
 20
3.0620927258
 30
0.0
 11
1.0110820912
 21
3.0620927258
 31
0.0
  0
LINE
  5
54
330
1F
100
AcDbEntity
  8
0
  6
Continuous
 62
     7
370
    40
100
AcDbLine
 10
10.8910820912
 20
3.4870927258
 30
0.0
 11
1.0110820912
 21
3.4870927258
 31
0.0
  0
LINE
  5
55
330
1F
100
AcDbEntity
  8
0
  6
Continuous
 62
     7
370
    40
100
AcDbLine
 10
10.8910820912
 20
3.9120927258
 30
0.0
 11
1.0110820912
 21
3.9120927258
 31
0.0
  0
LINE
  5
56
330
1F
100
AcDbEntity
  8
0
  6
Continuous
 62
     7
370
    40
100
AcDbLine
 10
6.4710820912
 20
0.5120927258
 30
0.0
 11
6.4710820912
 21
4.3370927258
 31
0.0
  0
LINE
  5
57
330
1F
100
AcDbEntity
  8
0
  6
Continuous
 62
     7
370
    40
100
AcDbLine
 10
1.0110820912
 20
6.0370927258
 30
0.0
 11
1.0110820912
 21
0.5120927258
 31
0.0
  0
LINE
  5
58
330
1F
100
AcDbEntity
  8
0
  6
Continuous
 62
     7
370
    40
100
AcDbLine
 10
2.3529807256
 20
4.3370927258
 30
0.0
 11
2.3529807256
 21
0.5214780157
 31
0.0
  0
LINE
  5
59
330
1F
100
AcDbEntity
  8
0
  6
Continuous
 62
     7
370
    40
100
AcDbLine
 10
4.3910820912
 20
4.3370927258
 30
0.0
 11
4.3910820912
 21
6.0370927258
 31
0.0
  0
LINE
  5
5A
330
1F
100
AcDbEntity
  8
0
  6
Continuous
 62
     7
370
    40
100
AcDbLine
 10
5.4509747075
 20
4.3370927258
 30
0.0
 11
5.4509747075
 21
0.5120927258
 31
0.0
  0
LINE
  5
5B
330
1F
100
AcDbEntity
  8
0
  6
Continuous
 62
     7
370
    40
100
AcDbLine
 10
7.5110820912
 20
2.6370927258
 30
0.0
 11
7.5110820912
 21
4.3370927258
 31
0.0
  0
LINE
  5
5C
330
1F
100
AcDbEntity
  8
0
  6
Continuous
 62
     7
370
    40
100
AcDbLine
 10
6.4710820912
 20
1.3620927258
 30
0.0
 11
1.0110820912
 21
1.3620927258
 31
0.0
  0
LINE
  5
5D
330
1F
100
AcDbEntity
  8
0
  6
Continuous
 62
     7
370
    40
100
AcDbLine
 10
9.0710820912
 20
6.0370927258
 30
0.0
 11
9.0710820912
 21
2.2120927258
 31
0.0
  0
LINE
  5
5E
330
1F
100
AcDbEntity
  8
0
  6
Continuous
 62
     7
370
    40
100
AcDbLine
 10
6.4710820912
 20
1.7870855258
 30
0.0
 11
1.0110820912
 21
1.7870855258
 31
0.0
  0
LINE
  5
5F
330
1F
100
AcDbEntity
  8
0
  6
Continuous
 62
     7
370
    40
100
AcDbLine
 10
6.4710820912
 20
2.2120927258
 30
0.0
 11
1.0110820912
 21
2.2120927258
 31
0.0
  0
LINE
  5
60
330
1F
100
AcDbEntity
  8
0
  6
Continuous
 62
     7
370
    40
100
AcDbLine
 10
6.4710820912
 20
2.2120927258
 30
0.0
 11
20.5078843565
 21
2.2120927258
 31
0.0
  0
LINE
  5
61
330
1F
100
AcDbEntity
  8
0
  6
Continuous
 62
     7
370
    40
100
AcDbLine
 10
10.8910820912
 20
6.0370927258
 30
0.0
 11
10.8910820912
 21
0.5120927258
 31
0.0
  0
LINE
  5
62
330
1F
100
AcDbEntity
  8
0
  6
Continuous
 62
     7
370
    40
100
AcDbLine
 10
16.0878843565
 20
0.5214780157
 30
0.0
 11
16.0878843565
 21
0.9464780157
 31
0.0
  0
LINE
  5
63
330
1F
100
AcDbEntity
  8
0
  6
Continuous
 62
     7
370
    40
100
AcDbLine
 10
16.8678843565
 20
5.4089780157
 30
0.0
 11
16.8678843565
 21
6.0464780157
 31
0.0
  0
LINE
  5
64
330
1F
100
AcDbEntity
  8
0
  6
Continuous
 62
     7
370
    40
100
AcDbLine
 10
19.2078843565
 20
0.9464780157
 30
0.0
 11
19.2078843565
 21
2.2214780157
 31
0.0
  0
LINE
  5
65
330
1F
100
AcDbEntity
  8
0
  6
Continuous
 62
     7
370
    40
100
AcDbLine
 10
20.5078843565
 20
5.3995927258
 30
0.0
 11
10.8910820912
 21
5.3995927258
 31
0.0
  0
LINE
  5
66
330
1F
100
AcDbEntity
  8
0
  6
Continuous
 62
     7
370
    40
100
AcDbLine
 10
20.5078843565
 20
1.3714780157
 30
0.0
 11
19.2078843565
 21
1.3714780157
 31
0.0
  0
LINE
  5
67
330
1F
100
AcDbEntity
  8
0
  6
Continuous
 62
     7
370
    40
100
AcDbLine
 10
20.5078843565
 20
0.5214780157
 30
0.0
 11
20.5078843565
 21
29.2214780157
 31
0.0
  0
MTEXT
  5
69
330
1F
100
AcDbEntity
  8
0
  6
Continuous
 62
     7
370
     0
100
AcDbMText
 10
15.7458736745
 20
3.5849896778
 30
0.0
 40
0.5291666667
 41
0.0
 71
     2
 72
     1
  1
$PRPSHEET:\{Descrizione\}
  7
SLDTEXTSTYLE0
 73
     1
 44
1.0
  0
MTEXT
  5
6A
330
1F
100
AcDbEntity
  8
0
  6
Continuous
 62
     7
370
     0
100
AcDbMText
 10
15.8060921265
 20
1.9846518799
 30
0.0
 40
0.635
 41
0.0
 71
     2
 72
     1
  1
Disegno31
  7
SLDTEXTSTYLE0
 73
     1
 44
1.0
  0
MTEXT
  5
6B
330
1F
100
AcDbEntity
  8
0
  6
Continuous
 62
     7
370
     0
100
AcDbMText
 10
6.572863204
 20
0.8070239161
 30
0.0
 40
0.14986
 41
0.0
 71
     1
 72
     1
  1
PESO: $PRPSHEET:\{Peso\}
  7
SLDTEXTSTYLE0
 73
     1
 44
1.0
  0
MTEXT
  5
6C
330
1F
100
AcDbEntity
  8
0
  6
Continuous
 62
     7
370
     0
100
AcDbMText
 10
6.917245415
 20
5.3102097813
 30
0.0
 40
0.238125
 41
0.0
 71
     2
 72
     1
  1
$PRPSHEET:\{Fine\}
  7
SLDTEXTSTYLE0
 73
     1
 44
1.0
  0
MTEXT
  5
6D
330
1F
100
AcDbEntity
  8
0
  6
Continuous
 62
     7
370
     0
100
AcDbMText
 10
8.9081811541
 20
1.6606492949
 30
0.0
 40
0.238125
 41
0.0
 71
     2
 72
     1
  1
$PRPSHEET:\{Materiale\}
  7
SLDTEXTSTYLE0
 73
     1
 44
1.0
  0
MTEXT
  5
6E
330
1F
100
AcDbEntity
  8
0
  6
Continuous
 62
     7
370
     0
100
AcDbMText
 10
19.5999828412
 20
1.9515224668
 30
0.0
 40
0.2910416667
 41
0.0
 71
     1
 72
     1
  1
A4
  7
SLDTEXTSTYLE0
 73
     1
 44
1.0
  0
MTEXT
  5
70
330
1F
100
AcDbEntity
  8
0
  6
Continuous
 62
     7
370
     0
100
AcDbMText
 10
16.2357137993
 20
0.8114867431
 30
0.0
 40
0.15
 41
0.0
 71
     1
 72
     1
  1
FOGLIO 1 DI 1
  7
SLDTEXTSTYLE1
 73
     1
 44
1.0
  0
MTEXT
  5
71
330
1F
100
AcDbEntity
  8
0
  6
Continuous
 62
     7
370
     0
100
AcDbMText
 10
11.0184787029
 20
0.8021014532
 30
0.0
 40
0.15
 41
0.0
 71
     1
 72
     1
  1
SCALA:1:5
  7
SLDTEXTSTYLE0
 73
     1
 44
1.0
  0
MTEXT
  5
72
330
1F
100
AcDbEntity
  8
0
  6
Continuous
 62
     7
370
     0
100
AcDbMText
 10
11.0184787029
 20
1.9989565085
 30
0.0
 40
0.15
 41
0.0
 71
     1
 72
     1
  1
N. DISEGNO
  7
SLDTEXTSTYLE0
 73
     1
 44
1.0
  0
MTEXT
  5
73
330
1F
100
AcDbEntity
  8
0
  6
Continuous
 62
     7
370
     0
100
AcDbMText
 10
11.0067007848
 20
4.1399261544
 30
0.0
 40
0.15
 41
0.0
 71
     1
 72
     1
  1
TITOLO:
  7
SLDTEXTSTYLE0
 73
     1
 44
1.0
  0
MTEXT
  5
74
330
1F
100
AcDbEntity
  8
0
  6
Continuous
 62
     7
370
     0
100
AcDbMText
 10
17.1206425265
 20
5.7549688837
 30
0.0
 40
0.15
 41
0.0
 71
     1
 72
     1
  1
REVISIONE
  7
SLDTEXTSTYLE0
 73
     1
 44
1.0
  0
MTEXT
  5
75
330
1F
100
AcDbEntity
  8
0
  6
Continuous
 62
     7
370
     0
100
AcDbMText
 10
13.0493484088
 20
5.7747773732
 30
0.0
 40
0.15
 41
0.0
 71
     1
 72
     1
  1
NON SCALARE IL DISEGNO
  7
SLDTEXTSTYLE0
 73
     1
 44
1.0
  0
MTEXT
  5
76
330
1F
100
AcDbEntity
  8
0
  6
Continuous
 62
     7
370
     0
100
AcDbMText
 10
6.575668322
 20
2.1106983547
 30
0.0
 40
0.15
 41
0.0
 71
     1
 72
     1
  1
MATERIALE:
  7
SLDTEXTSTYLE0
 73
     1
 44
1.0
  0
MTEXT
  5
77
330
1F
100
AcDbEntity
  8
0
  6
Continuous
 62
     7
370
     0
100
AcDbMText
 10
5.7325522877
 20
4.1697106479
 30
0.0
 40
0.15
 41
0.0
 71
     1
 72
     1
  1
DATA
  7
SLDTEXTSTYLE0
 73
     1
 44
1.0
  0
MTEXT
  5
78
330
1F
100
AcDbEntity
  8
0
  6
Continuous
 62
     7
370
     0
100
AcDbMText
 10
4.0144408475
 20
4.1682683637
 30
0.0
 40
0.15
 41
0.0
 71
     1
 72
     1
  1
FIRMA
  7
SLDTEXTSTYLE0
 73
     1
 44
1.0
  0
MTEXT
  5
79
330
1F
100
AcDbEntity
  8
0
  6
Continuous
 62
     7
370
     0
100
AcDbMText
 10
2.4433060129
 20
4.1622409891
 30
0.0
 40
0.15
 41
0.0
 71
     1
 72
     1
  1
NOME
  7
SLDTEXTSTYLE0
 73
     1
 44
1.0
  0
INSERT
  5
80
330
1F
100
AcDbEntity
  8
0
  6
Continuous
 62
     7
370
     0
100
AcDbBlockReference
  2
SW_NOTE_0
 10
9.1420036598
 20
5.7190416901
 30
0.0
  0
MTEXT
  5
81
330
1F
100
AcDbEntity
  8
0
  6
Continuous
 62
     7
370
     0
100
AcDbMText
 10
4.4482113078
 20
5.9040199253
 30
0.0
 40
0.15
 41
0.0
 71
     1
 72
     1
  1
FINITURA:
  7
SLDTEXTSTYLE0
 73
     1
 44
1.0
  0
INSERT
  5
8B
330
1F
100
AcDbEntity
  8
0
  6
Continuous
 62
     7
370
     0
100
AcDbBlockReference
  2
SW_NOTE_1
 10
1.0704489657
 20
5.7108297132
 30
0.0
  0
MTEXT
  5
8C
330
1F
100
AcDbEntity
  8
0
  6
Continuous
 62
     7
370
     0
100
AcDbMText
 10
1.0779863774
 20
2.0470576465
 30
0.0
 40
0.15
 41
0.0
 71
     1
 72
     1
  1
QUALITA'
  7
SLDTEXTSTYLE0
 73
     1
 44
1.0
  0
MTEXT
  5
8D
330
1F
100
AcDbEntity
  8
0
  6
Continuous
 62
     7
370
     0
100
AcDbMText
 10
1.0566007411
 20
2.4854631908
 30
0.0
 40
0.15
 41
0.0
 71
     1
 72
     1
  1
FATTO
  7
SLDTEXTSTYLE0
 73
     1
 44
1.0
  0
MTEXT
  5
8E
330
1F
100
AcDbEntity
  8
0
  6
Continuous
 62
     7
370
     0
100
AcDbMText
 10
1.051254332
 20
2.9185223261
 30
0.0
 40
0.15
 41
0.0
 71
     1
 72
     1
  1
APPROVATO
  7
SLDTEXTSTYLE0
 73
     1
 44
1.0
  0
MTEXT
  5
8F
330
1F
100
AcDbEntity
  8
0
  6
Continuous
 62
     7
370
     0
100
AcDbMText
 10
1.0521289779
 20
3.3275334418
 30
0.0
 40
0.15
 41
0.0
 71
     1
 72
     1
  1
VERIFICATO
  7
SLDTEXTSTYLE0
 73
     1
 44
1.0
  0
MTEXT
  5
90
330
1F
100
AcDbEntity
  8
0
  6
Continuous
 62
     7
370
     0
100
AcDbMText
 10
1.0322970156
 20
3.7550642144
 30
0.0
 40
0.15
 41
0.0
 71
     1
 72
     1
  1
DISEGNATO
  7
SLDTEXTSTYLE0
 73
     1
 44
1.0
  0
LINE
  5
91
330
1F
100
AcDbEntity
  8
0
  6
Continuous
 62
     7
370
    15
100
AcDbLine
 10
9.1644894765
 20
18.9330049649
 30
0.0
 11
9.111090222
 21
18.281761549
 31
0.0
  0
LINE
  5
92
330
1F
100
AcDbEntity
  8
0
  6
Continuous
 62
     7
370
    15
100
AcDbLine
 10
9.6027703087
 20
24.2786914933
 30
0.0
 11
9.5810318226
 21
24.0135279407
 31
0.0
  0
SPLINE
  5
93
330
1F
100
AcDbEntity
  8
0
  6
Continuous
 62
     7
370
    15
100
AcDbSpline
210
0.0
220
0.0
230
1.0
 70
     8
 71
     3
 72
     9
 73
     5
 74
     0
 42
0.00000001
 43
0.00000001
 40
0.0
 40
0.0
 40
0.0
 40
0.0
 40
0.4282322973591556
 40
0.9999999999999999
 40
0.9999999999999999
 40
0.9999999999999999
 40
0.9999999999999999
 10
10.82545101388159
 20
19.36113647922772
 30
0.0
 10
10.75814677789134
 20
20.00054371035183
 30
0.0
 10
10.60097919290228
 20
21.4936754406469
 30
0.0
 10
10.44382843714477
 20
22.98683061806798
 30
0.0
 10
10.35397471055702
 20
23.84056852354832
 30
0.0
  0
LINE
  5
94
330
1F
100
AcDbEntity
  8
0
  6
Continuous
 62
     7
370
    15
100
AcDbLine
 10
9.1180791827
 20
18.2793477923
 30
0.0
 11
9.1301082294
 21
18.2783647841
 31
0.0
  0
SPLINE
  5
95
330
1F
100
AcDbEntity
  8
0
  6
Continuous
 62
     7
370
    15
100
AcDbSpline
210
0.0
220
0.0
230
1.0
 70
     8
 71
     3
 72
     9
 73
     5
 74
     0
 42
0.00000001
 43
0.00000001
 40
0.0
 40
0.0
 40
0.0
 40
0.0
 40
0.4999217369900017
 40
1.0
 40
1.0
 40
1.0
 40
1.0
 10
10.02091973727217
 20
18.44593544183926
 30
0.0
 10
10.0217680497685
 20
18.44618731610028
 30
0.0
 10
10.02346494036869
 20
18.44669114348441
 30
0.0
 10
10.02518059938825
 20
18.44719482792815
 30
0.0
 10
10.02603856317067
 20
18.44744670956989
 30
0.0
  0
SPLINE
  5
96
330
1F
100
AcDbEntity
  8
0
  6
Continuous
 62
     7
370
    15
100
AcDbSpline
210
0.0
220
0.0
230
1.0
 70
     8
 71
     3
 72
     9
 73
     5
 74
     0
 42
0.00000001
 43
0.00000001
 40
0.0
 40
0.0
 40
0.0
 40
0.0
 40
0.4999697736329204
 40
1.0
 40
1.0
 40
1.0
 40
1.0
 10
9.620014909802386
 20
24.27788828205904
 30
0.0
 10
9.618057508904677
 20
24.278048768793
 30
0.0
 10
9.614142470434476
 20
24.2783697616658
 30
0.0
 10
9.610232296646307
 20
24.27869042677804
 30
0.0
 10
9.608277091561872
 20
24.2788507690267
 30
0.0
  0
SPLINE
  5
97
330
1F
100
AcDbEntity
  8
0
  6
Continuous
 62
     7
370
    15
100
AcDbSpline
210
0.0
220
0.0
230
1.0
 70
     8
 71
     3
 72
     9
 73
     5
 74
     0
 42
0.00000001
 43
0.00000001
 40
0.0
 40
0.0
 40
0.0
 40
0.0
 40
0.5000572841150872
 40
0.9999999999999999
 40
0.9999999999999999
 40
0.9999999999999999
 40
0.9999999999999999
 10
9.664674231308636
 20
18.61180564949659
 30
0.0
 10
9.665500297931404
 20
18.61145430412954
 30
0.0
 10
9.667152241916643
 20
18.61075169389226
 30
0.0
 10
9.668790145251613
 20
18.6100491890654
 30
0.0
 10
9.669609003093255
 20
18.60969797689433
 30
0.0
  0
LINE
  5
98
330
1F
100
AcDbEntity
  8
0
  6
Continuous
 62
     7
370
    15
100
AcDbLine
 10
10.7206057784
 20
18.2783647841
 30
0.0
 11
10.7326348251
 21
18.2793477923
 31
0.0
  0
SPLINE
  5
99
330
1F
100
AcDbEntity
  8
0
  6
Continuous
 62
     7
370
    15
100
AcDbSpline
210
0.0
220
0.0
230
1.0
 70
     8
 71
     3
 72
     9
 73
     5
 74
     0
 42
0.00000001
 43
0.00000001
 40
0.0
 40
0.0
 40
0.0
 40
0.0
 40
0.5717677026408445
 40
0.9999999999999999
 40
0.9999999999999999
 40
0.9999999999999999
 40
0.9999999999999999
 10
9.496739297225076
 20
23.84056852354832
 30
0.0
 10
9.406885570637332
 20
22.98683061806798
 30
0.0
 10
9.249734814879822
 20
21.4936754406469
 30
0.0
 10
9.092567229890763
 20
20.00054371035183
 30
0.0
 10
9.025262993900506
 20
19.36113647922772
 30
0.0
  0
LINE
  5
9A
330
1F
100
AcDbEntity
  8
0
  6
Continuous
 62
     7
370
    15
100
AcDbLine
 10
10.2974670534
 20
23.6746113129
 30
0.0
 11
10.2479436991
 21
24.2786914933
 31
0.0
  0
LINE
  5
9B
330
1F
100
AcDbEntity
  8
0
  6
Continuous
 62
     7
370
    15
100
AcDbLine
 10
10.7396237858
 20
18.281761549
 30
0.0
 11
10.6078202121
 21
19.889203645
 31
0.0
  0
SPLINE
  5
9C
330
1F
100
AcDbEntity
  8
0
  6
Continuous
 62
     7
370
    15
100
AcDbSpline
210
0.0
220
0.0
230
1.0
 70
     8
 71
     3
 72
     9
 73
     5
 74
     0
 42
0.00000001
 43
0.00000001
 40
0.0
 40
0.0
 40
0.0
 40
0.0
 40
0.5000302263671095
 40
1.0
 40
1.0
 40
1.0
 40
1.0
 10
10.24243691622019
 20
24.2788507690267
 30
0.0
 10
10.24048171113577
 20
24.27869042677804
 30
0.0
 10
10.23657153734761
 20
24.27836976166579
 30
0.0
 10
10.23265649887742
 20
24.27804876879299
 30
0.0
 10
10.23069909797971
 20
24.27788828205904
 30
0.0
  0
SPLINE
  5
9D
330
1F
100
AcDbEntity
  8
0
  6
Continuous
 62
     7
370
    15
100
AcDbSpline
210
0.0
220
0.0
230
1.0
 70
     8
 71
     3
 72
    17
 73
    13
 74
     0
 42
0.00000001
 43
0.00000001
 40
0.0
 40
0.0
 40
0.0
 40
0.0
 40
0.0810265447853501
 40
0.184196968034183
 40
0.2903616866483258
 40
0.3935809378477492
 40
0.4998061689222489
 40
0.602824552292921
 40
0.7087979329223224
 40
0.8124403717823739
 40
0.9190225200228125
 40
0.9999999999999999
 40
0.9999999999999999
 40
0.9999999999999999
 40
0.9999999999999999
 10
9.91839227935944
 20
24.21940010344272
 30
0.0
 10
9.90521805893933
 20
24.22266098724767
 30
0.0
 10
9.87526921360689
 20
24.23007392718699
 30
0.0
 10
9.828522222858187
 20
24.24083213590092
 30
0.0
 10
9.780232784137237
 20
24.25062872250002
 30
0.0
 10
9.735077393519683
 20
24.25916588846819
 30
0.0
 10
9.695221587236336
 20
24.26615968230612
 30
0.0
 10
9.661132625038698
 20
24.27170369987031
 30
0.0
 10
9.634206444869156
 20
24.27573584803075
 30
0.0
 10
9.615097703212893
 20
24.27824539719067
 30
0.0
 10
9.60421012580272
 20
24.27931829483683
 30
0.0
 10
9.603729334789593
 20
24.27883763320441
 30
0.0
 10
9.603521756831539
 20
24.27863011110552
 30
0.0
  0
SPLINE
  5
9E
330
1F
100
AcDbEntity
  8
0
  6
Continuous
 62
     7
370
    15
100
AcDbSpline
210
0.0
220
0.0
230
1.0
 70
     8
 71
     3
 72
    35
 73
    31
 74
     0
 42
0.00000001
 43
0.00000001
 40
0.0
 40
0.0
 40
0.0
 40
0.0
 40
0.0070835066249045
 40
0.0271190702322144
 40
0.051814335406835
 40
0.0766951889513714
 40
0.101386101620604
 40
0.126227960205439
 40
0.1509150568149574
 40
0.1757239884058541
 40
0.21088952623304
 40
0.2463246492059609
 40
0.281479637267284
 40
0.3168244396571985
 40
0.3519717037677844
 40
0.3872510599349053
 40
0.4223927285190131
 40
0.4576250150830126
 40
0.4927629894908093
 40
0.5278995084804476
 40
0.5630893837115563
 40
0.633388174260152
 40
0.7036781453521616
 40
0.7388108184765529
 40
0.80909414985555
 40
0.879375566827525
 40
0.9145076537965775
 40
0.9572138413766864
 40
0.9999591656363884
 40
1.0
 40
1.0
 40
1.0
 40
1.0
 10
10.26968218514008
 20
24.01352794068129
 30
0.0
 10
10.27228479123408
 20
24.01099802675734
 30
0.0
 10
10.2822488191072
 20
24.00131229947309
 30
0.0
 10
10.29820477930171
 20
23.98192028211638
 30
0.0
 10
10.31685570098069
 20
23.95509369549377
 30
0.0
 10
10.33234975088475
 20
23.92524653464026
 30
0.0
 10
10.34387876113791
 20
23.8942417304045
 30
0.0
 10
10.35152414716798
 20
23.86221801818429
 30
0.0
 10
10.35555436920819
 20
23.82909264941259
 30
0.0
 10
10.35629099753272
 20
23.7901977814564
 30
0.0
 10
10.35230589846295
 20
23.74481046885703
 30
0.0
 10
10.3424417944757
 20
23.69258344400434
 30
0.0
 10
10.32797793604696
 20
23.63844959768937
 30
0.0
 10
10.30982842233465
 20
23.58272993026358
 30
0.0
 10
10.2887255480565
 20
23.52532699797017
 30
0.0
 10
10.26546508342819
 20
23.4664934489147
 30
0.0
 10
10.24067049839902
 20
23.40617785673239
 30
0.0
 10
10.21496894380968
 20
23.34460069347473
 30
0.0
 10
10.18884240257235
 20
23.28176483914583
 30
0.0
 10
10.16274051517962
 20
23.21779104840928
 30
0.0
 10
10.12844364192159
 20
23.13104612169073
 30
0.0
 10
10.08731998324748
 20
23.02009083433198
 30
0.0
 10
10.05009265169727
 20
22.90637313600088
 30
0.0
 10
10.01650525047512
 20
22.79094947781101
 30
0.0
 10
9.986799979052362
 20
22.67395106394797
 30
0.0
 10
9.962707723598221
 20
22.55532080292505
 30
0.0
 10
9.946126290542804
 20
22.45454180248384
 30
0.0
 10
9.934840481507228
 20
22.37210431754294
 30
0.0
 10
9.928716034076995
 20
22.31340467733184
 30
0.0
 10
9.92599762481815
 20
22.28399432361174
 30
0.0
 10
9.925995030415761
 20
22.28396625488305
 30
0.0
  0
LINE
  5
9F
330
1F
100
AcDbEntity
  8
0
  6
Continuous
 62
     7
370
    15
100
AcDbLine
 10
9.9632921427
 20
24.2056258541
 30
0.0
 11
9.9183922794
 21
24.2194001034
 31
0.0
  0
SPLINE
  5
A0
330
1F
100
AcDbEntity
  8
0
  6
Continuous
 62
     7
370
    15
100
AcDbSpline
210
0.0
220
0.0
230
1.0
 70
     8
 71
     3
 72
    42
 73
    38
 74
     0
 42
0.00000001
 43
0.00000001
 40
0.0
 40
0.0
 40
0.0
 40
0.0
 40
0.000025392891517
 40
0.0115613188857495
 40
0.0577238775666417
 40
0.1038850040911608
 40
0.1501871692217983
 40
0.196349085982666
 40
0.2425120108921666
 40
0.2655863604452905
 40
0.2886608286484537
 40
0.311735399029364
 40
0.3348101148921612
 40
0.380978741910777
 40
0.4040539736778586
 40
0.4271293894161848
 40
0.4502050531894842
 40
0.4963820965372637
 40
0.519458515666193
 40
0.5425352134973799
 40
0.5887217962723151
 40
0.6117994649377871
 40
0.6579943430681345
 40
0.6810731538415926
 40
0.7041523883547358
 40
0.7503601493658906
 40
0.7734406843238816
 40
0.7965216814128045
 40
0.8196788314234442
 40
0.84276076081205
 40
0.8658431837418441
 40
0.8890135261309096
 40
0.9120970257314015
 40
0.9352767309356048
 40
0.9583613756892775
 40
0.9814464935156494
 40
1.0
 40
1.0
 40
1.0
 40
1.0
 10
9.926005579475726
 20
21.75864011203345
 30
0.0
 10
9.926008415363485
 20
21.75861071303531
 30
0.0
 10
9.92729958784302
 20
21.74522542399692
 30
0.0
 10
9.933726938609531
 20
21.67839132001449
 30
0.0
 10
9.94949339731545
 20
21.55849376221969
 30
0.0
 10
9.979217188420652
 20
21.39968085748032
 30
0.0
 10
10.01734359431055
 20
21.24242149470973
 30
0.0
 10
10.06349387676954
 20
21.08705795874827
 30
0.0
 10
10.10813381049395
 20
20.95955063929087
 30
0.0
 10
10.14717489922195
 20
20.85881044224013
 30
0.0
 10
10.17800291139558
 20
20.78391742498571
 30
0.0
 10
10.21025220142566
 20
20.70970904009418
 30
0.0
 10
10.25495501562832
 20
20.61170465710029
 30
0.0
 10
10.30190353889408
 20
20.51516393115702
 30
0.0
 10
10.35030707706485
 20
20.42026356194351
 30
0.0
 10
10.38712739648943
 20
20.34992667869382
 30
0.0
 10
10.43662287356903
 20
20.25726939073391
 30
0.0
 10
10.48623656438516
 20
20.1663378781195
 30
0.0
 10
10.53489108338943
 20
20.07730982003451
 30
0.0
 10
10.58254233879746
 20
19.98954566144705
 30
0.0
 10
10.62810578871137
 20
19.90368944423883
 30
0.0
 10
10.68087355410658
 20
19.79894873708347
 30
0.0
 10
10.71916707903626
 20
19.71719804711383
 30
0.0
 10
10.75221640944507
 20
19.63764851912237
 30
0.0
 10
10.78139743408598
 20
19.55955698543654
 30
0.0
 10
10.80416310339824
 20
19.48362923835053
 30
0.0
 10
10.81932093965759
 20
19.41006030782869
 30
0.0
 10
10.82666704952991
 20
19.35600717146691
 30
0.0
 10
10.82969550768701
 20
19.30313795207545
 30
0.0
 10
10.82822034987247
 20
19.25146244236353
 30
0.0
 10
10.82206506790677
 20
19.20098804656238
 30
0.0
 10
10.81104306032456
 20
19.15174210553823
 30
0.0
 10
10.79497911567764
 20
19.1036667800891
 30
0.0
 10
10.77391143495545
 20
19.05689518554627
 30
0.0
 10
10.74755092743014
 20
19.0114305935499
 30
0.0
 10
10.71869498758647
 20
18.97005056320744
 30
0.0
 10
10.69623316222471
 20
18.94442382877541
 30
0.0
 10
10.68622453131055
 20
18.93300496488813
 30
0.0
  0
SPLINE
  5
A1
330
1F
100
AcDbEntity
  8
0
  6
Continuous
 62
     7
370
    15
100
AcDbSpline
210
0.0
220
0.0
230
1.0
 70
     8
 71
     3
 72
    30
 73
    26
 74
     0
 42
0.00000001
 43
0.00000001
 40
0.0
 40
0.0
 40
0.0
 40
0.0
 40
0.032845436348077
 40
0.0785915828823618
 40
0.1253420974899796
 40
0.1724445883128085
 40
0.2176147898790958
 40
0.2631093270346357
 40
0.3071316841732825
 40
0.351459305971586
 40
0.3950067927778698
 40
0.4388566404598054
 40
0.4836649417347127
 40
0.528807958424694
 40
0.5721839948886108
 40
0.6158678869000356
 40
0.6586032651616697
 40
0.701634723053536
 40
0.7439921428761526
 40
0.7866440156335092
 40
0.8289312538904042
 40
0.8715112784132787
 40
0.9150207617858476
 40
0.9588527031325945
 40
1.0
 40
1.0
 40
1.0
 40
1.0
 10
9.111610355776241
 20
18.28171897564425
 30
0.0
 10
9.111621482788573
 20
18.28120904320468
 30
0.0
 10
9.111648107172632
 20
18.27998889203471
 30
0.0
 10
9.117958486642635
 20
18.27916240950433
 30
0.0
 10
9.1298120603871
 20
18.27910065405419
 30
0.0
 10
9.147338095909483
 20
18.28007183605827
 30
0.0
 10
9.169917304545756
 20
18.28199968265909
 30
0.0
 10
9.196965268328135
 20
18.28481927584196
 30
0.0
 10
9.228549011576028
 20
18.28853545890319
 30
0.0
 10
9.264020617041382
 20
18.29308978855321
 30
0.0
 10
9.303534512237208
 20
18.29852319801733
 30
0.0
 10
9.34704425843986
 20
18.30485786589931
 30
0.0
 10
9.394699218882224
 20
18.3121753686862
 30
0.0
 10
9.445525584793279
 20
18.32037928521133
 30
0.0
 10
9.498787843882212
 20
18.32940763950523
 30
0.0
 10
9.553495569452597
 20
18.33912997135749
 30
0.0
 10
9.610042459112178
 20
18.34967420704023
 30
0.0
 10
9.667561940588811
 20
18.36094966758493
 30
0.0
 10
9.726186661618119
 20
18.37304171853886
 30
0.0
 10
9.785185394257352
 20
18.38588156988119
 30
0.0
 10
9.844563654987908
 20
18.39956549842316
 30
0.0
 10
9.90420628203353
 20
18.41415602819822
 30
0.0
 10
9.963923663964554
 20
18.42978274487179
 30
0.0
 10
10.02206625525305
 20
18.44601356619198
 30
0.0
 10
10.05918563847636
 20
18.45744064972839
 30
0.0
 10
10.07715899659444
 20
18.46297369060382
 30
0.0
  0
LWPOLYLINE
  5
A2
330
1F
100
AcDbEntity
  8
0
  6
Continuous
 62
     7
370
    15
100
AcDbPolyline
 90
        5
 70
   128
 43
0.0
 10
9.9259949977
 20
22.2839659007
 10
9.925995866
 20
22.2442353679
 10
9.9259992168
 20
22.0853132375
 10
9.9260024681
 20
21.9219768766
 10
9.9260055405
 20
21.7586405165
  0
SPLINE
  5
A3
330
1F
100
AcDbEntity
  8
0
  6
Continuous
 62
     7
370
    15
100
AcDbSpline
210
0.0
220
0.0
230
1.0
 70
     8
 71
     3
 72
     9
 73
     5
 74
     0
 42
0.00000001
 43
0.00000001
 40
0.0
 40
0.0
 40
0.0
 40
0.0
 40
0.5082209445602306
 40
1.0
 40
1.0
 40
1.0
 40
1.0
 10
9.925357003891053
 20
22.28257728384443
 30
0.0
 10
9.926505616796618
 20
22.29582702904832
 30
0.0
 10
9.92876568285226
 20
22.3218978656514
 30
0.0
 10
9.932337154585653
 20
22.34780213277879
 30
0.0
 10
9.934093529581231
 20
22.36054130879857
 30
0.0
  0
SPLINE
  5
A4
330
1F
100
AcDbEntity
  8
0
  6
Continuous
 62
     7
370
    15
100
AcDbSpline
210
0.0
220
0.0
230
1.0
 70
     8
 71
     3
 72
    30
 73
    26
 74
     0
 42
0.00000001
 43
0.00000001
 40
0.0
 40
0.0
 40
0.0
 40
0.0
 40
0.0369631731981609
 40
0.1208581757995188
 40
0.2050042601071963
 40
0.28994992999368
 40
0.3325709002181305
 40
0.3752399060108353
 40
0.4415024121020875
 40
0.5080327581665137
 40
0.5417953004779408
 40
0.5756154718262757
 40
0.6096356844316707
 40
0.6437379620488473
 40
0.6815839523426067
 40
0.719433543069725
 40
0.7572876533389523
 40
0.7951467615691651
 40
0.8330119866074426
 40
0.8519311766295622
 40
0.8898070300836651
 40
0.9276909568677971
 40
0.9466127966217391
 40
0.9845110406981404
 40
1.0
 40
1.0
 40
1.0
 40
1.0
 10
9.940596728748966
 20
22.41078361190939
 30
0.0
 10
9.9434401659
 20
22.4340453181217
 30
0.0
 10
9.952737328382028
 20
22.5101039228235
 30
0.0
 10
9.97742593084412
 20
22.63762563194624
 30
0.0
 10
10.01414982019698
 20
22.7931251824684
 30
0.0
 10
10.05162981228357
 20
22.92083280095328
 30
0.0
 10
10.08489941299046
 20
23.02169863916088
 30
0.0
 10
10.1161804807027
 20
23.11029255664499
 30
0.0
 10
10.15434793740492
 20
23.21091423273441
 30
0.0
 10
10.191630029914
 20
23.30381960912599
 30
0.0
 10
10.22126247316277
 20
23.37678564535101
 30
0.0
 10
10.24316356019914
 20
23.43108017568044
 30
0.0
 10
10.26422617832973
 20
23.4844889716173
 30
0.0
 10
10.28471203088332
 20
23.53883783095901
 30
0.0
 10
10.30384642139501
 20
23.59378224966044
 30
0.0
 10
10.32064483834054
 20
23.64903237563304
 30
0.0
 10
10.333650395453
 20
23.70261247015537
 30
0.0
 10
10.34205440596825
 20
23.75442424165811
 30
0.0
 10
10.34448858523166
 20
23.79605031102895
 30
0.0
 10
10.34300450718479
 20
23.8364246691601
 30
0.0
 10
10.33730057654274
 20
23.87556088788718
 30
0.0
 10
10.32551726958862
 20
23.9129576345495
 30
0.0
 10
10.30843518434982
 20
23.94886294792019
 30
0.0
 10
10.29271509019857
 20
23.97557268051672
 30
0.0
 10
10.2757808625189
 20
23.99378255562443
 30
0.0
 10
10.27086782068975
 20
23.99906569459009
 30
0.0
  0
SPLINE
  5
A5
330
1F
100
AcDbEntity
  8
0
  6
Continuous
 62
     7
370
    15
100
AcDbSpline
210
0.0
220
0.0
230
1.0
 70
     8
 71
     3
 72
    15
 73
    11
 74
     0
 42
0.00000001
 43
0.00000001
 40
0.0
 40
0.0
 40
0.0
 40
0.0
 40
0.1415128621236875
 40
0.2229312517217721
 40
0.3844722532252912
 40
0.5451208150698933
 40
0.6252366585404379
 40
0.7853095581842203
 40
0.9453810044638223
 40
1.0
 40
1.0
 40
1.0
 40
1.0
 10
9.620406926456635
 20
24.27780646274355
 30
0.0
 10
9.623435563775262
 20
24.27752052958174
 30
0.0
 10
9.628206705410875
 20
24.2770700868678
 30
0.0
 10
9.64272440460096
 20
24.27508802521853
 30
0.0
 10
9.662248575827117
 20
24.27215764448228
 30
0.0
 10
9.687591117866052
 20
24.26797657760083
 30
0.0
 10
9.71644534305419
 20
24.26293852262165
 30
0.0
 10
9.748858798314561
 20
24.25689657160472
 30
0.0
 10
9.78206860810995
 20
24.25046732508523
 30
0.0
 10
9.80275160125285
 20
24.24594583038257
 30
0.0
 10
9.808013523025389
 20
24.24479552533456
 30
0.0
  0
LINE
  5
A6
330
1F
100
AcDbEntity
  8
0
  6
Continuous
 62
     7
370
    15
100
AcDbLine
 10
9.9253570039
 20
21.7572519634
 30
0.0
 11
9.9253570039
 21
22.2825772838
 31
0.0
  0
SPLINE
  5
A7
330
1F
100
AcDbEntity
  8
0
  6
Continuous
 62
     7
370
    15
100
AcDbSpline
210
0.0
220
0.0
230
1.0
 70
     8
 71
     3
 72
    29
 73
    25
 74
     0
 42
0.00000001
 43
0.00000001
 40
0.0
 40
0.0
 40
0.0
 40
0.0
 40
0.0207134872770845
 40
0.0685124093894796
 40
0.116639778235779
 40
0.1644386758292487
 40
0.2125649143310439
 40
0.2617176524089739
 40
0.311223893251386
 40
0.3594813551089249
 40
0.4080686653753871
 40
0.4563257689959496
 40
0.504908257300968
 40
0.5531650054666677
 40
0.6017438334995004
 40
0.6513274157205718
 40
0.7012549677658997
 40
0.7507095526730128
 40
0.8004980273937847
 40
0.8499520814514614
 40
0.8997339588826628
 40
0.9491870952916557
 40
0.9989620888444134
 40
0.9999999999999999
 40
0.9999999999999999
 40
0.9999999999999999
 40
0.9999999999999999
 10
10.01339965535244
 20
18.44386044921355
 30
0.0
 10
10.0054505592098
 20
18.4414850363179
 30
0.0
 10
9.979157945034531
 20
18.43362806570746
 30
0.0
 10
9.933026655857805
 20
18.4210953461729
 30
0.0
 10
9.875702074474939
 20
18.40627677345486
 30
0.0
 10
9.817789856628318
 20
18.39227502483595
 30
0.0
 10
9.759532210802963
 20
18.37896859125505
 30
0.0
 10
9.701051499196042
 20
18.36634583087914
 30
0.0
 10
9.643440619354857
 20
18.35455307281076
 30
0.0
 10
9.587375693398878
 20
18.34364573639673
 30
0.0
 10
9.533479853147602
 20
18.33365521578895
 30
0.0
 10
9.48154360609699
 20
18.32446505652636
 30
0.0
 10
9.432138026313805
 20
18.31612347079654
 30
0.0
 10
9.385389741889542
 20
18.30859047083164
 30
0.0
 10
9.341415007983402
 20
18.3018387183975
 30
0.0
 10
9.300390540041885
 20
18.29586626460188
 30
0.0
 10
9.262942705633353
 20
18.29073075244183
 30
0.0
 10
9.229498885925008
 20
18.28646166194643
 30
0.0
 10
9.200385997768013
 20
18.28307424082274
 30
0.0
 10
9.175700916907294
 20
18.28055708487938
 30
0.0
 10
9.155469820479526
 20
18.27888697358219
 30
0.0
 10
9.14046098859758
 20
18.27819070128385
 30
0.0
 10
9.132098843039074
 20
18.27803930903719
 30
0.0
 10
9.130121437839534
 20
18.27837339544421
 30
0.0
 10
9.130081047097704
 20
18.27838021953763
 30
0.0
  0
SPLINE
  5
A8
330
1F
100
AcDbEntity
  8
0
  6
Continuous
 62
     7
370
    15
100
AcDbSpline
210
0.0
220
0.0
230
1.0
 70
     8
 71
     3
 72
    34
 73
    30
 74
     0
 42
0.00000001
 43
0.00000001
 40
0.0
 40
0.0
 40
0.0
 40
0.0
 40
0.0129252559309975
 40
0.039601299773941
 40
0.0664404322993026
 40
0.0937653063385199
 40
0.1212477847433528
 40
0.150556735141739
 40
0.179864321210416
 40
0.2093351504399085
 40
0.2392835803342918
 40
0.2693842540267307
 40
0.3085338392450506
 40
0.3479741228735712
 40
0.3882460802443906
 40
0.4287767169028181
 40
0.4785220747838954
 40
0.5286537401799232
 40
0.5798437075477012
 40
0.6313544607454744
 40
0.6637909253198839
 40
0.6962930769011589
 40
0.7289809110964897
 40
0.7617273675823557
 40
0.7950935189697909
 40
0.8285157706634223
 40
0.8957262678788477
 40
0.9477678363674482
 40
1.0
 40
1.0
 40
1.0
 40
1.0
 10
10.68544766768783
 20
18.94247939152583
 30
0.0
 10
10.69232602432684
 20
18.95042509199439
 30
0.0
 10
10.71340041269234
 20
18.97476968275912
 30
0.0
 10
10.74177941314482
 20
19.01740464050346
 30
0.0
 10
10.77070713911122
 20
19.07065593394116
 30
0.0
 10
10.79263376681559
 20
19.12624930413086
 30
0.0
 10
10.80818349544873
 20
19.18527019965157
 30
0.0
 10
10.81668668186438
 20
19.24754256328523
 30
0.0
 10
10.81795135186762
 20
19.31317692032476
 30
0.0
 10
10.812060915599
 20
19.38119899493957
 30
0.0
 10
10.79931577800672
 20
19.45174527363355
 30
0.0
 10
10.77818985078734
 20
19.53203212304418
 30
0.0
 10
10.74698571306415
 20
19.6226088814757
 30
0.0
 10
10.70438047151374
 20
19.72481945513588
 30
0.0
 10
10.65407344121969
 20
19.83134504269599
 30
0.0
 10
10.59335828338934
 20
19.95032657412803
 30
0.0
 10
10.52277452476849
 20
20.08217927825516
 30
0.0
 10
10.44356728171256
 20
20.22840115886041
 30
0.0
 10
10.3628461940048
 20
20.3805624156527
 30
0.0
 10
10.29326539409897
 20
20.5186695030302
 30
0.0
 10
10.2359496573746
 20
20.63996357942139
 30
0.0
 10
10.19009287011767
 20
20.7430820262845
 30
0.0
 10
10.14672540235819
 20
20.84787426258779
 30
0.0
 10
10.10602255014893
 20
20.9548698000755
 30
0.0
 10
10.06843429966202
 20
21.06386520387014
 30
0.0
 10
10.02280913019832
 20
21.21208573390703
 30
0.0
 10
9.980146129883705
 20
21.38337247080452
 30
0.0
 10
9.944412674019548
 20
21.57800062019053
 30
0.0
 10
9.931716629357469
 20
21.69742875071163
 30
0.0
 10
9.925357003891053
 20
21.75725196341164
 30
0.0
  0
LINE
  5
A9
330
1F
100
AcDbEntity
  8
0
  6
Continuous
 62
     7
370
    15
100
AcDbLine
 10
9.9253570039
 20
21.7572519634
 30
0.0
 11
9.9260055325
 21
21.7586404996
 31
0.0
  0
LINE
  5
AA
330
1F
100
AcDbEntity
  8
0
  6
Continuous
 62
     7
370
    15
100
AcDbLine
 10
9.9253570039
 20
22.2825772838
 30
0.0
 11
9.9259949907
 21
22.2839658856
 31
0.0
  0
SPLINE
  5
AB
330
1F
100
AcDbEntity
  8
0
  6
Continuous
 62
     7
370
    15
100
AcDbSpline
210
0.0
220
0.0
230
1.0
 70
     8
 71
     3
 72
    49
 73
    45
 74
     0
 42
0.00000001
 43
0.00000001
 40
0.0
 40
0.0
 40
0.0
 40
0.0
 40
0.0023301665400508
 40
0.0283253460285552
 40
0.0542360862155864
 40
0.0801473804298521
 40
0.1061573690915448
 40
0.1320698719281162
 40
0.1580903708667609
 40
0.1840041592010063
 40
0.2099184785854767
 40
0.2359558195301921
 40
0.2618714579530234
 40
0.2879208992618602
 40
0.3138377627235108
 40
0.3398991213176408
 40
0.3658172655121251
 40
0.3918897082412557
 40
0.4178094077348295
 40
0.443895318271659
 40
0.4698162820202074
 40
0.4959145668706066
 40
0.5211996330463299
 40
0.5466590899011113
 40
0.5712762195082611
 40
0.5960630539293659
 40
0.6200972981961796
 40
0.6442977726007053
 40
0.6677455430752797
 40
0.6913556437417491
 40
0.7143221617715458
 40
0.7374474693708764
 40
0.7599920169615046
 40
0.7826925017422062
 40
0.8058936365831975
 40
0.8292717476725971
 40
0.8516090830679223
 40
0.8741104005536572
 40
0.8955265222955726
 40
0.9170905508320353
 40
0.9381950185706079
 40
0.9594455918837882
 40
0.9802728288022671
 40
1.0
 40
1.0
 40
1.0
 40
1.0
 10
9.025428408519435
 20
19.36111903252286
 30
0.0
 10
9.025205116705614
 20
19.35949921907854
 30
0.0
 10
9.022490796598856
 20
19.33980887698346
 30
0.0
 10
9.021295584778779
 20
19.30321518793011
 30
0.0
 10
9.022419643333068
 20
19.25144180874033
 30
0.0
 10
9.028668406593424
 20
19.20099348266678
 30
0.0
 10
9.039667437940306
 20
19.15174109019695
 30
0.0
 10
9.055729540479119
 20
19.10366542644116
 30
0.0
 10
9.07682758789651
 20
19.05690164144075
 30
0.0
 10
9.103068840093332
 20
19.01140624472799
 30
0.0
 10
9.134441057025434
 20
18.96717443363057
 30
0.0
 10
9.170910146468879
 20
18.92423474621069
 30
0.0
 10
9.21246239507682
 20
18.88252711126655
 30
0.0
 10
9.25884158641012
 20
18.84219526886658
 30
0.0
 10
9.30999498222336
 20
18.80311873398037
 30
0.0
 10
9.365539686231141
 20
18.76544170689145
 30
0.0
 10
9.425368789498059
 20
18.7290387146434
 30
0.0
 10
9.488913094140958
 20
18.69405770586754
 30
0.0
 10
9.556061080779193
 20
18.66037317088601
 30
0.0
 10
9.62608662298165
 20
18.6281207237856
 30
0.0
 10
9.698809564864433
 20
18.59718920616691
 30
0.0
 10
9.772776820208803
 20
18.56794551160009
 30
0.0
 10
9.847702230196273
 20
18.54024823520548
 30
0.0
 10
9.921990602404856
 20
18.51440277812125
 30
0.0
 10
9.99600613669238
 20
18.49004053011686
 30
0.0
 10
10.06827652076852
 20
18.46740725537458
 30
0.0
 10
10.13923088714862
 20
18.44615734167322
 30
0.0
 10
10.20747791662028
 20
18.42651391461281
 30
0.0
 10
10.27340617182599
 20
18.4081916857895
 30
0.0
 10
10.3358100585943
 20
18.39135650134437
 30
0.0
 10
10.39509945473112
 20
18.3757510995735
 30
0.0
 10
10.45025727000064
 20
18.36151964052233
 30
0.0
 10
10.50157090440689
 20
18.34845672186782
 30
0.0
 10
10.54893906230581
 20
18.33649192176434
 30
0.0
 10
10.59235832773783
 20
18.3255272159295
 30
0.0
 10
10.63059223924729
 20
18.31577159585662
 30
0.0
 10
10.66328280762241
 20
18.30724592044411
 30
0.0
 10
10.68980243733075
 20
18.30003587302123
 30
0.0
 10
10.71074862351985
 20
18.29395285666026
 30
0.0
 10
10.7260078993465
 20
18.28900120678537
 30
0.0
 10
10.73588625546673
 20
18.28504388615843
 30
0.0
 10
10.74019330502233
 20
18.28212736123242
 30
0.0
 10
10.73955354384683
 20
18.2801403575992
 30
0.0
 10
10.73474195688622
 20
18.2796205915793
 30
0.0
 10
10.73240142217954
 20
18.27936775807158
 30
0.0
  0
SPLINE
  5
AC
330
1F
100
AcDbEntity
  8
0
  6
Continuous
 62
     7
370
    15
100
AcDbSpline
210
0.0
220
0.0
230
1.0
 70
     8
 71
     3
 72
    51
 73
    47
 74
     0
 42
0.00000001
 43
0.00000001
 40
0.0
 40
0.0
 40
0.0
 40
0.0
 40
0.0183261880526042
 40
0.0393452428018206
 40
0.0605082422196415
 40
0.0821226338635829
 40
0.1038924745729786
 40
0.1251131780600901
 40
0.1464789288624153
 40
0.1676994748186422
 40
0.1890631052149185
 40
0.2102834948636656
 40
0.2316455156943381
 40
0.2534493664490333
 40
0.2754044742605254
 40
0.2971515998240319
 40
0.3190455498673245
 40
0.3407924419954606
 40
0.3626834909511202
 40
0.3844299795530476
 40
0.4063180013966778
 40
0.4286451095207991
 40
0.4511214159726687
 40
0.4737452683374871
 40
0.4965201684517795
 40
0.5191436013080591
 40
0.5419145043034014
 40
0.5651419329423246
 40
0.5885241816552924
 40
0.6120786168393543
 40
0.6357887326232274
 40
0.659342637658684
 40
0.6830472122638976
 40
0.706600353741375
 40
0.7302989132607632
 40
0.7544441359212862
 40
0.7787392882885505
 40
0.8040140714188743
 40
0.829453648020481
 40
0.85472751932077
 40
0.8801591095695736
 40
0.905431914741285
 40
0.9308543806759388
 40
0.9561262575410682
 40
0.9815396403519844
 40
1.0
 40
1.0
 40
1.0
 40
1.0
 10
9.92535700389105
 20
18.41924341494944
 30
0.0
 10
9.941951370329958
 20
18.41491144056103
 30
0.0
 10
9.97757849446549
 20
18.40561094753792
 30
0.0
 10
10.03293196168459
 20
18.39228605593418
 30
0.0
 10
10.0911796486162
 20
18.3789655570449
 30
0.0
 10
10.1496630945037
 20
18.36634665838642
 30
0.0
 10
10.20727323539129
 20
18.35455285669351
 30
0.0
 10
10.26333835530757
 20
18.34364579411922
 30
0.0
 10
10.31723414355548
 20
18.33365520042864
 30
0.0
 10
10.36917040528821
 20
18.32446506054931
 30
0.0
 10
10.41857597817816
 20
18.31612347014692
 30
0.0
 10
10.46532427541638
 20
18.30859046943754
 30
0.0
 10
10.50929896441085
 20
18.30183872473186
 30
0.0
 10
10.55032360301692
 20
18.29586624006028
 30
0.0
 10
10.58777079583676
 20
18.29073084438313
 30
0.0
 10
10.62121699631698
 20
18.28646132153994
 30
0.0
 10
10.65032097976128
 20
18.28307551754007
 30
0.0
 10
10.6750391996651
 20
18.28055234343444
 30
0.0
 10
10.69514628210448
 20
18.27890475349894
 30
0.0
 10
10.7106166441418
 20
18.27812466575557
 30
0.0
 10
10.72138430786806
 20
18.27821460497827
 30
0.0
 10
10.72733611976161
 20
18.27920362977679
 30
0.0
 10
10.72827395158012
 20
18.28112227533414
 30
0.0
 10
10.72408975608535
 20
18.28398247520143
 30
0.0
 10
10.71481825821068
 20
18.28778754796605
 30
0.0
 10
10.70051465785621
 20
18.29253836608423
 30
0.0
 10
10.68121006223881
 20
18.29826320001158
 30
0.0
 10
10.65685887446472
 20
18.30501753352634
 30
0.0
 10
10.62746335252407
 20
18.3128335545376
 30
0.0
 10
10.59329134792788
 20
18.3217039667052
 30
0.0
 10
10.55470817414154
 20
18.33160206661559
 30
0.0
 10
10.51198752113346
 20
18.34252334993225
 30
0.0
 10
10.46566163257433
 20
18.35442739775093
 30
0.0
 10
10.41588126118217
 20
18.36735214294217
 30
0.0
 10
10.36275689827155
 20
18.38136189923356
 30
0.0
 10
10.30637999307612
 20
18.39654442348011
 30
0.0
 10
10.24638809439219
 20
18.41310987126532
 30
0.0
 10
10.18329395341089
 20
18.43106772412397
 30
0.0
 10
10.11774697759746
 20
18.45038760185302
 30
0.0
 10
10.05090877144131
 20
18.47087958985937
 30
0.0
 10
9.983533170051043
 20
18.49244696797198
 30
0.0
 10
9.915818329014877
 20
18.5151768747284
 30
0.0
 10
9.84846590108989
 20
18.53896533459117
 30
0.0
 10
9.781725360537505
 20
18.5639371386703
 30
0.0
 10
9.721870293883455
 20
18.58749999824904
 30
0.0
 10
9.685066331174639
 20
18.60326855031137
 30
0.0
 10
9.669580659107504
 20
18.60990334200874
 30
0.0
  0
LINE
  5
AD
330
1F
100
AcDbEntity
  8
0
  6
Continuous
 62
     7
370
    15
100
AcDbLine
 10
9.9328286138
 20
24.2185618064
 30
0.0
 11
9.9209618749
 21
24.2150273656
 31
0.0
  0
SPLINE
  5
AE
330
1F
100
AcDbEntity
  8
0
  6
Continuous
 62
     7
370
    15
100
AcDbSpline
210
0.0
220
0.0
230
1.0
 70
     8
 71
     3
 72
    17
 73
    13
 74
     0
 42
0.00000001
 43
0.00000001
 40
0.0
 40
0.0
 40
0.0
 40
0.0
 40
0.1249650146893956
 40
0.1979930426340859
 40
0.3380134516194788
 40
0.4746946080167641
 40
0.5428620132213655
 40
0.675119127327345
 40
0.8051739462493839
 40
0.9331221886530874
 40
0.9969317386422754
 40
1.0
 40
1.0
 40
1.0
 40
1.0
 10
10.01586221515195
 20
24.22079417996586
 30
0.0
 10
10.03120557282921
 20
24.22510231836873
 30
0.0
 10
10.05551540129035
 20
24.23192808022371
 30
0.0
 10
10.0939787471069
 20
24.24197196386021
 30
0.0
 10
10.13103408430424
 20
24.25129707761157
 30
0.0
 10
10.16251161452831
 20
24.25890184900762
 30
0.0
 10
10.18887923108294
 20
24.26521300519717
 30
0.0
 10
10.21015428921534
 20
24.27030805909034
 30
0.0
 10
10.22771465155266
 20
24.27470640053425
 30
0.0
 10
10.23417499044824
 20
24.27676003329085
 30
0.0
 10
10.23665459714418
 20
24.2777287717141
 30
0.0
 10
10.23591192114955
 20
24.27776357902339
 30
0.0
 10
10.23587784820354
 20
24.27776517593453
 30
0.0
  0
SPLINE
  5
AF
330
1F
100
AcDbEntity
  8
0
  6
Continuous
 62
     7
370
    15
100
AcDbSpline
210
0.0
220
0.0
230
1.0
 70
     8
 71
     3
 72
    18
 73
    14
 74
     0
 42
0.00000001
 43
0.00000001
 40
0.0
 40
0.0
 40
0.0
 40
0.0
 40
0.1031544383124848
 40
0.1625035894868813
 40
0.2802573471627921
 40
0.397360569542039
 40
0.4557602422581091
 40
0.5724438412187343
 40
0.6891263807635334
 40
0.8058081944585074
 40
0.8639982407399321
 40
0.9316871284224979
 40
1.0
 40
1.0
 40
1.0
 40
1.0
 10
10.23030708132546
 20
24.27780646274355
 30
0.0
 10
10.22727841363672
 20
24.27752051114969
 30
0.0
 10
10.22250722415777
 20
24.27707003939897
 30
0.0
 10
10.20798983240859
 20
24.27508816433984
 30
0.0
 10
10.18846354078872
 20
24.27215649670736
 30
0.0
 10
10.16312830207539
 20
24.26797986231507
 30
0.0
 10
10.13425564817408
 20
24.26293062269539
 30
0.0
 10
10.10196369393089
 20
24.25696241232353
 30
0.0
 10
10.05890412993685
 20
24.24841752496068
 30
0.0
 10
10.02041571497047
 20
24.2401744447765
 30
0.0
 10
9.987573648965995
 20
24.23243480458826
 30
0.0
 10
9.96095343267314
 20
24.22580804377649
 30
0.0
 10
9.942232184813635
 20
24.22098459564321
 30
0.0
 10
9.932828613802826
 20
24.21856180644782
 30
0.0
  0
SPLINE
  5
B0
330
1F
100
AcDbEntity
  8
0
  6
Continuous
 62
     7
370
    15
100
AcDbSpline
210
0.0
220
0.0
230
1.0
 70
     8
 71
     3
 72
    10
 73
     6
 74
     0
 42
0.00000001
 43
0.00000001
 40
0.0
 40
0.0
 40
0.0
 40
0.0
 40
0.346460239811465
 40
0.7876051716968452
 40
1.0
 40
1.0
 40
1.0
 40
1.0
 10
9.93232172842266
 20
24.21940010344272
 30
0.0
 10
9.945475357812231
 20
24.2226493458067
 30
0.0
 10
9.975377393726788
 20
24.23003582135543
 30
0.0
 10
10.01337530278045
 20
24.23889649531835
 30
0.0
 10
10.03669860849622
 20
24.24360663520461
 30
0.0
 10
10.0442784832257
 20
24.24513739035275
 30
0.0
  0
SPLINE
  5
B1
330
1F
100
AcDbEntity
  8
0
  6
Continuous
 62
     7
370
    15
100
AcDbSpline
210
0.0
220
0.0
230
1.0
 70
     8
 71
     3
 72
    35
 73
    31
 74
     0
 42
0.00000001
 43
0.00000001
 40
0.0
 40
0.0
 40
0.0
 40
0.0
 40
0.0095162197905579
 40
0.0525323752384489
 40
0.0952348432718034
 40
0.1391090730662524
 40
0.1830371005755113
 40
0.2281515248381608
 40
0.2737510195187538
 40
0.3205607382639432
 40
0.3683148189526874
 40
0.4160603291121054
 40
0.4649586446400078
 40
0.4910941973268277
 40
0.5173924932519922
 40
0.5441810176807805
 40
0.5711296001892904
 40
0.5994255795505685
 40
0.627892268522709
 40
0.6561860406466998
 40
0.6846337418353525
 40
0.7135352113799115
 40
0.7425822943735768
 40
0.7756419304142625
 40
0.8088921137399947
 40
0.8498753428833025
 40
0.8911665667226304
 40
0.9321425726300507
 40
0.9733690820653187
 40
1.0
 40
1.0
 40
1.0
 40
1.0
 10
10.24719225095056
 20
24.27863011110552
 30
0.0
 10
10.24742482877612
 20
24.27859982944518
 30
0.0
 10
10.24870872783199
 20
24.27843266563655
 30
0.0
 10
10.24241256056751
 20
24.27657674538246
 30
0.0
 10
10.2279448032021
 20
24.27292493872528
 30
0.0
 10
10.204424741836
 20
24.26747522119169
 30
0.0
 10
10.17299721084957
 20
24.26026426864831
 30
0.0
 10
10.13426707179136
 20
24.25121560145514
 30
0.0
 10
10.0888756944878
 20
24.24017982274177
 30
0.0
 10
10.03796799357887
 20
24.22707412321748
 30
0.0
 10
9.98304111089364
 20
24.21186144049853
 30
0.0
 10
9.925616676649224
 20
24.19448805235545
 30
0.0
 10
9.876637759816656
 20
24.17806421750476
 30
0.0
 10
9.83697125251798
 20
24.1634872982715
 30
0.0
 10
9.80654749364491
 20
24.15152671895456
 30
0.0
 10
9.77662243194832
 20
24.13887368077862
 30
0.0
 10
9.746977990553066
 20
24.12532010531192
 30
0.0
 10
9.71799230246268
 20
24.11088043225526
 30
0.0
 10
9.690025097881268
 20
24.09558206155523
 30
0.0
 10
9.663643973458685
 20
24.07963711187929
 30
0.0
 10
9.638904171137664
 20
24.06299477233835
 30
0.0
 10
9.615841647694852
 20
24.04558862374416
 30
0.0
 10
9.593659237003312
 20
24.02660575426792
 30
0.0
 10
9.572838714171613
 20
24.00599464459977
 30
0.0
 10
9.552365564258034
 20
23.9819620253229
 30
0.0
 10
9.533906395832128
 20
23.95507968156307
 30
0.0
 10
9.518329682405025
 20
23.92525674330992
 30
0.0
 10
9.506925126531849
 20
23.89421500926987
 30
0.0
 10
9.49980187600097
 20
23.86602868349082
 30
0.0
 10
9.497894492841604
 20
23.84771359532456
 30
0.0
 10
9.497145932715533
 20
23.84052576594719
 30
0.0
  0
LINE
  5
B2
330
1F
100
AcDbEntity
  8
0
  6
Continuous
 62
     7
370
    15
100
AcDbLine
 10
9.9201668132
 20
24.2156712539
 30
0.0
 11
9.9323217284
 21
24.2194001034
 31
0.0
  0
SPLINE
  5
B3
330
1F
100
AcDbEntity
  8
0
  6
Continuous
 62
     7
370
    15
100
AcDbSpline
210
0.0
220
0.0
230
1.0
 70
     8
 71
     3
 72
     9
 73
     5
 74
     0
 42
0.00000001
 43
0.00000001
 40
0.0
 40
0.0
 40
0.0
 40
0.0
 40
0.3629585696413636
 40
1.0
 40
1.0
 40
1.0
 40
1.0
 10
10.60633691136852
 20
19.88908212209502
 30
0.0
 10
10.60625563848774
 20
19.89510944902344
 30
0.0
 10
10.60603172069773
 20
19.91171555074566
 30
0.0
 10
10.59851246622721
 20
19.93419572967381
 30
0.0
 10
10.59372238960407
 20
19.94851653501291
 30
0.0
  0
SPLINE
  5
B4
330
1F
100
AcDbEntity
  8
0
  6
Continuous
 62
     7
370
    15
100
AcDbSpline
210
0.0
220
0.0
230
1.0
 70
     8
 71
     3
 72
    10
 73
     6
 74
     0
 42
0.00000001
 43
0.00000001
 40
0.0
 40
0.0
 40
0.0
 40
0.0
 40
0.4229317342310072
 40
0.8850091448088412
 40
1.0
 40
1.0
 40
1.0
 40
1.0
 10
10.2957317831895
 20
23.57152285665279
 30
0.0
 10
10.29681698889279
 20
23.58654582216839
 30
0.0
 10
10.2990878446685
 20
23.61798224745253
 30
0.0
 10
10.30014072407782
 20
23.65272611435054
 30
0.0
 10
10.29717367733942
 20
23.67091477922546
 30
0.0
 10
10.29658244184428
 20
23.67453918599467
 30
0.0
  0
LINE
  5
B5
330
1F
100
AcDbEntity
  8
0
  6
Continuous
 62
     7
370
    15
100
AcDbLine
 10
9.9328286138
 20
24.2185618064
 30
0.0
 11
9.9323217273
 21
24.2194001053
 31
0.0
  0
POINT
  5
B6
330
1F
100
AcDbEntity
  8
0
  6
Continuous
 62
     7
370
     0
100
AcDbPoint
 10
10.2479371679
 20
24.278765011
 30
0.0
  0
POINT
  5
B7
330
1F
100
AcDbEntity
  8
0
  6
Continuous
 62
     7
370
     0
100
AcDbPoint
 10
10.7276756455
 20
18.2806387132
 30
0.0
  0
DIMENSION
  5
B8
330
1F
100
AcDbEntity
  8
0
  6
Continuous
 62
     7
370
     0
100
AcDbDimension
  2
*D4
 10
12.5700257541
 20
24.278765011
 30
0.0
 11
12.5700257541
 21
21.0539453712
 31
0.0
 70
   160
 71
     2
 42
-1.0
  3
SLDDIMSTYLE0
100
AcDbAlignedDimension
 13
10.7276756455
 23
18.2806387132
 33
0.0
 14
10.2479371679
 24
24.278765011
 34
0.0
 50
90.0
100
AcDbRotatedDimension
  0
LINE
  5
D7
330
1F
100
AcDbEntity
  8
0
  6
Continuous
 62
     7
370
    15
100
AcDbLine
 10
10.1863739886
 20
12.3927972232
 30
0.0
 11
10.1368361634
 21
12.3940944011
 31
0.0
  0
SPLINE
  5
D8
330
1F
100
AcDbEntity
  8
0
  6
Continuous
 62
     7
370
    15
100
AcDbSpline
210
0.0
220
0.0
230
1.0
 70
     8
 71
     3
 72
    10
 73
     6
 74
     0
 42
0.00000001
 43
0.00000001
 40
0.0
 40
0.0
 40
0.0
 40
0.0
 40
0.5
 40
0.5
 40
1.0
 40
1.0
 40
1.0
 40
1.0
 10
10.18637398851962
 20
12.39279722318724
 30
0.0
 10
10.18834481928865
 20
12.39274561516732
 30
0.0
 10
10.19025930037014
 20
12.3921083675555
 30
0.0
 10
10.19345283023246
 20
12.38987134196708
 30
0.0
 10
10.19471563819776
 20
12.38827420549719
 30
0.0
 10
10.19543157875467
 20
12.38643719780704
 30
0.0
  0
SPLINE
  5
D9
330
1F
100
AcDbEntity
  8
0
  6
Continuous
 62
     7
370
    15
100
AcDbSpline
210
0.0
220
0.0
230
1.0
 70
     8
 71
     3
 72
    12
 73
     8
 74
     0
 42
0.00000001
 43
0.00000001
 40
0.2363817453514793
 40
0.2363817453514793
 40
0.2363817453514793
 40
0.2363817453514793
 40
0.2518218894269461
 40
0.2518218894269461
 40
0.3768218894269462
 40
0.3768218894269462
 40
0.390440144075467
 40
0.390440144075467
 40
0.390440144075467
 40
0.390440144075467
 10
10.21286723345201
 20
12.31673929962179
 30
0.0
 10
10.21257762692243
 20
12.31917034149892
 30
0.0
 10
10.21225692174842
 20
12.32159473488142
 30
0.0
 10
10.20905861201226
 20
12.3435748747719
 30
0.0
 10
10.20419026667028
 20
12.36261464920936
 30
0.0
 10
10.19691941984542
 20
12.38255698300175
 30
0.0
 10
10.19618516565136
 20
12.3845035946075
 30
0.0
 10
10.195431578741
 20
12.38643719780169
 30
0.0
  0
LINE
  5
DA
330
1F
100
AcDbEntity
  8
0
  6
Continuous
 62
     7
370
    15
100
AcDbLine
 10
10.2174059128
 20
12.3167392996
 30
0.0
 11
10.2128672334
 21
12.3167392996
 31
0.0
  0
LINE
  5
DB
330
1F
100
AcDbEntity
  8
0
  6
Continuous
 62
     7
370
    15
100
AcDbLine
 10
10.2015157797
 20
12.1967392996
 30
0.0
 11
10.20704092
 21
12.1967392996
 31
0.0
  0
SPLINE
  5
DC
330
1F
100
AcDbEntity
  8
0
  6
Continuous
 62
     7
370
    15
100
AcDbSpline
210
0.0
220
0.0
230
1.0
 70
     8
 71
     3
 72
    10
 73
     6
 74
     0
 42
0.00000001
 43
0.00000001
 40
0.6446316480300521
 40
0.6446316480300521
 40
0.6446316480300521
 40
0.6446316480300521
 40
0.7138846088074371
 40
0.7138846088074371
 40
0.8192529607773853
 40
0.8192529607773853
 40
0.8192529607773853
 40
0.8192529607773853
 10
10.16667546532259
 20
12.12438498983183
 30
0.0
 10
10.17242252118795
 20
12.13296734199413
 30
0.0
 10
10.17778760486577
 20
12.14198461336101
 30
0.0
 10
10.19013265354823
 20
12.16570397664498
 30
0.0
 10
10.1964899044075
 20
12.18091674840339
 30
0.0
 10
10.20151577971173
 20
12.19673929960617
 30
0.0
  0
SPLINE
  5
DD
330
1F
100
AcDbEntity
  8
0
  6
Continuous
 62
     7
370
    15
100
AcDbSpline
210
0.0
220
0.0
230
1.0
 70
     8
 71
     3
 72
     8
 73
     4
 74
     0
 42
0.00000001
 43
0.00000001
 40
0.0
 40
0.0
 40
0.0
 40
0.0
 40
1.0
 40
1.0
 40
1.0
 40
1.0
 10
10.16667546531203
 20
12.1243849898389
 30
0.0
 10
10.1648889743408
 20
12.121717137813
 30
0.0
 10
10.16183669324714
 20
12.12003884439299
 30
0.0
 10
10.15862713243265
 20
12.11995479908524
 30
0.0
  0
LINE
  5
DE
330
1F
100
AcDbEntity
  8
0
  6
Continuous
 62
     7
370
    15
100
AcDbLine
 10
10.1047839349
 20
12.1185448653
 30
0.0
 11
10.1586271324
 21
12.1199547991
 31
0.0
  0
LINE
  5
DF
330
1F
100
AcDbEntity
  8
0
  6
Continuous
 62
     7
370
    15
100
AcDbLine
 10
10.1047839349
 20
12.1185448653
 30
0.0
 11
10.1047839349
 21
12.1261251612
 31
0.0
  0
SPLINE
  5
E0
330
1F
100
AcDbEntity
  8
0
  6
Continuous
 62
     7
370
    15
100
AcDbSpline
210
0.0
220
0.0
230
1.0
 70
     8
 71
     3
 72
    22
 73
    18
 74
     0
 42
0.00000001
 43
0.00000001
 40
0.0
 40
0.0
 40
0.0
 40
0.0
 40
0.25
 40
0.25
 40
0.3125
 40
0.3125
 40
0.375
 40
0.375
 40
0.5
 40
0.5
 40
0.625
 40
0.625
 40
0.75
 40
0.75
 40
0.875
 40
0.875
 40
1.0
 40
1.0
 40
1.0
 40
1.0
 10
10.13683617191127
 20
12.39409438529404
 30
0.0
 10
10.1482621704516
 20
12.37280562464212
 30
0.0
 10
10.15619457351225
 20
12.35034352135929
 30
0.0
 10
10.16179597329943
 20
12.32081697745947
 30
0.0
 10
10.16269394561492
 20
12.31482522802184
 30
0.0
 10
10.16401630540919
 20
12.30289663911983
 30
0.0
 10
10.1644462217379
 20
12.29693548042986
 30
0.0
 10
10.16505730739832
 20
12.27906120652711
 30
0.0
 10
10.1645663743987
 20
12.26715720451929
 30
0.0
 10
10.161737754898
 20
12.24337424110002
 30
0.0
 10
10.15938761621248
 20
12.23145062139408
 30
0.0
 10
10.15298062428074
 20
12.20843135480188
 30
0.0
 10
10.14891717379164
 20
12.19723666446209
 30
0.0
 10
10.13910313412806
 20
12.17546516813675
 30
0.0
 10
10.13328270895209
 20
12.16482652429217
 30
0.0
 10
10.12015129611501
 20
12.14466879795213
 30
0.0
 10
10.11284900998994
 20
12.13512165799759
 30
0.0
 10
10.10478391029847
 20
12.12612517899494
 30
0.0
  0
SPLINE
  5
E1
330
1F
100
AcDbEntity
  8
0
  6
Continuous
 62
     7
370
    15
100
AcDbSpline
210
0.0
220
0.0
230
1.0
 70
     8
 71
     3
 72
    22
 73
    18
 74
     0
 42
0.00000001
 43
0.00000001
 40
0.0
 40
0.0
 40
0.0
 40
0.0
 40
0.2499999999999998
 40
0.2499999999999998
 40
0.3124999999999998
 40
0.3124999999999998
 40
0.3749999999999998
 40
0.3749999999999998
 40
0.4999999999999998
 40
0.4999999999999998
 40
0.6249999999999998
 40
0.6249999999999998
 40
0.7499999999999998
 40
0.7499999999999998
 40
0.8749999999999999
 40
0.8749999999999999
 40
1.0
 40
1.0
 40
1.0
 40
1.0
 10
10.11666903228846
 20
12.3851923367549
 30
0.0
 10
10.12717813533599
 20
12.36629597285742
 30
0.0
 10
10.13465085968267
 20
12.34632911273937
 30
0.0
 10
10.14026741999486
 20
12.32005749407218
 30
0.0
 10
10.14120062770801
 20
12.31471591679971
 30
0.0
 10
10.14265263724516
 20
12.30406014563202
 30
0.0
 10
10.14317607844119
 20
12.29873198910281
 30
0.0
 10
10.1441533790178
 20
12.28274672629838
 30
0.0
 10
10.14401981322635
 20
12.2720888342939
 30
0.0
 10
10.14215736195918
 20
12.25077091641429
 30
0.0
 10
10.14040250559191
 20
12.24003562919315
 30
0.0
 10
10.13538880897581
 20
12.21920784410859
 30
0.0
 10
10.13212048244184
 20
12.20905997396117
 30
0.0
 10
10.12411162738793
 20
12.18927854738497
 30
0.0
 10
10.11933173243924
 20
12.17959818303921
 30
0.0
 10
10.10834213946625
 20
12.16102947739136
 30
0.0
 10
10.10218482989571
 20
12.15219283473875
 30
0.0
 10
10.09535699082599
 20
12.14380934762138
 30
0.0
  0
LINE
  5
E2
330
1F
100
AcDbEntity
  8
0
  6
Continuous
 62
     7
370
    15
100
AcDbLine
 10
10.1368361549
 20
12.394094417
 30
0.0
 11
10.116669035
 21
12.3851923483
 31
0.0
  0
SPLINE
  5
E3
330
1F
100
AcDbEntity
  8
0
  6
Continuous
 62
     7
370
    15
100
AcDbSpline
210
0.0
220
0.0
230
1.0
 70
     8
 71
     3
 72
    17
 73
    13
 74
     0
 42
0.00000001
 43
0.00000001
 40
-0.0030047878065493
 40
-0.0030047878065493
 40
-0.0030047878065493
 40
-0.0030047878065493
 40
-0.0013766873153182
 40
-0.0013766873153182
 40
-0.0013766873153182
 40
0.0
 40
0.0
 40
0.0
 40
0.0053317348667654
 40
0.0053317348667654
 40
0.0053317348667654
 40
0.0150230828562689
 40
0.0150230828562689
 40
0.0150230828562689
 40
0.0150230828562689
 10
10.0953570031252
 20
12.14380936266578
 30
0.0
 10
10.09564077005993
 20
12.14326484522877
 30
0.0
 10
10.09592453865697
 20
12.14272159066648
 30
0.0
 10
10.09620830883914
 20
12.14217954862458
 30
0.0
 10
10.09644825889854
 20
12.14172120934752
 30
0.0
 10
10.09668821009376
 20
12.14126373707932
 30
0.0
 10
10.09692816238088
 20
12.14080710297452
 30
0.0
 10
10.09785746701899
 20
12.1390386172618
 30
0.0
 10
10.09878678806747
 20
12.13728268163783
 30
0.0
 10
10.09971612328483
 20
12.13553780402352
 30
0.0
 10
10.10140535023183
 20
12.13236618819505
 30
0.0
 10
10.10309462420859
 20
12.12923099290785
 30
0.0
 10
10.10478393496784
 20
12.12612520623395
 30
0.0
  0
LINE
  5
E4
330
1F
100
AcDbEntity
  8
0
  6
Continuous
 62
     7
370
    15
100
AcDbLine
 10
10.0953570031
 20
12.1438093533
 30
0.0
 11
10.0953570031
 21
12.1277281757
 31
0.0
  0
LINE
  5
E5
330
1F
100
AcDbEntity
  8
0
  6
Continuous
 62
     7
370
    15
100
AcDbLine
 10
10.1047839349
 20
12.1185448653
 30
0.0
 11
10.0953570031
 21
12.1277281757
 31
0.0
  0
ARC
  5
E6
330
1F
100
AcDbEntity
  8
0
  6
Continuous
 62
     7
370
    15
100
AcDbCircle
 10
9.9253570031
 20
12.2567392996
 30
0.0
 40
0.2300000000000001
100
AcDbArc
 50
225.1898160373
 51
323.1063766388
  0
LINE
  5
E7
330
1F
100
AcDbEntity
  8
0
  6
Continuous
 62
     7
370
    15
100
AcDbLine
 10
9.7632621294
 20
12.4199117603
 30
0.0
 11
9.7632621294
 21
12.093566839
 31
0.0
  0
ARC
  5
E8
330
1F
100
AcDbEntity
  8
0
  6
Continuous
 62
     7
370
    15
100
AcDbCircle
 10
9.9253570031
 20
12.2567392996
 30
0.0
 40
0.2300000000000005
100
AcDbArc
 50
35.1957070719
 51
134.8101839627
  0
CIRCLE
  5
E9
330
1F
100
AcDbEntity
  8
0
  6
Continuous
 62
     7
370
    15
100
AcDbCircle
 10
9.9253570031
 20
12.2567392996
 30
0.0
 40
0.1020948737255338
  0
SPLINE
  5
EA
330
1F
100
AcDbEntity
  8
0
  6
Continuous
 62
     7
370
    15
100
AcDbSpline
210
0.0
220
0.0
230
1.0
 70
     8
 71
     3
 72
     9
 73
     5
 74
     0
 42
0.00000001
 43
0.00000001
 40
0.0
 40
0.0
 40
0.0
 40
0.0
 40
0.4325947448520199
 40
1.0
 40
1.0
 40
1.0
 40
1.0
 10
10.11802746029818
 20
12.38579197760518
 30
0.0
 10
10.11721573153356
 20
12.38611311038103
 30
0.0
 10
10.11533931307428
 20
12.38685545128939
 30
0.0
 10
10.11404478489764
 20
12.38841803305922
 30
0.0
 10
10.11331026280728
 20
12.38930465016702
 30
0.0
  0
CIRCLE
  5
EB
330
1F
100
AcDbEntity
  8
0
  6
Continuous
 62
     7
370
    15
100
AcDbCircle
 10
9.9253570031
 20
12.2567392996
 30
0.0
 40
0.0999999999999996
  0
CIRCLE
  5
EC
330
1F
100
AcDbEntity
  8
0
  6
Continuous
 62
     7
370
    15
100
AcDbCircle
 10
9.9253570039
 20
12.2567392996
 30
0.0
 40
0.0839999999999979
  0
CIRCLE
  5
ED
330
1F
100
AcDbEntity
  8
0
  6
Continuous
 62
     7
370
    15
100
AcDbCircle
 10
9.9253570039
 20
12.2567392996
 30
0.0
 40
0.0679999999999996
  0
CIRCLE
  5
EE
330
1F
100
AcDbEntity
  8
0
  6
Continuous
 62
     7
370
    15
100
AcDbCircle
 10
9.9253570039
 20
12.2567392996
 30
0.0
 40
0.0980000000000008
  0
LINE
  5
EF
330
1F
100
AcDbEntity
  8
0
  6
Continuous
 62
     7
370
    15
100
AcDbLine
 10
9.6643400184
 20
12.120681376
 30
0.0
 11
9.7138778436
 21
12.1193841981
 31
0.0
  0
SPLINE
  5
F0
330
1F
100
AcDbEntity
  8
0
  6
Continuous
 62
     7
370
    15
100
AcDbSpline
210
0.0
220
0.0
230
1.0
 70
     8
 71
     3
 72
    10
 73
     6
 74
     0
 42
0.00000001
 43
0.00000001
 40
0.0
 40
0.0
 40
0.0
 40
0.0
 40
0.3735869820495485
 40
0.747193831119766
 40
1.0
 40
1.0
 40
1.0
 40
1.0
 10
9.6643400184785
 20
12.12068137603456
 30
0.0
 10
9.66322391333524
 20
12.12082638457294
 30
0.0
 10
9.660991643695251
 20
12.12111640936114
 30
0.0
 10
9.65827027572264
 20
12.12265862902624
 30
0.0
 10
9.657135357728947
 20
12.12416817875259
 30
0.0
 10
9.656677330418281
 20
12.12477739898288
 30
0.0
  0
SPLINE
  5
F1
330
1F
100
AcDbEntity
  8
0
  6
Continuous
 62
     7
370
    15
100
AcDbSpline
210
0.0
220
0.0
230
1.0
 70
     8
 71
     3
 72
    12
 73
     8
 74
     0
 42
0.00000001
 43
0.00000001
 40
0.2363817453514794
 40
0.2363817453514794
 40
0.2363817453514794
 40
0.2363817453514794
 40
0.2518218894269461
 40
0.2518218894269461
 40
0.3768218894269463
 40
0.3768218894269463
 40
0.3904401440754669
 40
0.3904401440754669
 40
0.3904401440754669
 40
0.3904401440754669
 10
9.637846773546105
 20
12.19673929960001
 30
0.0
 10
9.638136380075688
 20
12.19430825772289
 30
0.0
 10
9.638457085249703
 20
12.19188386434039
 30
0.0
 10
9.641655394985857
 20
12.16990372444991
 30
0.0
 10
9.64652374032784
 20
12.15086395001245
 30
0.0
 10
9.653794587152701
 20
12.13092161622006
 30
0.0
 10
9.654528841346762
 20
12.1289750046143
 30
0.0
 10
9.655282428257117
 20
12.12704140142011
 30
0.0
  0
LINE
  5
F2
330
1F
100
AcDbEntity
  8
0
  6
Continuous
 62
     7
370
    15
100
AcDbLine
 10
9.6491982273
 20
12.3167392996
 30
0.0
 11
9.6484040137
 21
12.3167392996
 31
0.0
  0
SPLINE
  5
F3
330
1F
100
AcDbEntity
  8
0
  6
Continuous
 62
     7
370
    15
100
AcDbSpline
210
0.0
220
0.0
230
1.0
 70
     8
 71
     3
 72
    10
 73
     6
 74
     0
 42
0.00000001
 43
0.00000001
 40
0.6446316480300518
 40
0.6446316480300518
 40
0.6446316480300518
 40
0.6446316480300518
 40
0.7138846088074366
 40
0.7138846088074366
 40
0.8192529607773852
 40
0.8192529607773852
 40
0.8192529607773852
 40
0.8192529607773852
 10
9.684038541675534
 20
12.38909360938997
 30
0.0
 10
9.678291485810172
 20
12.38051125722767
 30
0.0
 10
9.672926402132346
 20
12.37149398586079
 30
0.0
 10
9.660581353449894
 20
12.34777462257683
 30
0.0
 10
9.65422410259062
 20
12.33256185081841
 30
0.0
 10
9.64919822728639
 20
12.31673929961564
 30
0.0
  0
SPLINE
  5
F4
330
1F
100
AcDbEntity
  8
0
  6
Continuous
 62
     7
370
    15
100
AcDbSpline
210
0.0
220
0.0
230
1.0
 70
     8
 71
     3
 72
     8
 73
     4
 74
     0
 42
0.00000001
 43
0.00000001
 40
0.0
 40
0.0
 40
0.0
 40
0.0
 40
1.0
 40
1.0
 40
1.0
 40
1.0
 10
9.68403854168609
 20
12.3890936093829
 30
0.0
 10
9.685825032657315
 20
12.39176146140881
 30
0.0
 10
9.688877313750973
 20
12.39343975482881
 30
0.0
 10
9.692086874565474
 20
12.39352380013656
 30
0.0
  0
LINE
  5
F5
330
1F
100
AcDbEntity
  8
0
  6
Continuous
 62
     7
370
    15
100
AcDbLine
 10
9.7459300721
 20
12.3949337339
 30
0.0
 11
9.6920868746
 21
12.3935238001
 31
0.0
  0
LINE
  5
F6
330
1F
100
AcDbEntity
  8
0
  6
Continuous
 62
     7
370
    15
100
AcDbLine
 10
9.7459300721
 20
12.3949337339
 30
0.0
 11
9.7459300721
 21
12.387353438
 31
0.0
  0
SPLINE
  5
F7
330
1F
100
AcDbEntity
  8
0
  6
Continuous
 62
     7
370
    15
100
AcDbSpline
210
0.0
220
0.0
230
1.0
 70
     8
 71
     3
 72
    22
 73
    18
 74
     0
 42
0.00000001
 43
0.00000001
 40
0.0
 40
0.0
 40
0.0
 40
0.0
 40
0.2500000000000001
 40
0.2500000000000001
 40
0.3125000000000001
 40
0.3125000000000001
 40
0.3750000000000001
 40
0.3750000000000001
 40
0.5
 40
0.5
 40
0.6249999999999999
 40
0.6249999999999999
 40
0.7499999999999999
 40
0.7499999999999999
 40
0.875
 40
0.875
 40
1.0
 40
1.0
 40
1.0
 40
1.0
 10
9.713877835086846
 20
12.11938421392776
 30
0.0
 10
9.702451836546523
 20
12.14067297457968
 30
0.0
 10
9.694519433485867
 20
12.16313507786251
 30
0.0
 10
9.688918033698691
 20
12.19266162176233
 30
0.0
 10
9.688020061383202
 20
12.19865337119996
 30
0.0
 10
9.686697701588926
 20
12.21058196010197
 30
0.0
 10
9.686267785260224
 20
12.21654311879194
 30
0.0
 10
9.6856566995998
 20
12.2344173926947
 30
0.0
 10
9.686147632599422
 20
12.24632139470251
 30
0.0
 10
9.688976252100122
 20
12.27010435812178
 30
0.0
 10
9.691326390785635
 20
12.28202797782772
 30
0.0
 10
9.69773338271738
 20
12.30504724441992
 30
0.0
 10
9.701796833206478
 20
12.31624193475971
 30
0.0
 10
9.711610872870056
 20
12.33801343108506
 30
0.0
 10
9.717431298046028
 20
12.34865207492964
 30
0.0
 10
9.73056271088311
 20
12.36880980126967
 30
0.0
 10
9.737864997008176
 20
12.37835694122422
 30
0.0
 10
9.745930096699652
 20
12.38735342022687
 30
0.0
  0
SPLINE
  5
F8
330
1F
100
AcDbEntity
  8
0
  6
Continuous
 62
     7
370
    15
100
AcDbSpline
210
0.0
220
0.0
230
1.0
 70
     8
 71
     3
 72
    22
 73
    18
 74
     0
 42
0.00000001
 43
0.00000001
 40
0.0
 40
0.0
 40
0.0
 40
0.0
 40
0.2499999999999998
 40
0.2499999999999998
 40
0.3124999999999998
 40
0.3124999999999998
 40
0.3749999999999999
 40
0.3749999999999999
 40
0.5
 40
0.5
 40
0.6250000000000001
 40
0.6250000000000001
 40
0.7500000000000001
 40
0.7500000000000001
 40
0.8750000000000001
 40
0.8750000000000001
 40
1.0
 40
1.0
 40
1.0
 40
1.0
 10
9.734044974709656
 20
12.1282862624669
 30
0.0
 10
9.723535871662127
 20
12.14718262636438
 30
0.0
 10
9.716063147315447
 20
12.16714948648243
 30
0.0
 10
9.71044658700326
 20
12.19342110514962
 30
0.0
 10
9.709513379290112
 20
12.19876268242209
 30
0.0
 10
9.708061369752958
 20
12.20941845358978
 30
0.0
 10
9.707537928556933
 20
12.21474661011899
 30
0.0
 10
9.706560627980318
 20
12.23073187292342
 30
0.0
 10
9.706694193771773
 20
12.2413897649279
 30
0.0
 10
9.708556645038941
 20
12.26270768280751
 30
0.0
 10
9.71031150140621
 20
12.27344297002865
 30
0.0
 10
9.715325198022304
 20
12.29427075511321
 30
0.0
 10
9.718593524556278
 20
12.30441862526063
 30
0.0
 10
9.726602379610185
 20
12.32420005183683
 30
0.0
 10
9.731382274558879
 20
12.33388041618259
 30
0.0
 10
9.742371867531867
 20
12.35244912183044
 30
0.0
 10
9.748529177102412
 20
12.36128576448306
 30
0.0
 10
9.755357016172132
 20
12.36966925160043
 30
0.0
  0
LINE
  5
F9
330
1F
100
AcDbEntity
  8
0
  6
Continuous
 62
     7
370
    15
100
AcDbLine
 10
9.7138778521
 20
12.1193841823
 30
0.0
 11
9.734044972
 21
12.1282862509
 31
0.0
  0
SPLINE
  5
FA
330
1F
100
AcDbEntity
  8
0
  6
Continuous
 62
     7
370
    15
100
AcDbSpline
210
0.0
220
0.0
230
1.0
 70
     8
 71
     3
 72
    17
 73
    13
 74
     0
 42
0.00000001
 43
0.00000001
 40
-0.0030047878065492
 40
-0.0030047878065492
 40
-0.0030047878065492
 40
-0.0030047878065492
 40
-0.0013766873153181
 40
-0.0013766873153181
 40
-0.0013766873153181
 40
0.0
 40
0.0
 40
0.0
 40
0.0053317348667641
 40
0.0053317348667641
 40
0.0053317348667641
 40
0.0150230828562691
 40
0.0150230828562691
 40
0.0150230828562691
 40
0.0150230828562691
 10
9.75535700387292
 20
12.36966923655602
 30
0.0
 10
9.755073236938191
 20
12.37021375399303
 30
0.0
 10
9.75478946834115
 20
12.37075700855533
 30
0.0
 10
9.754505698158978
 20
12.37129905059723
 30
0.0
 10
9.754265748099582
 20
12.37175738987429
 30
0.0
 10
9.754025796904358
 20
12.37221486214249
 30
0.0
 10
9.753785844617235
 20
12.37267149624729
 30
0.0
 10
9.75285653997913
 20
12.37443998196
 30
0.0
 10
9.751927218930645
 20
12.37619591758397
 30
0.0
 10
9.750997883713286
 20
12.37794079519829
 30
0.0
 10
9.749308656766285
 20
12.38111241102676
 30
0.0
 10
9.74761938278953
 20
12.38424760631395
 30
0.0
 10
9.745930072030276
 20
12.38735339298785
 30
0.0
  0
LINE
  5
FB
330
1F
100
AcDbEntity
  8
0
  6
Continuous
 62
     7
370
    15
100
AcDbLine
 10
9.7553570039
 20
12.369669246
 30
0.0
 11
9.7553570039
 21
12.3857504235
 31
0.0
  0
LINE
  5
FC
330
1F
100
AcDbEntity
  8
0
  6
Continuous
 62
     7
370
    15
100
AcDbLine
 10
9.7459300721
 20
12.3949337339
 30
0.0
 11
9.7553570039
 21
12.3857504235
 31
0.0
  0
LWPOLYLINE
  5
FD
330
1F
100
AcDbEntity
  8
0
  6
Continuous
 62
     7
370
    15
100
AcDbPolyline
 90
        3
 70
   128
 43
0.0
 10
9.7632621294
 20
12.4199117603
 10
9.75851237
 20
12.4150518643
 10
9.7414141643
 20
12.3948154807
  0
LWPOLYLINE
  5
FE
330
1F
100
AcDbEntity
  8
0
  6
Continuous
 62
     7
370
    15
100
AcDbPolyline
 90
        3
 70
   128
 43
0.0
 10
9.7374037442
 20
12.1241739491
 10
9.75851237
 20
12.0984267349
 10
9.7632621294
 20
12.093566839
  0
SPLINE
  5
FF
330
1F
100
AcDbEntity
  8
0
  6
Continuous
 62
     7
370
    15
100
AcDbSpline
210
0.0
220
0.0
230
1.0
 70
     8
 71
     3
 72
     9
 73
     5
 74
     0
 42
0.00000001
 43
0.00000001
 40
0.0
 40
0.0
 40
0.0
 40
0.0
 40
0.4325947448519307
 40
1.0
 40
1.0
 40
1.0
 40
1.0
 10
9.73268654669994
 20
12.12768662161662
 30
0.0
 10
9.733498275464564
 20
12.12736548884078
 30
0.0
 10
9.735374693923838
 20
12.12662314793241
 30
0.0
 10
9.73666922210048
 20
12.12506056616258
 30
0.0
 10
9.737403744190843
 20
12.12417394905478
 30
0.0
  0
LINE
  5
100
330
1F
100
AcDbEntity
  8
0
  6
Continuous
 62
     7
370
    15
100
AcDbLine
 10
10.1342434817
 20
12.1193162907
 30
0.0
 11
10.1148125076
 21
12.0956824502
 31
0.0
  0
SPLINE
  5
101
330
1F
100
AcDbEntity
  8
0
  6
Continuous
 62
     7
370
    15
100
AcDbSpline
210
0.0
220
0.0
230
1.0
 70
     8
 71
     3
 72
    14
 73
    10
 74
     0
 42
0.00000001
 43
0.00000001
 40
0.0
 40
0.0
 40
0.0
 40
0.0
 40
0.119601312504432
 40
0.2693450954679976
 40
0.4234077209762644
 40
0.5743748541884129
 40
0.728989427493993
 40
0.8910938133887629
 40
1.0
 40
1.0
 40
1.0
 40
1.0
 10
9.917885393979278
 20
12.54132758518328
 30
0.0
 10
9.930787500715478
 20
12.5405160172557
 30
0.0
 10
9.959843362209233
 20
12.53868834633508
 30
0.0
 10
10.00346371648815
 20
12.52758142358063
 30
0.0
 10
10.04673147515481
 20
12.50902545282649
 30
0.0
 10
10.08567448401382
 20
12.48402470247076
 30
0.0
 10
10.11932435732384
 20
12.45366112960107
 30
0.0
 10
10.14502199480395
 20
12.42284762294251
 30
0.0
 10
10.15636738638413
 20
12.40188675133538
 30
0.0
 10
10.16092655660832
 20
12.39346357959831
 30
0.0
  0
SPLINE
  5
102
330
1F
100
AcDbEntity
  8
0
  6
Continuous
 62
     7
370
    15
100
AcDbSpline
210
0.0
220
0.0
230
1.0
 70
     8
 71
     3
 72
    19
 73
    15
 74
     0
 42
0.00000001
 43
0.00000001
 40
0.0
 40
0.0
 40
0.0
 40
0.0
 40
0.0003907483475601
 40
0.098640247988929
 40
0.1970004788154663
 40
0.349748246737322
 40
0.503113437097234
 40
0.5809425637278449
 40
0.6589045363263256
 40
0.7373276423366053
 40
0.8159399239171063
 40
0.9031821802574101
 40
0.990432736286204
 40
1.0
 40
1.0
 40
1.0
 40
1.0
 10
10.06007407209946
 20
12.78821505537389
 30
0.0
 10
10.06010386154255
 20
12.78819511168358
 30
0.0
 10
10.06762388836332
 20
12.7831605400199
 30
0.0
 10
10.08516092581269
 20
12.77062146730395
 30
0.0
 10
10.11606610312243
 20
12.74755162724174
 30
0.0
 10
10.15438478642239
 20
12.71584025876295
 30
0.0
 10
10.19162597258562
 20
12.67955887463938
 30
0.0
 10
10.22126226253702
 20
12.64577511693863
 30
0.0
 10
10.24316754253035
 20
12.61771504790611
 30
0.0
 10
10.26421033901889
 20
12.58691348446342
 30
0.0
 10
10.28477428137505
 20
12.55214827143762
 30
0.0
 10
10.30358546973875
 20
12.51264364619434
 30
0.0
 10
10.31626384595165
 20
12.48237947111926
 30
0.0
 10
10.32095902059377
 20
12.4648707713418
 30
0.0
 10
10.32142298450147
 20
12.46314061104174
 30
0.0
  0
SPLINE
  5
103
330
1F
100
AcDbEntity
  8
0
  6
Continuous
 62
     7
370
    15
100
AcDbSpline
210
0.0
220
0.0
230
1.0
 70
     8
 71
     3
 72
    15
 73
    11
 74
     0
 42
0.00000001
 43
0.00000001
 40
0.0
 40
0.0
 40
0.0
 40
0.0
 40
0.0173020014912023
 40
0.1302469789483686
 40
0.2439702749475017
 40
0.4630815250985043
 40
0.5723616731052305
 40
0.7818901438654574
 40
0.9864217110075747
 40
1.0
 40
1.0
 40
1.0
 40
1.0
 10
9.904649367423755
 20
11.91140107132727
 30
0.0
 10
9.903161440500257
 20
11.91156502621816
 30
0.0
 10
9.89196054060554
 20
11.9127992550577
 30
0.0
 10
9.871151345731825
 20
11.91753564237391
 30
0.0
 10
9.83366040057818
 20
11.92825287291801
 30
0.0
 10
9.797736965478057
 20
11.94397097948312
 30
0.0
 10
9.75667050522399
 20
11.96835246971414
 30
0.0
 10
9.719943260138
 20
11.99738916768756
 30
0.0
 10
9.693052785428941
 20
12.02516642680126
 30
0.0
 10
9.681719218648581
 20
12.04121192918234
 30
0.0
 10
9.681013654728702
 20
12.04221083162637
 30
0.0
  0
SPLINE
  5
104
330
1F
100
AcDbEntity
  8
0
  6
Continuous
 62
     7
370
    15
100
AcDbSpline
210
0.0
220
0.0
230
1.0
 70
     8
 71
     3
 72
    11
 73
     7
 74
     0
 42
0.00000001
 43
0.00000001
 40
0.0
 40
0.0
 40
0.0
 40
0.0
 40
0.0809215144501985
 40
0.3563256153661738
 40
0.6766862001311712
 40
1.0
 40
1.0
 40
1.0
 40
1.0
 10
9.831550471060286
 20
12.52966462272579
 30
0.0
 10
9.833786941911187
 20
12.53048659657141
 30
0.0
 10
9.843634902093472
 20
12.53410603373033
 30
0.0
 10
9.863205947224955
 20
12.53750242079649
 30
0.0
 10
9.889742973288222
 20
12.54126779186854
 30
0.0
 10
9.90847593777603
 20
12.54130759320809
 30
0.0
 10
9.917885393979274
 20
12.54132758518328
 30
0.0
  0
SPLINE
  5
105
330
1F
100
AcDbEntity
  8
0
  6
Continuous
 62
     7
370
    15
100
AcDbSpline
210
0.0
220
0.0
230
1.0
 70
     8
 71
     3
 72
    94
 73
    90
 74
     0
 42
0.00000001
 43
0.00000001
 40
0.0
 40
0.0
 40
0.0
 40
0.0
 40
0.0063086101089895
 40
0.0189402441737249
 40
0.0317268882958281
 40
0.0411819047190915
 40
0.0507025007678201
 40
0.0604302370127206
 40
0.0702302856778578
 40
0.079669419705396
 40
0.089175062315181
 40
0.0985175049848437
 40
0.107924700980904
 40
0.1175367225250875
 40
0.1272196918184926
 40
0.1365574190380217
 40
0.145960423661094
 40
0.1555688123224287
 40
0.1652483391614139
 40
0.1745631975933657
 40
0.1839424642628656
 40
0.193257310540964
 40
0.2026361630916236
 40
0.2119510045915803
 40
0.2213296368656137
 40
0.2309083089174008
 40
0.2405558700521319
 40
0.2499600745636307
 40
0.259428558500029
 40
0.2688326931998622
 40
0.2783002374533634
 40
0.2877043028836973
 40
0.297171133839257
 40
0.3068337669258505
 40
0.3165634313574127
 40
0.3262009260078927
 40
0.335903487654669
 40
0.3455408788555172
 40
0.3552421548511641
 40
0.3648793672246234
 40
0.3745793017199464
 40
0.38447382246838
 40
0.394434462211774
 40
0.4044604886630615
 40
0.4145534537023142
 40
0.4245792942434552
 40
0.4346704879124002
 40
0.4449639962934653
 40
0.4553261150125281
 40
0.4657645401928384
 40
0.476271957063268
 40
0.486710147301984
 40
0.4972151085338727
 40
0.5076529603928834
 40
0.5181552559686927
 40
0.5288554955725846
 40
0.5396221782906455
 40
0.5508229959113105
 40
0.5620968436983432
 40
0.5732972572307963
 40
0.5845675657715873
 40
0.5957675068366133
 40
0.6070337718301986
 40
0.6182333015052367
 40
0.6294955412056321
 40
0.6409490585975575
 40
0.652466245356295
 40
0.6651191039260134
 40
0.6778526845874767
 40
0.6908311154184638
 40
0.7038904481202831
 40
0.7173699375980127
 40
0.7309333795965013
 40
0.7447501493429903
 40
0.7586502137381625
 40
0.7732288683395495
 40
0.7878966521080786
 40
0.8028298971945509
 40
0.8178492742286053
 40
0.8338668316708902
 40
0.8498836434969318
 40
0.8659896689136987
 40
0.8823567066144393
 40
0.8988069466730755
 40
0.9202024835842367
 40
0.9417568893194423
 40
0.9637658108854588
 40
0.9859161025889953
 40
1.0
 40
1.0
 40
1.0
 40
1.0
 10
10.45834949787116
 20
12.12439032396672
 30
0.0
 10
10.46243419784688
 20
12.13504621126754
 30
0.0
 10
10.47469763045404
 20
12.16703821963046
 30
0.0
 10
10.48939296417664
 20
12.22325473918817
 30
0.0
 10
10.49814721331131
 20
12.28720948043783
 30
0.0
 10
10.49965680251574
 20
12.3464852865791
 30
0.0
 10
10.49603969053582
 20
12.40036556053262
 30
0.0
 10
10.48724676474244
 20
12.45472975996514
 30
0.0
 10
10.47328409730157
 20
12.50826318865869
 30
0.0
 10
10.4544573291493
 20
12.5602367838876
 30
0.0
 10
10.43121009061948
 20
12.60981851939253
 30
0.0
 10
10.40345862637752
 20
12.65735264273036
 30
0.0
 10
10.37128850144281
 20
12.70268170395372
 30
0.0
 10
10.33451557835663
 20
12.74568947437491
 30
0.0
 10
10.29387422484962
 20
12.78532886119416
 30
0.0
 10
10.24995831559824
 20
12.82112000952371
 30
0.0
 10
10.20297320151995
 20
12.8530205254853
 30
0.0
 10
10.1525259328641
 20
12.8811494692355
 30
0.0
 10
10.09968471009667
 20
12.90471042764214
 30
0.0
 10
10.04520509874136
 20
12.92352536153049
 30
0.0
 10
9.989808611997798
 20
12.9375078494632
 30
0.0
 10
9.933078469688166
 20
12.94679028585939
 30
0.0
 10
9.875688260438743
 20
12.95127910953489
 30
0.0
 10
9.817793572875246
 20
12.95092327796362
 30
0.0
 10
9.759531188614142
 20
12.94568447551702
 30
0.0
 10
9.701051777970173
 20
12.93541975691695
 30
0.0
 10
9.643440546559885
 20
12.92015045088081
 30
0.0
 10
9.587375712799858
 20
12.90014974667562
 30
0.0
 10
9.533479848141937
 20
12.87574318636433
 30
0.0
 10
9.481543606824498
 20
12.84685910571136
 30
0.0
 10
9.432138028449252
 20
12.81385451817355
 30
0.0
 10
9.385389732676314
 20
12.77679382134918
 30
0.0
 10
9.341415043285885
 20
12.73573040030977
 30
0.0
 10
9.300390404788432
 20
12.69065993481084
 30
0.0
 10
9.262943211939161
 20
12.64201884367043
 30
0.0
 10
9.22949701146678
 20
12.59036810383976
 30
0.0
 10
9.200393028020375
 20
12.53631049801831
 30
0.0
 10
9.17567480811712
 20
12.47992094131971
 30
0.0
 10
9.155567725677585
 20
12.42184290712629
 30
0.0
 10
9.14009736364031
 20
12.36220804611795
 30
0.0
 10
9.12932969991404
 20
12.30112626771399
 30
0.0
 10
9.123377888020489
 20
12.23870549364727
 30
0.0
 10
9.122440056201983
 20
12.17533721849492
 30
0.0
 10
9.126624251696748
 20
12.11171397177312
 30
0.0
 10
9.135895749571418
 20
12.04854076024264
 30
0.0
 10
9.150199349925895
 20
11.98623794921904
 30
0.0
 10
9.169503945543282
 20
11.92493548192227
 30
0.0
 10
9.193855133317404
 20
11.86478805900572
 30
0.0
 10
9.223250655257937
 20
11.80624050969589
 30
0.0
 10
9.257422659854566
 20
11.74996823245273
 30
0.0
 10
9.296005833639276
 20
11.69660279295011
 30
0.0
 10
9.338726486653409
 20
11.64651604258702
 30
0.0
 10
9.38505237518988
 20
11.60019714843852
 30
0.0
 10
9.434832746666391
 20
11.55770026255151
 30
0.0
 10
9.487957109258785
 20
11.51912509858494
 30
0.0
 10
9.544334015667674
 20
11.48460079181902
 30
0.0
 10
9.604325909716707
 20
11.45409615412629
 30
0.0
 10
9.66742006873249
 20
11.42818302767557
 30
0.0
 10
9.73296697641928
 20
11.40731136498649
 30
0.0
 10
9.799805436004364
 20
11.39185919361984
 30
0.0
 10
9.867180089232198
 20
11.38191133361419
 30
0.0
 10
9.934898459197827
 20
11.37736335727933
 30
0.0
 10
10.00223768567755
 20
11.37818667995128
 30
0.0
 10
10.06902736696379
 20
11.38427183397075
 30
0.0
 10
10.13508966460116
 20
11.39551141526857
 30
0.0
 10
10.20024573601158
 20
11.41192837483882
 30
0.0
 10
10.26602791258132
 20
11.43411307933248
 30
0.0
 10
10.33157369598042
 20
11.46235333415111
 30
0.0
 10
10.39639630847762
 20
11.49710935339401
 30
0.0
 10
10.45810524179301
 20
11.53731405658492
 30
0.0
 10
10.51669217645349
 20
11.58305584835685
 30
0.0
 10
10.57133245351198
 20
11.63391316130489
 30
0.0
 10
10.62172564889008
 20
11.68972677138805
 30
0.0
 10
10.66698313169606
 20
11.74961949650194
 30
0.0
 10
10.70729871648674
 20
11.81397232704318
 30
0.0
 10
10.74198804519526
 20
11.88205773030854
 30
0.0
 10
10.77064998172768
 20
11.95361997453932
 30
0.0
 10
10.79264926425677
 20
12.02703040581887
 30
0.0
 10
10.80817902235199
 20
12.1030950236439
 30
0.0
 10
10.81668791877777
 20
12.18066032565859
 30
0.0
 10
10.81795099525738
 20
12.25889704758474
 30
0.0
 10
10.81206110120917
 20
12.33583831020278
 30
0.0
 10
10.79931539181143
 20
12.41088302063305
 30
0.0
 10
10.77819138941054
 20
12.49045878854491
 30
0.0
 10
10.74697803746946
 20
12.57237578219076
 30
0.0
 10
10.70440934992937
 20
12.65456899336915
 30
0.0
 10
10.65396293266371
 20
12.72874133954153
 30
0.0
 10
10.60485950826873
 20
12.78825175265897
 30
0.0
 10
10.57136845060853
 20
12.81773311194236
 30
0.0
 10
10.5583507832673
 20
12.82919224625254
 30
0.0
  0
SPLINE
  5
106
330
1F
100
AcDbEntity
  8
0
  6
Continuous
 62
     7
370
    15
100
AcDbSpline
210
0.0
220
0.0
230
1.0
 70
     8
 71
     3
 72
    32
 73
    28
 74
     0
 42
0.00000001
 43
0.00000001
 40
0.0
 40
0.0
 40
0.0
 40
0.0
 40
0.0624999999999997
 40
0.0624999999999997
 40
0.1249999999999999
 40
0.1249999999999999
 40
0.1875000000000001
 40
0.1875000000000001
 40
0.2500000000000002
 40
0.2500000000000002
 40
0.5000000000000001
 40
0.5000000000000001
 40
0.5624999999999999
 40
0.5624999999999999
 40
0.6249999999999998
 40
0.6249999999999998
 40
0.7499999999999998
 40
0.7499999999999998
 40
0.8124999999999999
 40
0.8124999999999999
 40
0.8750000000000001
 40
0.8750000000000001
 40
0.9375000000000002
 40
0.9375000000000002
 40
0.9687500000000001
 40
0.9687500000000001
 40
1.0
 40
1.0
 40
1.0
 40
1.0
 10
10.098464393719
 20
11.83105958857657
 30
0.0
 10
10.10236787413267
 20
11.83123256696937
 30
0.0
 10
10.10634240571674
 20
11.8314657694588
 30
0.0
 10
10.11554349982932
 20
11.83245451071221
 30
0.0
 10
10.12060462479411
 20
11.83316400856801
 30
0.0
 10
10.13148629186134
 20
11.83504869469029
 30
0.0
 10
10.13734017263561
 20
11.83623503587861
 30
0.0
 10
10.1498302484153
 20
11.83918568810258
 30
0.0
 10
10.15648323195627
 20
11.84095520571843
 30
0.0
 10
10.19136604082475
 20
11.85144108145695
 30
0.0
 10
10.22438060269797
 20
11.86497174993276
 30
0.0
 10
10.2687610419269
 20
11.89209004917522
 30
0.0
 10
10.27778953723139
 20
11.89802784987135
 30
0.0
 10
10.29605053100621
 20
11.9110490542147
 30
0.0
 10
10.3053077556829
 20
11.91815759235775
 30
0.0
 10
10.33280808287958
 20
11.94102690284104
 30
0.0
 10
10.35089422744809
 20
11.95839141428267
 30
0.0
 10
10.37693581712888
 20
11.98793522497421
 30
0.0
 10
10.38543280619787
 20
11.99836712081032
 30
0.0
 10
10.40193357811585
 20
12.02046119497557
 30
0.0
 10
10.40995764161121
 20
12.0321542982596
 30
0.0
 10
10.42528820906255
 20
12.05671549015675
 30
0.0
 10
10.43255429172297
 20
12.06951290529047
 30
0.0
 10
10.44276267377366
 20
12.08948585927467
 30
0.0
 10
10.44605140945812
 20
12.09627620629382
 30
0.0
 10
10.45239281649596
 20
12.11014965555785
 30
0.0
 10
10.45544369140873
 20
12.11723077007449
 30
0.0
 10
10.45834949787116
 20
12.12439032396672
 30
0.0
  0
SPLINE
  5
107
330
1F
100
AcDbEntity
  8
0
  6
Continuous
 62
     7
370
    15
100
AcDbSpline
210
0.0
220
0.0
230
1.0
 70
     8
 71
     3
 72
    32
 73
    28
 74
     0
 42
0.00000001
 43
0.00000001
 40
0.0
 40
0.0
 40
0.0
 40
0.0
 40
0.0312499999999998
 40
0.0312499999999998
 40
0.0624999999999996
 40
0.0624999999999996
 40
0.1249999999999999
 40
0.1249999999999999
 40
0.2499999999999998
 40
0.2499999999999998
 40
0.3749999999999996
 40
0.3749999999999996
 40
0.4999999999999994
 40
0.4999999999999994
 40
0.6249999999999992
 40
0.6249999999999992
 40
0.6874999999999993
 40
0.6874999999999993
 40
0.7499999999999994
 40
0.7499999999999994
 40
0.8749999999999996
 40
0.8749999999999996
 40
0.9374999999999997
 40
0.9374999999999997
 40
0.9687499999999999
 40
0.9687499999999999
 40
1.0
 40
1.0
 40
1.0
 40
1.0
 10
9.951784215169965
 20
11.94467031318821
 30
0.0
 10
9.948880078411726
 20
11.94338520032324
 30
0.0
 10
9.945941463045878
 20
11.94214832633487
 30
0.0
 10
9.940329824980212
 20
11.93974580863879
 30
0.0
 10
9.93768727520869
 20
11.93857690009603
 30
0.0
 10
9.930308861886793
 20
11.93511890867049
 30
0.0
 10
9.925984622235084
 20
11.93288775436435
 30
0.0
 10
9.914665280609526
 20
11.9261978182134
 30
0.0
 10
9.909458465189536
 20
11.92170426136251
 30
0.0
 10
9.903562532524884
 20
11.91195994379329
 30
0.0
 10
9.902885584028365
 20
11.90671047455653
 30
0.0
 10
9.90605981566444
 20
11.89541241158299
 30
0.0
 10
9.909909139946425
 20
11.88936534136836
 30
0.0
 10
9.922188779205978
 20
11.87689839081793
 30
0.0
 10
9.930621865549574
 20
11.8704813042809
 30
0.0
 10
9.946767195074388
 20
11.86119218962659
 30
0.0
 10
9.952733409894673
 20
11.85815443429012
 30
0.0
 10
9.965806041109396
 20
11.85233857073021
 30
0.0
 10
9.972914346689715
 20
11.84955927919479
 30
0.0
 10
9.995938945274657
 20
11.8418302621987
 30
0.0
 10
10.01355415931014
 20
11.83748697443635
 30
0.0
 10
10.04314006328031
 20
11.83316310879178
 30
0.0
 10
10.05353294414756
 20
11.83208944606912
 30
0.0
 10
10.069839473645
 20
11.83115632173974
 30
0.0
 10
10.0753941952227
 20
11.83095792887124
 30
0.0
 10
10.08675821203121
 20
11.83081590161792
 30
0.0
 10
10.09258911574365
 20
11.83087909830737
 30
0.0
 10
10.098464393719
 20
11.83105958857657
 30
0.0
  0
SPLINE
  5
108
330
1F
100
AcDbEntity
  8
0
  6
Continuous
 62
     7
370
    15
100
AcDbSpline
210
0.0
220
0.0
230
1.0
 70
     8
 71
     3
 72
    16
 73
    12
 74
     0
 42
0.00000001
 43
0.00000001
 40
0.0
 40
0.0
 40
0.0
 40
0.0
 40
0.125000000000001
 40
0.125000000000001
 40
0.2500000000000019
 40
0.2500000000000019
 40
0.5000000000000019
 40
0.5000000000000019
 40
0.7500000000000009
 40
0.7500000000000009
 40
1.0
 40
1.0
 40
1.0
 40
1.0
 10
10.11481250756525
 20
12.09568245018485
 30
0.0
 10
10.11012734466072
 20
12.085723544981
 30
0.0
 10
10.10490512586484
 20
12.07624195975494
 30
0.0
 10
10.09372662634305
 20
12.05832049183008
 30
0.0
 10
10.08775443918684
 20
12.04986313350901
 30
0.0
 10
10.06897756133273
 20
12.02594568950435
 30
0.0
 10
10.05532210938705
 20
12.01194775673083
 30
0.0
 10
10.02688343641018
 20
11.9873862664052
 30
0.0
 10
10.0120946267347
 20
11.97683123760026
 30
0.0
 10
9.98212120123818
 20
11.95865990812171
 30
0.0
 10
9.966959062932025
 20
11.9510453643355
 30
0.0
 10
9.951784215169965
 20
11.94467031318821
 30
0.0
  0
SPLINE
  5
109
330
1F
100
AcDbEntity
  8
0
  6
Continuous
 62
     7
370
    15
100
AcDbSpline
210
0.0
220
0.0
230
1.0
 70
     8
 71
     3
 72
    38
 73
    34
 74
     0
 42
0.00000001
 43
0.00000001
 40
0.0
 40
0.0
 40
0.0
 40
0.0
 40
0.0312499999999997
 40
0.0312499999999997
 40
0.0624999999999994
 40
0.0624999999999994
 40
0.1249999999999987
 40
0.1249999999999987
 40
0.1874999999999979
 40
0.1874999999999979
 40
0.2499999999999972
 40
0.2499999999999972
 40
0.3749999999999958
 40
0.3749999999999958
 40
0.4374999999999954
 40
0.4374999999999954
 40
0.4687499999999956
 40
0.4687499999999956
 40
0.4999999999999958
 40
0.4999999999999958
 40
0.6249999999999974
 40
0.6249999999999974
 40
0.6874999999999978
 40
0.6874999999999978
 40
0.7499999999999982
 40
0.7499999999999982
 40
0.8749999999999999
 40
0.8749999999999999
 40
0.9375
 40
0.9375
 40
0.96875
 40
0.96875
 40
1.0
 40
1.0
 40
1.0
 40
1.0
 10
10.03126567726595
 20
12.80990694498985
 30
0.0
 10
10.03971747814268
 20
12.80704674548202
 30
0.0
 10
10.04807682641952
 20
12.80399120326101
 30
0.0
 10
10.06440654061974
 20
12.79755249070107
 30
0.0
 10
10.07239078003036
 20
12.7941687467972
 30
0.0
 10
10.09576789298578
 20
12.78359226029706
 30
0.0
 10
10.11061621361495
 20
12.77596020346182
 30
0.0
 10
10.13884552819248
 20
12.75975292778361
 30
0.0
 10
10.15222834688108
 20
12.75117950244235
 30
0.0
 10
10.17756970856744
 20
12.73329091731203
 30
0.0
 10
10.18942440844493
 20
12.72404636609616
 30
0.0
 10
10.22250165789156
 20
12.69589736406677
 30
0.0
 10
10.24132933872903
 20
12.67651706786953
 30
0.0
 10
10.2654064573369
 20
12.64768133549004
 30
0.0
 10
10.2727329268015
 20
12.63810920099121
 30
0.0
 10
10.2827463577149
 20
12.62394168514046
 30
0.0
 10
10.28592529670969
 20
12.61924436193404
 30
0.0
 10
10.29193139032434
 20
12.60999477428829
 30
0.0
 10
10.29476322394802
 20
12.6054366174086
 30
0.0
 10
10.30811912590215
 20
12.58302440855764
 30
0.0
 10
10.31624410945811
 20
12.56631764239141
 30
0.0
 10
10.32548513376244
 20
12.54379214809474
 30
0.0
 10
10.32807040027083
 20
12.53670667887696
 30
0.0
 10
10.33237287274572
 20
12.52348166858882
 30
0.0
 10
10.33409265679498
 20
12.5173278765832
 30
0.0
 10
10.33806598774657
 20
12.50059654565277
 30
0.0
 10
10.33917541531444
 20
12.4916990588012
 30
0.0
 10
10.33909628789523
 20
12.48196857749966
 30
0.0
 10
10.33878040064882
 20
12.47931561932194
 30
0.0
 10
10.33790443532651
 20
12.47624915041267
 30
0.0
 10
10.33753719417605
 20
12.47539773306135
 30
0.0
 10
10.33664596592351
 20
12.47406150812559
 30
0.0
 10
10.33613042431233
 20
12.47355694958697
 30
0.0
 10
10.33561555309649
 20
12.47305078172723
 30
0.0
  0
SPLINE
  5
10A
330
1F
100
AcDbEntity
  8
0
  6
Continuous
 62
     7
370
    15
100
AcDbSpline
210
0.0
220
0.0
230
1.0
 70
     8
 71
     3
 72
    30
 73
    26
 74
     0
 42
0.00000001
 43
0.00000001
 40
0.0
 40
0.0
 40
0.0
 40
0.0
 40
0.0625000000000001
 40
0.0625000000000001
 40
0.1250000000000002
 40
0.1250000000000002
 40
0.2500000000000003
 40
0.2500000000000003
 40
0.3750000000000003
 40
0.3750000000000003
 40
0.5000000000000004
 40
0.5000000000000004
 40
0.5625000000000004
 40
0.5625000000000004
 40
0.6250000000000004
 40
0.6250000000000004
 40
0.75
 40
0.75
 40
0.8125
 40
0.8125
 40
0.875
 40
0.875
 40
0.9375
 40
0.9375
 40
1.0
 40
1.0
 40
1.0
 40
1.0
 10
9.365839310368823
 20
12.58459247552391
 30
0.0
 10
9.375730539578042
 20
12.59834572592094
 30
0.0
 10
9.386170362792189
 20
12.61171029585915
 30
0.0
 10
9.40796056412217
 20
12.63737045859129
 30
0.0
 10
9.419291261432026
 20
12.6496633160843
 30
0.0
 10
9.454549084094808
 20
12.68498784002466
 30
0.0
 10
9.479767326752775
 20
12.70649353390423
 30
0.0
 10
9.533384579196863
 20
12.74518893547156
 30
0.0
 10
9.561176807885182
 20
12.76196525135674
 30
0.0
 10
9.61849969374193
 20
12.79070097908063
 30
0.0
 10
9.648036591513693
 20
12.80264738297436
 30
0.0
 10
9.69355187263176
 20
12.81694596636277
 30
0.0
 10
9.708797183317577
 20
12.82106267612747
 30
0.0
 10
9.739204423054147
 20
12.82799489621147
 30
0.0
 10
9.75439994355876
 20
12.83081943660441
 30
0.0
 10
9.799927415300456
 20
12.83744548939997
 30
0.0
 10
9.830199075824462
 20
12.83941202228306
 30
0.0
 10
9.87534453414816
 20
12.83879949005876
 30
0.0
 10
9.890320072330123
 20
12.83799286715911
 30
0.0
 10
9.91972412354219
 20
12.83525732082949
 30
0.0
 10
9.934208263048662
 20
12.83332882320861
 30
0.0
 10
9.96273680119333
 20
12.82840984074651
 30
0.0
 10
9.976784979164385
 20
12.82541822411923
 30
0.0
 10
10.0043637933406
 20
12.81841972962164
 30
0.0
 10
10.01788403481659
 20
12.81441752777207
 30
0.0
 10
10.03126567726595
 20
12.80990694498985
 30
0.0
  0
SPLINE
  5
10B
330
1F
100
AcDbEntity
  8
0
  6
Continuous
 62
     7
370
    15
100
AcDbSpline
210
0.0
220
0.0
230
1.0
 70
     8
 71
     3
 72
    20
 73
    16
 74
     0
 42
0.00000001
 43
0.00000001
 40
0.0
 40
0.0
 40
0.0
 40
0.0
 40
0.0496437891074213
 40
0.1003812777729804
 40
0.1514191018348638
 40
0.2025793071237422
 40
0.3055392465892931
 40
0.4100543863389962
 40
0.5149373210519865
 40
0.6087123875340917
 40
0.7026748682945283
 40
0.7971644038817604
 40
0.891816733120002
 40
0.9882729567670564
 40
1.0
 40
1.0
 40
1.0
 40
1.0
 10
9.578733886633927
 20
12.08484992808891
 30
0.0
 10
9.58305333966082
 20
12.07046506437726
 30
0.0
 10
9.591787407344126
 20
12.04137842482118
 30
0.0
 10
9.6084655931684
 20
12.0032788339278
 30
0.0
 10
9.62657869125179
 20
11.96865941521962
 30
0.0
 10
9.651977283280983
 20
11.92753929841823
 30
0.0
 10
9.684166442295073
 20
11.88442984563899
 30
0.0
 10
9.719616753885129
 20
11.843404746258
 30
0.0
 10
9.748504390297311
 20
11.81151254252343
 30
0.0
 10
9.770246294824643
 20
11.78598803464205
 30
0.0
 10
9.78508752671203
 20
11.76495203588344
 30
0.0
 10
9.793710052458419
 20
11.74656287299654
 30
0.0
 10
9.795502506469129
 20
11.73041471770159
 30
0.0
 10
9.794022879784418
 20
11.71977891012203
 30
0.0
 10
9.79014314313495
 20
11.71513422683817
 30
0.0
 10
9.789722580503287
 20
11.71463074415324
 30
0.0
  0
SPLINE
  5
10C
330
1F
100
AcDbEntity
  8
0
  6
Continuous
 62
     7
370
    15
100
AcDbSpline
210
0.0
220
0.0
230
1.0
 70
     8
 71
     3
 72
    24
 73
    20
 74
     0
 42
0.00000001
 43
0.00000001
 40
0.0
 40
0.0
 40
0.0
 40
0.0
 40
0.0694822774125404
 40
0.1596698839383067
 40
0.2505073316292551
 40
0.3012867876176797
 40
0.3522712727934038
 40
0.4040106999838687
 40
0.4560763610812942
 40
0.5386609943682157
 40
0.5809150675991933
 40
0.6234959629269599
 40
0.6649056335520995
 40
0.7063102420529943
 40
0.7491544650791193
 40
0.7924689204570262
 40
0.8629183168462431
 40
0.9304625830982624
 40
1.0
 40
1.0
 40
1.0
 40
1.0
 10
9.546616831983435
 20
11.72317267401334
 30
0.0
 10
9.53589820823175
 20
11.72871760703594
 30
0.0
 10
9.511266870944855
 20
11.74145983203395
 30
0.0
 10
9.469426344603315
 20
11.77060640739089
 30
0.0
 10
9.429545419656128
 20
11.80525095822678
 30
0.0
 10
9.396299088686247
 20
11.84067281188282
 30
0.0
 10
9.370175751367658
 20
11.87291384240251
 30
0.0
 10
9.344697952790721
 20
11.90984519817082
 30
0.0
 10
9.315872948611826
 20
11.95996440962007
 30
0.0
 10
9.291860376408726
 20
12.01483135111289
 30
0.0
 10
9.274002613642644
 20
12.0728172301068
 30
0.0
 10
9.263551637509167
 20
12.11947502616936
 30
0.0
 10
9.256656740141372
 20
12.16838204764456
 30
0.0
 10
9.253622629290712
 20
12.21948222454896
 30
0.0
 10
9.25502433263084
 20
12.27299482391579
 30
0.0
 10
9.262681208818638
 20
12.33993003932389
 30
0.0
 10
9.281424104970874
 20
12.417907042831
 30
0.0
 10
9.315627624675939
 20
12.50518227845431
 30
0.0
 10
9.348940626169602
 20
12.55786706640929
 30
0.0
 10
9.365839310368825
 20
12.58459247552391
 30
0.0
  0
LINE
  5
10D
330
1F
100
AcDbEntity
  8
0
  6
Continuous
 62
     7
370
    15
100
AcDbLine
 10
10.2236312959
 20
12.3949168123
 30
0.0
 11
10.2225224246
 21
12.3947127151
 31
0.0
  0
SPLINE
  5
10E
330
1F
100
AcDbEntity
  8
0
  6
Continuous
 62
     7
370
    15
100
AcDbSpline
210
0.0
220
0.0
230
1.0
 70
     8
 71
     3
 72
    18
 73
    14
 74
     0
 42
0.00000001
 43
0.00000001
 40
0.0
 40
0.0
 40
0.0
 40
0.0
 40
0.1088030685999735
 40
0.2188805255764903
 40
0.2989249305138664
 40
0.3789636175152283
 40
0.4613844770525833
 40
0.5437859786796373
 40
0.6534114682117822
 40
0.7657138320495358
 40
0.854191761701084
 40
0.9450354144085105
 40
1.0
 40
1.0
 40
1.0
 40
1.0
 10
10.22117687873671
 20
12.39446505600436
 30
0.0
 10
10.21900231154502
 20
12.39563278538885
 30
0.0
 10
10.21462770689512
 20
12.39798192153637
 30
0.0
 10
10.20473263409318
 20
12.41041498028958
 30
0.0
 10
10.19264140033549
 20
12.42634314839565
 30
0.0
 10
10.17860115195363
 20
12.44407315659667
 30
0.0
 10
10.16048088688817
 20
12.46477341047122
 30
0.0
 10
10.13484723300818
 20
12.48993168257233
 30
0.0
 10
10.09846470855766
 20
12.51857883354111
 30
0.0
 10
10.05105548896203
 20
12.54515192007928
 30
0.0
 10
9.997891828472564
 20
12.56351364803928
 30
0.0
 10
9.950280675817515
 20
12.57321557732965
 30
0.0
 10
9.918023709990091
 20
12.57222403989077
 30
0.0
 10
9.905863966618742
 20
12.57185026509545
 30
0.0
  0
SPLINE
  5
10F
330
1F
100
AcDbEntity
  8
0
  6
Continuous
 62
     7
370
    15
100
AcDbSpline
210
0.0
220
0.0
230
1.0
 70
     8
 71
     3
 72
    20
 73
    16
 74
     0
 42
0.00000001
 43
0.00000001
 40
0.0
 40
0.0
 40
0.0
 40
0.0
 40
0.0020000927014801
 40
0.0020000927014801
 40
0.0020000927014801
 40
0.0100004635097754
 40
0.0100004635097754
 40
0.0100004635097754
 40
0.0420019468410245
 40
0.0420019468410245
 40
0.0420019468410245
 40
0.0750539966310642
 40
0.0750539966310642
 40
0.0750539966310642
 40
0.1081060465931353
 40
0.1081060465931353
 40
0.1081060465931353
 40
0.1081060465931353
 10
10.22363129594657
 20
12.39491681227466
 30
0.0
 10
10.22432413569404
 20
12.39539916974152
 30
0.0
 10
10.225016912288
 20
12.39588152971016
 30
0.0
 10
10.22570962734873
 20
12.3963638913118
 30
0.0
 10
10.22848048759209
 20
12.39829333771861
 30
0.0
 10
10.23125036384742
 20
12.40022281043086
 30
0.0
 10
10.23401935532361
 20
12.40215225239995
 30
0.0
 10
10.24509532124526
 20
12.4098700202881
 30
0.0
 10
10.25615722915612
 20
12.41758733323117
 30
0.0
 10
10.26721053040509
 20
12.42530022079284
 30
0.0
 10
10.27862669694896
 20
12.43326631227581
 30
0.0
 10
10.29003421024319
 20
12.44122632313735
 30
0.0
 10
10.3014347404313
 20
12.44918352433734
 30
0.0
 10
10.31283527068135
 20
12.45714072558056
 30
0.0
 10
10.32422869579709
 20
12.46509533925061
 30
0.0
 10
10.3356155530965
 20
12.47305078172723
 30
0.0
  0
LWPOLYLINE
  5
110
330
1F
100
AcDbEntity
  8
0
  6
Continuous
 62
     7
370
    15
100
AcDbPolyline
 90
       91
 70
   128
 43
0.0
 10
10.5046602713
 20
12.890470457
 10
10.5347649474
 20
12.8673905404
 10
10.5704427547
 20
12.8363845547
 10
10.6383872628
 20
12.7650037413
 10
10.6699826132
 20
12.7247425926
 10
10.7270027162
 20
12.6352096235
 10
10.7517324128
 20
12.5862516374
 10
10.7735564796
 20
12.5346571244
 10
10.8073250184
 20
12.4241710891
 10
10.8186500985
 20
12.3658956547
 10
10.8259413301
 20
12.3059099925
 10
10.8289453335
 20
12.2443185228
 10
10.8274413949
 20
12.1818654869
 10
10.8212643562
 20
12.1187147211
 10
10.8101890005
 20
12.0550174697
 10
10.7941670271
 20
11.9916764631
 10
10.7729962705
 20
11.9286229091
 10
10.7467925021
 20
11.8668350862
 10
10.7154765263
 20
11.8065198226
 10
10.678907078
 20
11.7478802061
 10
10.6375112119
 20
11.691954623
 10
10.5910090283
 20
11.638688024
 10
10.5400709901
 20
11.5890977169
 10
10.484373527
 20
11.5431485711
 10
10.4248293572
 20
11.501794957
 10
10.3610957953
 20
11.4649990967
 10
10.2942972416
 20
11.4336313896
 10
10.2240541723
 20
11.407688033
 10
10.1517370527
 20
11.3878440024
 10
10.0769176136
 20
11.3741568038
 10
10.0030468746
 20
11.3671554232
 10
9.9278553307
 20
11.3665295954
 10
9.8549317887
 20
11.3721917826
 10
9.7818530018
 20
11.3841877094
 10
9.71187957
 20
11.4018962475
 10
9.6428497734
 20
11.4257228134
 10
9.577855575
 20
11.454469641
 10
9.514815836
 20
11.488944063
 10
9.4562873583
 20
11.527619685
 10
9.400611797
 20
11.5714846862
 10
9.3499170121
 20
11.6187554364
 10
9.3028547978
 20
11.6705616683
 10
9.2592979526
 20
11.7275411081
 10
9.2204478057
 20
11.7886802881
 10
9.188388309
 20
11.8501822528
 10
9.1614039661
 20
11.914759984
 10
9.1408852628
 20
11.978238964
 10
9.1255074027
 20
12.0437134921
 10
9.1157586489
 20
12.108876628
 10
9.1113345349
 20
12.1751245638
 10
9.1123301733
 20
12.2402253326
 10
9.1186899728
 20
12.3054975695
 10
9.130740552
 20
12.3714344677
 10
9.1484912525
 20
12.4365862243
 10
9.1706951611
 20
12.497394648
 10
9.1980736895
 20
12.556529939
 10
9.2291999546
 20
12.611316133
 10
9.2649244834
 20
12.6636796477
 10
9.3040759708
 20
12.7120166216
 10
9.3473156113
 20
12.7572190456
 10
9.3951391932
 20
12.7994825988
 10
9.4466980194
 20
12.8377117268
 10
9.4990659963
 20
12.8700588588
 10
9.5542338595
 20
12.8980400779
 10
9.6101710675
 20
12.9207611453
 10
9.6680580776
 20
12.9388322192
 10
9.7261703483
 20
12.9517597264
 10
9.7854008086
 20
12.9598098104
 10
9.8444051681
 20
12.9628402544
 10
9.9036702507
 20
12.9608892866
 10
9.9636208891
 20
12.9537173504
 10
10.0229260022
 20
12.9412789437
 10
10.0785413604
 20
12.9244575433
 10
10.1326640718
 20
12.9028670968
 10
10.1839043292
 20
12.8771020816
 10
10.2328518615
 20
12.8469477724
 10
10.2782944198
 20
12.8132076062
 10
10.32070852
 20
12.7755622402
 10
10.3592099534
 20
12.7348571807
 10
10.3940572733
 20
12.6908806347
 10
10.424510931
 20
12.6445841376
 10
10.4507752281
 20
12.5957263319
 10
10.4723058817
 20
12.5453823957
 10
10.4892660315
 20
12.493294705
 10
10.5013168524
 20
12.4406063329
 10
10.5085730932
 20
12.3870527771
 10
10.5109313564
 20
12.3338092586
 10
10.5084288426
 20
12.2806092599
 10
10.4948963909
 20
12.199169011
 10
10.469598915
 20
12.1202790633
 10
10.4695989151
 20
12.1202790637
  0
LINE
  5
111
330
1F
100
AcDbEntity
  8
0
  6
Continuous
 62
     7
370
    15
100
AcDbLine
 10
10.4583494979
 20
12.124390324
 30
0.0
 11
10.469598915
 21
12.1202790633
 31
0.0
  0
LINE
  5
112
330
1F
100
AcDbEntity
  8
0
  6
Continuous
 62
     7
370
    15
100
AcDbLine
 10
10.1016532344
 20
11.8195159104
 30
0.0
 11
10.0984643937
 21
11.8310595886
 31
0.0
  0
SPLINE
  5
113
330
1F
100
AcDbEntity
  8
0
  6
Continuous
 62
     7
370
    15
100
AcDbSpline
210
0.0
220
0.0
230
1.0
 70
     8
 71
     3
 72
    36
 73
    32
 74
     0
 42
0.00000001
 43
0.00000001
 40
0.0
 40
0.0
 40
0.0
 40
0.0
 40
0.0312499999999998
 40
0.0312499999999998
 40
0.0624999999999995
 40
0.0624999999999995
 40
0.1249999999999993
 40
0.1249999999999993
 40
0.1874999999999992
 40
0.1874999999999992
 40
0.249999999999999
 40
0.249999999999999
 40
0.3124999999999988
 40
0.3124999999999988
 40
0.3749999999999987
 40
0.3749999999999987
 40
0.4374999999999985
 40
0.4374999999999985
 40
0.4999999999999983
 40
0.4999999999999983
 40
0.6249999999999984
 40
0.6249999999999984
 40
0.7499999999999986
 40
0.7499999999999986
 40
0.8124999999999988
 40
0.8124999999999988
 40
0.8749999999999991
 40
0.8749999999999991
 40
0.9374999999999993
 40
0.9374999999999993
 40
1.0
 40
1.0
 40
1.0
 40
1.0
 10
10.46959891513835
 20
12.12027906371254
 30
0.0
 10
10.46667339554187
 20
12.11306100469583
 30
0.0
 10
10.46360034164638
 20
12.1059139275615
 30
0.0
 10
10.45720380531686
 20
12.09188136916554
 30
0.0
 10
10.45387935558194
 20
12.08499362846528
 30
0.0
 10
10.44359527312539
 20
12.06478538983368
 30
0.0
 10
10.43630754213474
 20
12.05187700282092
 30
0.0
 10
10.42099546501004
 20
12.02715829379461
 30
0.0
 10
10.41297324514628
 20
12.0153527110062
 30
0.0
 10
10.39630183988573
 20
11.99282031725152
 30
0.0
 10
10.38763148550645
 20
11.98207315540934
 30
0.0
 10
10.36988373448411
 20
11.96175861117121
 30
0.0
 10
10.36081870619637
 20
11.95220019320694
 30
0.0
 10
10.34243091656633
 20
11.93421949792502
 30
0.0
 10
10.33311984662892
 20
11.92581091071473
 30
0.0
 10
10.3144817519525
 20
11.91017012806267
 30
0.0
 10
10.30514146327159
 20
11.90292498979825
 30
0.0
 10
10.28652942828469
 20
11.88950966906707
 30
0.0
 10
10.27724042715863
 20
11.88333072593293
 30
0.0
 10
10.2498004326918
 20
11.86638730547306
 30
0.0
 10
10.23207160805634
 20
11.8571952591437
 30
0.0
 10
10.19849267221815
 20
11.84221583121925
 30
0.0
 10
10.18272518694315
 20
11.83647233649182
 30
0.0
 10
10.16125140981054
 20
11.82993180857384
 30
0.0
 10
10.15445161430831
 20
11.82809576190282
 30
0.0
 10
10.14162059400836
 20
11.82501312308664
 30
0.0
 10
10.13558322307217
 20
11.82376575502373
 30
0.0
 10
10.12438278500152
 20
11.82178129367608
 30
0.0
 10
10.11918134710436
 20
11.82103130104137
 30
0.0
 10
10.109737035945
 20
11.81997432851116
 30
0.0
 10
10.105661155551
 20
11.81971431993489
 30
0.0
 10
10.10165323443808
 20
11.81951591042214
 30
0.0
  0
SPLINE
  5
114
330
1F
100
AcDbEntity
  8
0
  6
Continuous
 62
     7
370
    15
100
AcDbSpline
210
0.0
220
0.0
230
1.0
 70
     8
 71
     3
 72
    20
 73
    16
 74
     0
 42
0.00000001
 43
0.00000001
 40
0.0
 40
0.0
 40
0.0
 40
0.0
 40
0.0493214139930243
 40
0.1697310338568791
 40
0.2299236070002447
 40
0.3503401218406826
 40
0.4707607349369533
 40
0.530954919061382
 40
0.6513919648481798
 40
0.7115901113388446
 40
0.7717908076387511
 40
0.8321099040249964
 40
0.8923200888747653
 40
0.952538088826364
 40
1.0
 40
1.0
 40
1.0
 40
1.0
 10
9.79073276701298
 20
11.7158859028917
 30
0.0
 10
9.790990056693536
 20
11.71826231591028
 30
0.0
 10
9.791875474201795
 20
11.72644032634951
 30
0.0
 10
9.788291100507765
 20
11.73904533439787
 30
0.0
 10
9.778569593078268
 20
11.75746101210266
 30
0.0
 10
9.763179573400212
 20
11.77830569192332
 30
0.0
 10
9.740726470516476
 20
11.80348024451331
 30
0.0
 10
9.713558257002198
 20
11.83329115909565
 30
0.0
 10
9.688418447142874
 20
11.8615349827524
 30
0.0
 10
9.6610911960611
 20
11.8958211715851
 30
0.0
 10
9.640003110326443
 20
11.92508084798514
 30
0.0
 10
9.618881708463258
 20
11.95831266740312
 30
0.0
 10
9.598691494597823
 20
11.99626856804974
 30
0.0
 10
9.581176777765396
 20
12.03556037105284
 30
0.0
 10
9.572578423452525
 20
12.06495386147862
 30
0.0
 10
9.568788539857964
 20
12.07790958569024
 30
0.0
  0
SPLINE
  5
115
330
1F
100
AcDbEntity
  8
0
  6
Continuous
 62
     7
370
    15
100
AcDbSpline
210
0.0
220
0.0
230
1.0
 70
     8
 71
     3
 72
    19
 73
    15
 74
     0
 42
0.00000001
 43
0.00000001
 40
0.0
 40
0.0
 40
0.0
 40
0.0
 40
0.0210589222997297
 40
0.1052999955683573
 40
0.1895403755307414
 40
0.3580475381342106
 40
0.4422872149421488
 40
0.5265267254571807
 40
0.6107661674635025
 40
0.6950055466222556
 40
0.7792449190180105
 40
0.8634842887571748
 40
0.9477236771098457
 40
0.9999999999999999
 40
0.9999999999999999
 40
0.9999999999999999
 40
0.9999999999999999
 10
10.1016532344263
 20
11.81951591042029
 30
0.0
 10
10.09885150288683
 20
11.81943014705747
 30
0.0
 10
10.08484212887938
 20
11.8190013083165
 30
0.0
 10
10.06079176096796
 20
11.81966991053932
 30
0.0
 10
10.02150030477607
 20
11.82390421820479
 30
0.0
 10
9.987831931124424
 20
11.83202267286476
 30
0.0
 10
9.960247260374608
 20
11.84233855591133
 30
0.0
 10
9.942637617996084
 20
11.85079930502551
 30
0.0
 10
9.928135488738448
 20
11.85964154771096
 30
0.0
 10
9.916747874381647
 20
11.86856635532826
 30
0.0
 10
9.908423108809352
 20
11.87733293315044
 30
0.0
 10
9.903310642452382
 20
11.88571951998998
 30
0.0
 10
9.901101941488482
 20
11.89269385393983
 30
0.0
 10
9.901875229500165
 20
11.89662661586799
 30
0.0
 10
9.902171346726657
 20
11.89813259880969
 30
0.0
  0
SPLINE
  5
116
330
1F
100
AcDbEntity
  8
0
  6
Continuous
 62
     7
370
    15
100
AcDbSpline
210
0.0
220
0.0
230
1.0
 70
     8
 71
     3
 72
    17
 73
    13
 74
     0
 42
0.00000001
 43
0.00000001
 40
0.0
 40
0.0
 40
0.0
 40
0.0
 40
0.0058505894953153
 40
0.0823903847322237
 40
0.1653134033008016
 40
0.2500279352083943
 40
0.3698706737419027
 40
0.4895937262716862
 40
0.6119017585514562
 40
0.7516735770981079
 40
0.8865223237303396
 40
1.0
 40
1.0
 40
1.0
 40
1.0
 10
9.929687381985648
 20
12.58449904972483
 30
0.0
 10
9.930993952772788
 20
12.58452576263576
 30
0.0
 10
9.949393614878357
 20
12.58490194473008
 30
0.0
 10
9.984039413167213
 20
12.57852772988133
 30
0.0
 10
10.03180788892311
 20
12.56556609588655
 30
0.0
 10
10.08118469443155
 20
12.54309924765886
 30
0.0
 10
10.12716686598525
 20
12.51269554103974
 30
0.0
 10
10.16572617300928
 20
12.47730832838545
 30
0.0
 10
10.19481645940252
 20
12.44336319590814
 30
0.0
 10
10.2147483454103
 20
12.41644465698061
 30
0.0
 10
10.2275312374475
 20
12.39997888289292
 30
0.0
 10
10.23163429950602
 20
12.39969289083446
 30
0.0
 10
10.23350927496192
 20
12.39956220110017
 30
0.0
  0
LWPOLYLINE
  5
117
330
1F
100
AcDbEntity
  8
0
  6
Continuous
 62
     7
370
    15
100
AcDbPolyline
 90
       91
 70
   128
 43
0.0
 10
9.3460537365
 20
11.6230081422
 10
9.3159490604
 20
11.6460880589
 10
9.2802712531
 20
11.6770940445
 10
9.212326745
 20
11.7484748579
 10
9.1807313946
 20
11.7887360066
 10
9.1237112916
 20
11.8782689757
 10
9.098981595
 20
11.9272269618
 10
9.0771575282
 20
11.9788214749
 10
9.0433889894
 20
12.0893075101
 10
9.0320639093
 20
12.1475829445
 10
9.0247726777
 20
12.2075686067
 10
9.0217686743
 20
12.2691600764
 10
9.0232726128
 20
12.3316131123
 10
9.0294496515
 20
12.3947638781
 10
9.0405250073
 20
12.4584611295
 10
9.0565469807
 20
12.5218021361
 10
9.0777177373
 20
12.5848556901
 10
9.1039215057
 20
12.646643513
 10
9.1352374815
 20
12.7069587766
 10
9.1718069298
 20
12.7655983931
 10
9.2132027959
 20
12.8215239762
 10
9.2597049795
 20
12.8747905752
 10
9.3106430177
 20
12.9243808823
 10
9.3663404808
 20
12.9703300281
 10
9.4258846506
 20
13.0116836423
 10
9.4896182124
 20
13.0484795025
 10
9.5564167662
 20
13.0798472097
 10
9.6266598355
 20
13.1057905662
 10
9.6989769551
 20
13.1256345968
 10
9.7737963941
 20
13.1393217955
 10
9.8476671332
 20
13.146323176
 10
9.9228586771
 20
13.1469490039
 10
9.9957822191
 20
13.1412868166
 10
10.068861006
 20
13.1292908898
 10
10.1388344378
 20
13.1115823517
 10
10.2078642344
 20
13.0877557858
 10
10.2728584328
 20
13.0590089582
 10
10.3358981718
 20
13.0245345362
 10
10.3944266495
 20
12.9858589143
 10
10.4501022108
 20
12.9419939131
 10
10.5007969957
 20
12.8947231628
 10
10.54785921
 20
12.842916931
 10
10.5914160552
 20
12.7859374911
 10
10.630266202
 20
12.7247983112
 10
10.6623256988
 20
12.6632963464
 10
10.6893100416
 20
12.5987186152
 10
10.7098287449
 20
12.5352396352
 10
10.7252066051
 20
12.4697651071
 10
10.7349553588
 20
12.4046019712
 10
10.7393794729
 20
12.3383540355
 10
10.7383838345
 20
12.2732532667
 10
10.732024035
 20
12.2079810298
 10
10.7199734558
 20
12.1420441315
 10
10.7022227552
 20
12.0768923749
 10
10.6800188467
 20
12.0160839512
 10
10.6526403183
 20
11.9569486602
 10
10.6215140531
 20
11.9021624662
 10
10.5857895244
 20
11.8497989515
 10
10.546638037
 20
11.8014619776
 10
10.5033983964
 20
11.7562595536
 10
10.4555748146
 20
11.7139960005
 10
10.4040159884
 20
11.6757668724
 10
10.3516480115
 20
11.6434197404
 10
10.2964801483
 20
11.6154385213
 10
10.2405429403
 20
11.5927174539
 10
10.1826559301
 20
11.57464638
 10
10.1245436595
 20
11.5617188728
 10
10.0653131992
 20
11.5536687888
 10
10.0063088397
 20
11.5506383449
 10
9.9470437571
 20
11.5525893126
 10
9.8870931187
 20
11.5597612488
 10
9.8277880055
 20
11.5721996555
 10
9.7721726474
 20
11.5890210559
 10
9.718049936
 20
11.6106115024
 10
9.6668096786
 20
11.6363765176
 10
9.6178621463
 20
11.6665308268
 10
9.572419588
 20
11.700270993
 10
9.5300054878
 20
11.737916359
 10
9.4915040544
 20
11.7786214185
 10
9.4566567345
 20
11.8225979646
 10
9.4262030768
 20
11.8688944617
 10
9.3999387797
 20
11.9177522673
 10
9.3784081261
 20
11.9680962035
 10
9.3614479763
 20
12.0201838942
 10
9.3493971553
 20
12.0728722663
 10
9.3421409145
 20
12.1264258221
 10
9.3397826514
 20
12.1796693406
 10
9.3422851652
 20
12.2328693393
 10
9.3558176169
 20
12.3143095882
 10
9.3811150928
 20
12.3931995359
 10
9.3811150926
 20
12.3931995355
  0
LINE
  5
118
330
1F
100
AcDbEntity
  8
0
  6
Continuous
 62
     7
370
    15
100
AcDbLine
 10
9.3923645099
 20
12.3890882753
 30
0.0
 11
9.3811150928
 21
12.3931995359
 31
0.0
  0
SPLINE
  5
119
330
1F
100
AcDbEntity
  8
0
  6
Continuous
 62
     7
370
    15
100
AcDbSpline
210
0.0
220
0.0
230
1.0
 70
     8
 71
     3
 72
    94
 73
    90
 74
     0
 42
0.00000001
 43
0.00000001
 40
0.0
 40
0.0
 40
0.0
 40
0.0
 40
0.0063086101089894
 40
0.0189402441737247
 40
0.0317268882958277
 40
0.0411819047190911
 40
0.0507025007678195
 40
0.0604302370127199
 40
0.070230285677857
 40
0.0796694197053951
 40
0.08917506231518
 40
0.0985175049848426
 40
0.1079247009809028
 40
0.1175367225250862
 40
0.1272196918184912
 40
0.1365574190380202
 40
0.1459604236610924
 40
0.155568812322427
 40
0.1652483391614121
 40
0.1745631975933637
 40
0.1839424642628636
 40
0.1932573105409618
 40
0.2026361630916214
 40
0.2119510045915779
 40
0.2213296368656112
 40
0.2309083089173983
 40
0.2405558700521293
 40
0.249960074563628
 40
0.2594285585000262
 40
0.2688326931998593
 40
0.2783002374533604
 40
0.2877043028836941
 40
0.2971711338392538
 40
0.3068337669258471
 40
0.3165634313574092
 40
0.3262009260078891
 40
0.3359034876546653
 40
0.3455408788555134
 40
0.3552421548511602
 40
0.3648793672246194
 40
0.3745793017199422
 40
0.3844738224683757
 40
0.3944344622117696
 40
0.4044604886630571
 40
0.4145534537023097
 40
0.4245792942434505
 40
0.4346704879123954
 40
0.4449639962934604
 40
0.4553261150125231
 40
0.4657645401928333
 40
0.4762719570632628
 40
0.4867101473019786
 40
0.4972151085338672
 40
0.5076529603928779
 40
0.5181552559686871
 40
0.5288554955725787
 40
0.5396221782906395
 40
0.5508229959113043
 40
0.562096843698337
 40
0.57329725723079
 40
0.5845675657715809
 40
0.5957675068366067
 40
0.6070337718301918
 40
0.6182333015052299
 40
0.6294955412056251
 40
0.6409490585975505
 40
0.6524662453562878
 40
0.665119103926006
 40
0.6778526845874693
 40
0.6908311154184561
 40
0.7038904481202755
 40
0.7173699375980047
 40
0.7309333795964933
 40
0.7447501493429821
 40
0.7586502137381542
 40
0.7732288683395411
 40
0.7878966521080699
 40
0.802829897194542
 40
0.8178492742285963
 40
0.833866831670881
 40
0.8498836434969225
 40
0.8659896689136891
 40
0.8823567066144296
 40
0.8988069466730656
 40
0.9202024835842266
 40
0.941756889319432
 40
0.9637658108854481
 40
0.9859161025889844
 40
0.9999999999999999
 40
0.9999999999999999
 40
0.9999999999999999
 40
0.9999999999999999
 10
9.392364509910939
 20
12.38908827525508
 30
0.0
 10
9.388279809935224
 20
12.37843238795426
 30
0.0
 10
9.37601637732806
 20
12.34644037959135
 30
0.0
 10
9.361321043605463
 20
12.29022386003363
 30
0.0
 10
9.352566794470794
 20
12.22626911878397
 30
0.0
 10
9.351057205266363
 20
12.16699331264271
 30
0.0
 10
9.354674317246275
 20
12.11311303868918
 30
0.0
 10
9.363467243039663
 20
12.05874883925666
 30
0.0
 10
9.377429910480533
 20
12.00521541056311
 30
0.0
 10
9.3962566786328
 20
11.95324181533421
 30
0.0
 10
9.419503917162618
 20
11.90366007982928
 30
0.0
 10
9.447255381404577
 20
11.85612595649144
 30
0.0
 10
9.479425506339293
 20
11.81079689526809
 30
0.0
 10
9.516198429425469
 20
11.76778912484689
 30
0.0
 10
9.556839782932476
 20
11.72814973802764
 30
0.0
 10
9.600755692183862
 20
11.69235858969809
 30
0.0
 10
9.647740806262146
 20
11.6604580737365
 30
0.0
 10
9.698188074918
 20
11.6323291299863
 30
0.0
 10
9.751029297685431
 20
11.60876817157966
 30
0.0
 10
9.805508909040736
 20
11.58995323769131
 30
0.0
 10
9.860905395784302
 20
11.5759707497586
 30
0.0
 10
9.917635538093934
 20
11.56668831336241
 30
0.0
 10
9.975025747343356
 20
11.56219948968692
 30
0.0
 10
10.03292043490685
 20
11.56255532125819
 30
0.0
 10
10.09118281916796
 20
11.56779412370478
 30
0.0
 10
10.14966222981193
 20
11.57805884230485
 30
0.0
 10
10.20727346122221
 20
11.593328148341
 30
0.0
 10
10.26333829498224
 20
11.61332885254619
 30
0.0
 10
10.31723415964016
 20
11.63773541285748
 30
0.0
 10
10.3691704009576
 20
11.66661949351045
 30
0.0
 10
10.41857597933285
 20
11.69962408104826
 30
0.0
 10
10.46532427510578
 20
11.73668477787262
 30
0.0
 10
10.50929896449622
 20
11.77774819891203
 30
0.0
 10
10.55032360299367
 20
11.82281866441096
 30
0.0
 10
10.58777079584294
 20
11.87145975555138
 30
0.0
 10
10.62121699631532
 20
11.92311049538204
 30
0.0
 10
10.65032097976172
 20
11.9771681012035
 30
0.0
 10
10.67503919966498
 20
12.03355765790209
 30
0.0
 10
10.69514628210452
 20
12.09163569209551
 30
0.0
 10
10.71061664414179
 20
12.15127055310385
 30
0.0
 10
10.72138430786806
 20
12.21235233150781
 30
0.0
 10
10.72733611976161
 20
12.27477310557453
 30
0.0
 10
10.72827395158012
 20
12.33814138072689
 30
0.0
 10
10.72408975608535
 20
12.40176462744869
 30
0.0
 10
10.71481825821068
 20
12.46493783897916
 30
0.0
 10
10.70051465785621
 20
12.52724065000276
 30
0.0
 10
10.68121006223882
 20
12.58854311729954
 30
0.0
 10
10.65685887446469
 20
12.64869054021608
 30
0.0
 10
10.62746335252416
 20
12.70723808952592
 30
0.0
 10
10.59329134792753
 20
12.76351036676907
 30
0.0
 10
10.55470817414283
 20
12.8168758062717
 30
0.0
 10
10.51198752112869
 20
12.86696255663478
 30
0.0
 10
10.46566163259222
 20
12.91328145078328
 30
0.0
 10
10.41588126111571
 20
12.9557783366703
 30
0.0
 10
10.36275689852332
 20
12.99435350063686
 30
0.0
 10
10.30637999211443
 20
13.02887780740279
 30
0.0
 10
10.24638809806539
 20
13.05938244509552
 30
0.0
 10
10.18329393904961
 20
13.08529557154623
 30
0.0
 10
10.11774703136282
 20
13.10616723423531
 30
0.0
 10
10.05090857177774
 20
13.12161940560196
 30
0.0
 10
9.9835339185499
 20
13.13156726560762
 30
0.0
 10
9.915815548584273
 20
13.13611524194248
 30
0.0
 10
9.848476322104554
 20
13.13529191927053
 30
0.0
 10
9.781686640818304
 20
13.12920676525106
 30
0.0
 10
9.715624343180941
 20
13.11796718395323
 30
0.0
 10
9.650468271770524
 20
13.10155022438298
 30
0.0
 10
9.584686095200778
 20
13.07936551988932
 30
0.0
 10
9.519140311801678
 20
13.05112526507069
 30
0.0
 10
9.454317699304477
 20
13.01636924582779
 30
0.0
 10
9.392608765989094
 20
12.97616454263689
 30
0.0
 10
9.33402183132861
 20
12.93042275086496
 30
0.0
 10
9.279381554270119
 20
12.87956543791692
 30
0.0
 10
9.228988358892018
 20
12.82375182783375
 30
0.0
 10
9.183730876086043
 20
12.76385910271986
 30
0.0
 10
9.143415291295366
 20
12.69950627217862
 30
0.0
 10
9.108725962586842
 20
12.63142086891326
 30
0.0
 10
9.080064026054421
 20
12.55985862468249
 30
0.0
 10
9.058064743525332
 20
12.48644819340293
 30
0.0
 10
9.042534985430104
 20
12.4103835755779
 30
0.0
 10
9.03402608900433
 20
12.33281827356321
 30
0.0
 10
9.03276301252472
 20
12.25458155163706
 30
0.0
 10
9.038652906572926
 20
12.17764028901902
 30
0.0
 10
9.051398615970674
 20
12.10259557858875
 30
0.0
 10
9.072522618371565
 20
12.0230198106769
 30
0.0
 10
9.10373597031264
 20
11.94110281703104
 30
0.0
 10
9.146304657852724
 20
11.85890960585266
 30
0.0
 10
9.196751075118389
 20
11.78473725968028
 30
0.0
 10
9.245854499513378
 20
11.72522684656282
 30
0.0
 10
9.279345557173592
 20
11.69574548727943
 30
0.0
 10
9.292363224514833
 20
11.68428635296923
 30
0.0
  0
LINE
  5
11A
330
1F
100
AcDbEntity
  8
0
  6
Continuous
 62
     7
370
    15
100
AcDbLine
 10
9.7164705261
 20
12.3941623085
 30
0.0
 11
9.7359015002
 21
12.417796149
 31
0.0
  0
SPLINE
  5
11B
330
1F
100
AcDbEntity
  8
0
  6
Continuous
 62
     7
370
    15
100
AcDbSpline
210
0.0
220
0.0
230
1.0
 70
     8
 71
     3
 72
    14
 73
    10
 74
     0
 42
0.00000001
 43
0.00000001
 40
0.0
 40
0.0
 40
0.0
 40
0.0
 40
0.1196013125152697
 40
0.2693450954924042
 40
0.4234077210146314
 40
0.5743748542404598
 40
0.7289894275600501
 40
0.8910938134695092
 40
1.0
 40
1.0
 40
1.0
 40
1.0
 10
9.93282861380282
 20
11.97215101403853
 30
0.0
 10
9.919926507066622
 20
11.9729625819661
 30
0.0
 10
9.890870645572868
 20
11.97479025288672
 30
0.0
 10
9.847250291293943
 20
11.98589717564117
 30
0.0
 10
9.8039825326273
 20
12.00445314639531
 30
0.0
 10
9.765039523768237
 20
12.02945389675104
 30
0.0
 10
9.731389650458432
 20
12.05981746962077
 30
0.0
 10
9.705692012983063
 20
12.09063097627258
 30
0.0
 10
9.694346621406357
 20
12.11159184787262
 30
0.0
 10
9.689787451185836
 20
12.12001501960265
 30
0.0
  0
SPLINE
  5
11C
330
1F
100
AcDbEntity
  8
0
  6
Continuous
 62
     7
370
    15
100
AcDbSpline
210
0.0
220
0.0
230
1.0
 70
     8
 71
     3
 72
    19
 73
    15
 74
     0
 42
0.00000001
 43
0.00000001
 40
0.0
 40
0.0
 40
0.0
 40
0.0
 40
0.0003907483475692
 40
0.0986402479889345
 40
0.1970004788154683
 40
0.3497482467373185
 40
0.5031134370972251
 40
0.5809425637278333
 40
0.6589045363263112
 40
0.737327642336588
 40
0.8159399239170861
 40
0.903182180257387
 40
0.9904327362861776
 40
1.0
 40
1.0
 40
1.0
 40
1.0
 10
9.790639935682636
 20
11.72526354384791
 30
0.0
 10
9.790610146239546
 20
11.72528348753822
 30
0.0
 10
9.783090119418793
 20
11.73031805920189
 30
0.0
 10
9.765553081969403
 20
11.74285713191786
 30
0.0
 10
9.734647904659678
 20
11.76592697198006
 30
0.0
 10
9.696329221359715
 20
11.79763834045886
 30
0.0
 10
9.659088035196477
 20
11.83391972458242
 30
0.0
 10
9.629451745245083
 20
11.86770348228318
 30
0.0
 10
9.607546465251746
 20
11.89576355131569
 30
0.0
 10
9.586503668763214
 20
11.92656511475838
 30
0.0
 10
9.565939726407047
 20
11.96133032778419
 30
0.0
 10
9.547128538043353
 20
12.00083495302746
 30
0.0
 10
9.534450161830447
 20
12.03109912810255
 30
0.0
 10
9.52975498718833
 20
12.04860782788001
 30
0.0
 10
9.52929102328062
 20
12.05033798818007
 30
0.0
  0
SPLINE
  5
11D
330
1F
100
AcDbEntity
  8
0
  6
Continuous
 62
     7
370
    15
100
AcDbSpline
210
0.0
220
0.0
230
1.0
 70
     8
 71
     3
 72
    15
 73
    11
 74
     0
 42
0.00000001
 43
0.00000001
 40
0.0
 40
0.0
 40
0.0
 40
0.0
 40
0.0173020014912465
 40
0.1302469789484219
 40
0.2439702749475641
 40
0.4630815250985841
 40
0.5723616731053192
 40
0.7818901438655629
 40
0.9864217110076966
 40
0.9999999999999999
 40
0.9999999999999999
 40
0.9999999999999999
 40
0.9999999999999999
 10
9.946064640358335
 20
12.60207752789454
 30
0.0
 10
9.947552567281834
 20
12.60191357300365
 30
0.0
 10
9.958753467176557
 20
12.6006793441641
 30
0.0
 10
9.979562662050274
 20
12.59594295684789
 30
0.0
 10
10.01705360720392
 20
12.58522572630379
 30
0.0
 10
10.05297704230404
 20
12.56950761973868
 30
0.0
 10
10.09404350255811
 20
12.54512612950766
 30
0.0
 10
10.1307707476441
 20
12.51608943153424
 30
0.0
 10
10.15766122235315
 20
12.48831217242055
 30
0.0
 10
10.16899478913351
 20
12.47226667003948
 30
0.0
 10
10.16970035305338
 20
12.47126776759546
 30
0.0
  0
SPLINE
  5
11E
330
1F
100
AcDbEntity
  8
0
  6
Continuous
 62
     7
370
    15
100
AcDbSpline
210
0.0
220
0.0
230
1.0
 70
     8
 71
     3
 72
    11
 73
     7
 74
     0
 42
0.00000001
 43
0.00000001
 40
0.0
 40
0.0
 40
0.0
 40
0.0
 40
0.0809215144499464
 40
0.3563256153659972
 40
0.6766862001310824
 40
1.0
 40
1.0
 40
1.0
 40
1.0
 10
10.01916353672179
 20
11.98381397649601
 30
0.0
 10
10.0169270658709
 20
11.98299200265039
 30
0.0
 10
10.00707910568862
 20
11.97937256549147
 30
0.0
 10
9.987508060557145
 20
11.97597617842531
 30
0.0
 10
9.960971034493877
 20
11.97221080735326
 30
0.0
 10
9.94223807000607
 20
11.97217100601372
 30
0.0
 10
9.932828613802826
 20
11.97215101403853
 30
0.0
  0
SPLINE
  5
11F
330
1F
100
AcDbEntity
  8
0
  6
Continuous
 62
     7
370
    15
100
AcDbSpline
210
0.0
220
0.0
230
1.0
 70
     8
 71
     3
 72
    32
 73
    28
 74
     0
 42
0.00000001
 43
0.00000001
 40
0.0
 40
0.0
 40
0.0
 40
0.0
 40
0.0624999999999997
 40
0.0624999999999997
 40
0.1249999999999999
 40
0.1249999999999999
 40
0.1875000000000001
 40
0.1875000000000001
 40
0.2500000000000002
 40
0.2500000000000002
 40
0.5000000000000001
 40
0.5000000000000001
 40
0.5624999999999999
 40
0.5624999999999999
 40
0.6249999999999998
 40
0.6249999999999998
 40
0.7499999999999998
 40
0.7499999999999998
 40
0.8124999999999999
 40
0.8124999999999999
 40
0.8750000000000001
 40
0.8750000000000001
 40
0.9375000000000002
 40
0.9375000000000002
 40
0.9687500000000001
 40
0.9687500000000001
 40
1.0
 40
1.0
 40
1.0
 40
1.0
 10
9.752249614063103
 20
12.68241901064523
 30
0.0
 10
9.748346133649434
 20
12.68224603225243
 30
0.0
 10
9.744371602065364
 20
12.682012829763
 30
0.0
 10
9.735170507952775
 20
12.68102408850959
 30
0.0
 10
9.730109382987987
 20
12.68031459065379
 30
0.0
 10
9.719227715920763
 20
12.67842990453151
 30
0.0
 10
9.713373835146495
 20
12.67724356334319
 30
0.0
 10
9.700883759366802
 20
12.67429291111923
 30
0.0
 10
9.694230775825831
 20
12.67252339350337
 30
0.0
 10
9.659347966957348
 20
12.66203751776485
 30
0.0
 10
9.626333405084129
 20
12.64850684928905
 30
0.0
 10
9.581952965855194
 20
12.62138855004659
 30
0.0
 10
9.572924470550708
 20
12.61545074935045
 30
0.0
 10
9.554663476775886
 20
12.60242954500711
 30
0.0
 10
9.545406252099204
 20
12.59532100686405
 30
0.0
 10
9.517905924902522
 20
12.57245169638077
 30
0.0
 10
9.49981978033401
 20
12.55508718493913
 30
0.0
 10
9.473778190653217
 20
12.52554337424759
 30
0.0
 10
9.465281201584226
 20
12.51511147841148
 30
0.0
 10
9.448780429666249
 20
12.49301740424624
 30
0.0
 10
9.440756366170886
 20
12.4813243009622
 30
0.0
 10
9.425425798719548
 20
12.45676310906506
 30
0.0
 10
9.418159716059135
 20
12.44396569393133
 30
0.0
 10
9.407951334008443
 20
12.42399273994713
 30
0.0
 10
9.404662598323977
 20
12.41720239292798
 30
0.0
 10
9.39832119128614
 20
12.40332894366395
 30
0.0
 10
9.395270316373367
 20
12.39624782914732
 30
0.0
 10
9.392364509910939
 20
12.38908827525508
 30
0.0
  0
SPLINE
  5
120
330
1F
100
AcDbEntity
  8
0
  6
Continuous
 62
     7
370
    15
100
AcDbSpline
210
0.0
220
0.0
230
1.0
 70
     8
 71
     3
 72
    32
 73
    28
 74
     0
 42
0.00000001
 43
0.00000001
 40
0.0
 40
0.0
 40
0.0
 40
0.0
 40
0.0312499999999998
 40
0.0312499999999998
 40
0.0624999999999996
 40
0.0624999999999996
 40
0.1249999999999999
 40
0.1249999999999999
 40
0.2499999999999998
 40
0.2499999999999998
 40
0.3749999999999996
 40
0.3749999999999996
 40
0.4999999999999994
 40
0.4999999999999994
 40
0.6249999999999992
 40
0.6249999999999992
 40
0.6874999999999993
 40
0.6874999999999993
 40
0.7499999999999994
 40
0.7499999999999994
 40
0.8749999999999996
 40
0.8749999999999996
 40
0.9374999999999997
 40
0.9374999999999997
 40
0.9687499999999999
 40
0.9687499999999999
 40
1.0
 40
1.0
 40
1.0
 40
1.0
 10
9.898929792612135
 20
12.56880828603359
 30
0.0
 10
9.901833929370374
 20
12.57009339889856
 30
0.0
 10
9.90477254473622
 20
12.57133027288693
 30
0.0
 10
9.910384182801888
 20
12.57373279058301
 30
0.0
 10
9.91302673257341
 20
12.57490169912577
 30
0.0
 10
9.920405145895307
 20
12.57835969055131
 30
0.0
 10
9.924729385547016
 20
12.58059084485746
 30
0.0
 10
9.936048727172574
 20
12.5872807810084
 30
0.0
 10
9.941255542592565
 20
12.5917743378593
 30
0.0
 10
9.947151475257215
 20
12.60151865542852
 30
0.0
 10
9.947828423753736
 20
12.60676812466528
 30
0.0
 10
9.94465419211766
 20
12.61806618763882
 30
0.0
 10
9.940804867835675
 20
12.62411325785344
 30
0.0
 10
9.928525228576122
 20
12.63658020840388
 30
0.0
 10
9.920092142232525
 20
12.6429972949409
 30
0.0
 10
9.903946812707712
 20
12.65228640959522
 30
0.0
 10
9.897980597887427
 20
12.65532416493168
 30
0.0
 10
9.884907966672705
 20
12.6611400284916
 30
0.0
 10
9.877799661092384
 20
12.66391932002701
 30
0.0
 10
9.854775062507443
 20
12.6716483370231
 30
0.0
 10
9.837159848471961
 20
12.67599162478545
 30
0.0
 10
9.807573944501787
 20
12.68031549043002
 30
0.0
 10
9.797181063634545
 20
12.68138915315269
 30
0.0
 10
9.780874534137096
 20
12.68232227748206
 30
0.0
 10
9.775319812559399
 20
12.68252067035056
 30
0.0
 10
9.763955795750888
 20
12.68266269760388
 30
0.0
 10
9.758124892038445
 20
12.68259950091443
 30
0.0
 10
9.752249614063103
 20
12.68241901064523
 30
0.0
  0
SPLINE
  5
121
330
1F
100
AcDbEntity
  8
0
  6
Continuous
 62
     7
370
    15
100
AcDbSpline
210
0.0
220
0.0
230
1.0
 70
     8
 71
     3
 72
    16
 73
    12
 74
     0
 42
0.00000001
 43
0.00000001
 40
0.0
 40
0.0
 40
0.0
 40
0.0
 40
0.125000000000001
 40
0.125000000000001
 40
0.2500000000000019
 40
0.2500000000000019
 40
0.5000000000000019
 40
0.5000000000000019
 40
0.7500000000000009
 40
0.7500000000000009
 40
1.0
 40
1.0
 40
1.0
 40
1.0
 10
9.735901500216851
 20
12.41779614903696
 30
0.0
 10
9.74058666312138
 20
12.4277550542408
 30
0.0
 10
9.745808881917256
 20
12.43723663946687
 30
0.0
 10
9.756987381439048
 20
12.45515810739172
 30
0.0
 10
9.762959568595257
 20
12.4636154657128
 30
0.0
 10
9.781736446449367
 20
12.48753290971745
 30
0.0
 10
9.795391898395048
 20
12.50153084249097
 30
0.0
 10
9.823830571371914
 20
12.5260923328166
 30
0.0
 10
9.838619381047405
 20
12.53664736162154
 30
0.0
 10
9.868592806543921
 20
12.5548186911001
 30
0.0
 10
9.883754944850075
 20
12.5624332348863
 30
0.0
 10
9.898929792612135
 20
12.56880828603359
 30
0.0
  0
SPLINE
  5
122
330
1F
100
AcDbEntity
  8
0
  6
Continuous
 62
     7
370
    15
100
AcDbSpline
210
0.0
220
0.0
230
1.0
 70
     8
 71
     3
 72
    38
 73
    34
 74
     0
 42
0.00000001
 43
0.00000001
 40
0.0
 40
0.0
 40
0.0
 40
0.0
 40
0.0312499999999997
 40
0.0312499999999997
 40
0.0624999999999994
 40
0.0624999999999994
 40
0.1249999999999987
 40
0.1249999999999987
 40
0.1874999999999979
 40
0.1874999999999979
 40
0.2499999999999972
 40
0.2499999999999972
 40
0.3749999999999958
 40
0.3749999999999958
 40
0.4374999999999954
 40
0.4374999999999954
 40
0.4687499999999956
 40
0.4687499999999956
 40
0.4999999999999958
 40
0.4999999999999958
 40
0.6249999999999974
 40
0.6249999999999974
 40
0.6874999999999978
 40
0.6874999999999978
 40
0.7499999999999982
 40
0.7499999999999982
 40
0.8749999999999999
 40
0.8749999999999999
 40
0.9375
 40
0.9375
 40
0.96875
 40
0.96875
 40
1.0
 40
1.0
 40
1.0
 40
1.0
 10
9.819448330516147
 20
11.70357165423195
 30
0.0
 10
9.810996529639416
 20
11.70643185373978
 30
0.0
 10
9.802637181362577
 20
11.7094873959608
 30
0.0
 10
9.786307467162358
 20
11.71592610852073
 30
0.0
 10
9.778323227751736
 20
11.7193098524246
 30
0.0
 10
9.754946114796324
 20
11.72988633892475
 30
0.0
 10
9.740097794167148
 20
11.73751839575998
 30
0.0
 10
9.711868479589622
 20
11.7537256714382
 30
0.0
 10
9.698485660901024
 20
11.76229909677945
 30
0.0
 10
9.67314429921466
 20
11.78018768190978
 30
0.0
 10
9.66128959933717
 20
11.78943223312564
 30
0.0
 10
9.628212349890534
 20
11.81758123515503
 30
0.0
 10
9.609384669053068
 20
11.83696153135227
 30
0.0
 10
9.585307550445203
 20
11.86579726373176
 30
0.0
 10
9.577981080980596
 20
11.87536939823059
 30
0.0
 10
9.567967650067196
 20
11.88953691408135
 30
0.0
 10
9.564788711072406
 20
11.89423423728776
 30
0.0
 10
9.558782617457762
 20
11.90348382493351
 30
0.0
 10
9.555950783834083
 20
11.90804198181321
 30
0.0
 10
9.54259488187995
 20
11.93045419066416
 30
0.0
 10
9.534469898323987
 20
11.9471609568304
 30
0.0
 10
9.525228874019662
 20
11.96968645112706
 30
0.0
 10
9.522643607511267
 20
11.97677192034484
 30
0.0
 10
9.518341135036376
 20
11.98999693063298
 30
0.0
 10
9.516621350987121
 20
11.99615072263861
 30
0.0
 10
9.512648020035527
 20
12.01288205356903
 30
0.0
 10
9.51153859246766
 20
12.02177954042061
 30
0.0
 10
9.511617719886873
 20
12.03151002172215
 30
0.0
 10
9.511933607133278
 20
12.03416297989986
 30
0.0
 10
9.512809572455588
 20
12.03722944880913
 30
0.0
 10
9.513176813606048
 20
12.03808086616045
 30
0.0
 10
9.514068041858591
 20
12.03941709109622
 30
0.0
 10
9.514583583469774
 20
12.03992164963483
 30
0.0
 10
9.515098454685605
 20
12.04042781749457
 30
0.0
  0
SPLINE
  5
123
330
1F
100
AcDbEntity
  8
0
  6
Continuous
 62
     7
370
    15
100
AcDbSpline
210
0.0
220
0.0
230
1.0
 70
     8
 71
     3
 72
    30
 73
    26
 74
     0
 42
0.00000001
 43
0.00000001
 40
0.0
 40
0.0
 40
0.0
 40
0.0
 40
0.0625000000000001
 40
0.0625000000000001
 40
0.1250000000000002
 40
0.1250000000000002
 40
0.2500000000000003
 40
0.2500000000000003
 40
0.3750000000000003
 40
0.3750000000000003
 40
0.5000000000000004
 40
0.5000000000000004
 40
0.5625000000000004
 40
0.5625000000000004
 40
0.6250000000000004
 40
0.6250000000000004
 40
0.75
 40
0.75
 40
0.8125
 40
0.8125
 40
0.875
 40
0.875
 40
0.9375
 40
0.9375
 40
1.0
 40
1.0
 40
1.0
 40
1.0
 10
10.48487469741328
 20
11.92888612369789
 30
0.0
 10
10.47498346820406
 20
11.91513287330086
 30
0.0
 10
10.46454364498991
 20
11.90176830336265
 30
0.0
 10
10.44275344365993
 20
11.87610814063051
 30
0.0
 10
10.43142274635007
 20
11.8638152831375
 30
0.0
 10
10.39616492368729
 20
11.82849075919715
 30
0.0
 10
10.37094668102933
 20
11.80698506531758
 30
0.0
 10
10.31732942858524
 20
11.76828966375025
 30
0.0
 10
10.28953719989692
 20
11.75151334786507
 30
0.0
 10
10.23221431404017
 20
11.72277762014117
 30
0.0
 10
10.20267741626841
 20
11.71083121624744
 30
0.0
 10
10.15716213515034
 20
11.69653263285903
 30
0.0
 10
10.14191682446452
 20
11.69241592309434
 30
0.0
 10
10.11150958472795
 20
11.68548370301034
 30
0.0
 10
10.09631406422334
 20
11.68265916261739
 30
0.0
 10
10.05078659248164
 20
11.67603310982184
 30
0.0
 10
10.02051493195764
 20
11.67406657693874
 30
0.0
 10
9.97536947363394
 20
11.67467910916305
 30
0.0
 10
9.960393935451977
 20
11.6754857320627
 30
0.0
 10
9.930989884239908
 20
11.67822127839232
 30
0.0
 10
9.916505744733438
 20
11.68014977601319
 30
0.0
 10
9.88797720658877
 20
11.68506875847529
 30
0.0
 10
9.873929028617715
 20
11.68806037510258
 30
0.0
 10
9.8463502144415
 20
11.69505886960017
 30
0.0
 10
9.832829972965515
 20
11.69906107144973
 30
0.0
 10
9.819448330516147
 20
11.70357165423195
 30
0.0
  0
SPLINE
  5
124
330
1F
100
AcDbEntity
  8
0
  6
Continuous
 62
     7
370
    15
100
AcDbSpline
210
0.0
220
0.0
230
1.0
 70
     8
 71
     3
 72
    20
 73
    16
 74
     0
 42
0.00000001
 43
0.00000001
 40
0.0
 40
0.0
 40
0.0
 40
0.0
 40
0.0496437891074098
 40
0.1003812777729657
 40
0.1514191018348459
 40
0.202579307123721
 40
0.3055392465892655
 40
0.4100543863389621
 40
0.5149373210519458
 40
0.6087123875340451
 40
0.7026748682944758
 40
0.7971644038817018
 40
0.8918167331199376
 40
0.9882729567669859
 40
0.9999999999999999
 40
0.9999999999999999
 40
0.9999999999999999
 40
0.9999999999999999
 10
10.27198012114817
 20
12.4286286711329
 30
0.0
 10
10.26766066812128
 20
12.44301353484455
 30
0.0
 10
10.25892660043797
 20
12.47210017440062
 30
0.0
 10
10.2422484146137
 20
12.510199765294
 30
0.0
 10
10.22413531653031
 20
12.54481918400218
 30
0.0
 10
10.19873672450112
 20
12.58593930080358
 30
0.0
 10
10.16654756548703
 20
12.62904875358281
 30
0.0
 10
10.13109725389697
 20
12.6700738529638
 30
0.0
 10
10.10220961748479
 20
12.70196605669837
 30
0.0
 10
10.08046771295746
 20
12.72749056457975
 30
0.0
 10
10.06562648107007
 20
12.74852656333836
 30
0.0
 10
10.05700395532368
 20
12.76691572622526
 30
0.0
 10
10.05521150131297
 20
12.78306388152022
 30
0.0
 10
10.05669112799769
 20
12.79369968909977
 30
0.0
 10
10.06057086464715
 20
12.79834437238364
 30
0.0
 10
10.06099142727882
 20
12.79884785506857
 30
0.0
  0
SPLINE
  5
125
330
1F
100
AcDbEntity
  8
0
  6
Continuous
 62
     7
370
    15
100
AcDbSpline
210
0.0
220
0.0
230
1.0
 70
     8
 71
     3
 72
    24
 73
    20
 74
     0
 42
0.00000001
 43
0.00000001
 40
0.0
 40
0.0
 40
0.0
 40
0.0
 40
0.0694822798656273
 40
0.1596698895756021
 40
0.2505073404737027
 40
0.301286798254972
 40
0.3522712852307796
 40
0.4040107142479825
 40
0.4560763771836642
 40
0.5386610133863599
 40
0.5809150881091808
 40
0.6234959849403297
 40
0.6647185877903906
 40
0.7069384180450793
 40
0.749154456222642
 40
0.7924689131298306
 40
0.8629183120063689
 40
0.9304625806431397
 40
1.0
 40
1.0
 40
1.0
 40
1.0
 10
10.30409717579871
 20
12.79030592520844
 30
0.0
 10
10.31481579956488
 20
12.78476099219634
 30
0.0
 10
10.3394471368851
 20
12.77201876722247
 30
0.0
 10
10.38128766291838
 20
12.74287219164242
 30
0.0
 10
10.42116858891966
 20
12.70822764156951
 30
0.0
 10
10.45441491753966
 20
12.67280578621257
 30
0.0
 10
10.4805382623978
 20
12.64056476115021
 30
0.0
 10
10.5060160322042
 20
12.603633384557
 30
0.0
 10
10.53484116599869
 20
12.55351426692706
 30
0.0
 10
10.55885310900153
 20
12.49864687000192
 30
0.0
 10
10.57671231668497
 20
12.44066203687862
 30
0.0
 10
10.58714338561366
 20
12.39407017830266
 30
0.0
 10
10.59409686005168
 20
12.34493565244706
 30
0.0
 10
10.59708051679674
 20
12.29380772615843
 30
0.0
 10
10.59566371402717
 20
12.24021690885658
 30
0.0
 10
10.58803059005874
 20
12.17354780497885
 30
0.0
 10
10.56929057377672
 20
12.09557178570111
 30
0.0
 10
10.53508621262432
 20
12.00829626250332
 30
0.0
 10
10.50177332423703
 20
11.95561151320377
 30
0.0
 10
10.48487469741328
 20
11.92888612369789
 30
0.0
  0
LINE
  5
126
330
1F
100
AcDbEntity
  8
0
  6
Continuous
 62
     7
370
    15
100
AcDbLine
 10
9.6270827118
 20
12.1185617869
 30
0.0
 11
9.6281915831
 21
12.1187658841
 31
0.0
  0
SPLINE
  5
127
330
1F
100
AcDbEntity
  8
0
  6
Continuous
 62
     7
370
    15
100
AcDbSpline
210
0.0
220
0.0
230
1.0
 70
     8
 71
     3
 72
    18
 73
    14
 74
     0
 42
0.00000001
 43
0.00000001
 40
0.0
 40
0.0
 40
0.0
 40
0.0
 40
0.1088030685999774
 40
0.2188805255764982
 40
0.2989249305138772
 40
0.3789636175152419
 40
0.4613844770526
 40
0.5437859786796568
 40
0.6534114682118057
 40
0.7657138320495634
 40
0.8541917617011147
 40
0.9450354144085445
 40
1.0
 40
1.0
 40
1.0
 40
1.0
 10
9.629537129045387
 20
12.11901354321744
 30
0.0
 10
9.631711696237083
 20
12.11784581383295
 30
0.0
 10
9.636086300886976
 20
12.11549667768543
 30
0.0
 10
9.64598137368892
 20
12.10306361893222
 30
0.0
 10
9.658072607446613
 20
12.08713545082615
 30
0.0
 10
9.67211285582847
 20
12.06940544262513
 30
0.0
 10
9.690233120893932
 20
12.04870518875058
 30
0.0
 10
9.715866774773925
 20
12.02354691664947
 30
0.0
 10
9.752249299224445
 20
11.9948997656807
 30
0.0
 10
9.799658518820069
 20
11.96832667914252
 30
0.0
 10
9.852822179309536
 20
11.94996495118252
 30
0.0
 10
9.900433331964578
 20
11.94026302189215
 30
0.0
 10
9.932690297791993
 20
11.94125455933103
 30
0.0
 10
9.944850041163333
 20
11.94162833412636
 30
0.0
  0
SPLINE
  5
128
330
1F
100
AcDbEntity
  8
0
  6
Continuous
 62
     7
370
    15
100
AcDbSpline
210
0.0
220
0.0
230
1.0
 70
     8
 71
     3
 72
    20
 73
    16
 74
     0
 42
0.00000001
 43
0.00000001
 40
0.0
 40
0.0
 40
0.0
 40
0.0
 40
0.0020000927014801
 40
0.0020000927014801
 40
0.0020000927014801
 40
0.0100004635097754
 40
0.0100004635097754
 40
0.0100004635097754
 40
0.0420019468410245
 40
0.0420019468410245
 40
0.0420019468410245
 40
0.0750539966310642
 40
0.0750539966310642
 40
0.0750539966310642
 40
0.1081060465931353
 40
0.1081060465931353
 40
0.1081060465931353
 40
0.1081060465931353
 10
9.627082711835527
 20
12.11856178694714
 30
0.0
 10
9.626389872088058
 20
12.11807942948029
 30
0.0
 10
9.625697095494104
 20
12.11759706951164
 30
0.0
 10
9.625004380433367
 20
12.11711470791001
 30
0.0
 10
9.622233520190013
 20
12.11518526150319
 30
0.0
 10
9.619463643934678
 20
12.11325578879095
 30
0.0
 10
9.616694652458493
 20
12.11132634682186
 30
0.0
 10
9.60561868653684
 20
12.10360857893371
 30
0.0
 10
9.594556778625984
 20
12.09589126599063
 30
0.0
 10
9.583503477377004
 20
12.08817837842896
 30
0.0
 10
9.572087310833139
 20
12.080212286946
 30
0.0
 10
9.56067979753891
 20
12.07225227608445
 30
0.0
 10
9.549279267350798
 20
12.06429507488446
 30
0.0
 10
9.537878737100751
 20
12.05633787364124
 30
0.0
 10
9.526485311985011
 20
12.04838325997119
 30
0.0
 10
9.515098454685605
 20
12.04042781749457
 30
0.0
  0
LINE
  5
129
330
1F
100
AcDbEntity
  8
0
  6
Continuous
 62
     7
370
    15
100
AcDbLine
 10
9.7490607734
 20
12.6939626888
 30
0.0
 11
9.7522496141
 21
12.6824190106
 31
0.0
  0
SPLINE
  5
12A
330
1F
100
AcDbEntity
  8
0
  6
Continuous
 62
     7
370
    15
100
AcDbSpline
210
0.0
220
0.0
230
1.0
 70
     8
 71
     3
 72
    36
 73
    32
 74
     0
 42
0.00000001
 43
0.00000001
 40
0.0
 40
0.0
 40
0.0
 40
0.0
 40
0.0312499999999998
 40
0.0312499999999998
 40
0.0624999999999995
 40
0.0624999999999995
 40
0.1249999999999993
 40
0.1249999999999993
 40
0.1874999999999992
 40
0.1874999999999992
 40
0.249999999999999
 40
0.249999999999999
 40
0.3124999999999988
 40
0.3124999999999988
 40
0.3749999999999987
 40
0.3749999999999987
 40
0.4374999999999985
 40
0.4374999999999985
 40
0.4999999999999983
 40
0.4999999999999983
 40
0.6249999999999984
 40
0.6249999999999984
 40
0.7499999999999986
 40
0.7499999999999986
 40
0.8124999999999988
 40
0.8124999999999988
 40
0.8749999999999991
 40
0.8749999999999991
 40
0.9374999999999993
 40
0.9374999999999993
 40
1.0
 40
1.0
 40
1.0
 40
1.0
 10
9.381115092643755
 20
12.39319953550927
 30
0.0
 10
9.384040612240229
 20
12.40041759452598
 30
0.0
 10
9.387113666135717
 20
12.4075646716603
 30
0.0
 10
9.393510202465237
 20
12.42159723005626
 30
0.0
 10
9.396834652200164
 20
12.42848497075652
 30
0.0
 10
9.407118734656706
 20
12.44869320938812
 30
0.0
 10
9.414406465647357
 20
12.46160159640089
 30
0.0
 10
9.429718542772058
 20
12.48632030542719
 30
0.0
 10
9.43774076263582
 20
12.4981258882156
 30
0.0
 10
9.454412167896367
 20
12.52065828197029
 30
0.0
 10
9.463082522275645
 20
12.53140544381246
 30
0.0
 10
9.480830273297986
 20
12.55171998805059
 30
0.0
 10
9.489895301585726
 20
12.56127840601487
 30
0.0
 10
9.508283091215764
 20
12.57925910129678
 30
0.0
 10
9.517594161153182
 20
12.58766768850707
 30
0.0
 10
9.536232255829596
 20
12.60330847115913
 30
0.0
 10
9.545572544510515
 20
12.61055360942355
 30
0.0
 10
9.564184579497411
 20
12.62396893015473
 30
0.0
 10
9.573473580623466
 20
12.63014787328888
 30
0.0
 10
9.600913575090297
 20
12.64709129374874
 30
0.0
 10
9.61864239972576
 20
12.6562833400781
 30
0.0
 10
9.652221335563944
 20
12.67126276800256
 30
0.0
 10
9.66798882083895
 20
12.67700626272998
 30
0.0
 10
9.68946259797156
 20
12.68354679064796
 30
0.0
 10
9.696262393473788
 20
12.68538283731898
 30
0.0
 10
9.709093413773742
 20
12.68846547613516
 30
0.0
 10
9.715130784709933
 20
12.68971284419808
 30
0.0
 10
9.726331222780585
 20
12.69169730554573
 30
0.0
 10
9.731532660677743
 20
12.69244729818043
 30
0.0
 10
9.740976971837103
 20
12.69350427071065
 30
0.0
 10
9.745052852231105
 20
12.69376427928692
 30
0.0
 10
9.749060773344018
 20
12.69396268879966
 30
0.0
  0
SPLINE
  5
12B
330
1F
100
AcDbEntity
  8
0
  6
Continuous
 62
     7
370
    15
100
AcDbSpline
210
0.0
220
0.0
230
1.0
 70
     8
 71
     3
 72
    20
 73
    16
 74
     0
 42
0.00000001
 43
0.00000001
 40
0.0
 40
0.0
 40
0.0
 40
0.0
 40
0.0493214139930316
 40
0.1697310338568869
 40
0.2299236070002526
 40
0.350340121840691
 40
0.4707607349369621
 40
0.530954919061391
 40
0.6513919648481894
 40
0.7115901113388544
 40
0.771790807638761
 40
0.8321099040250066
 40
0.8923200888747758
 40
0.9525380888263747
 40
1.0
 40
1.0
 40
1.0
 40
1.0
 10
10.05998124076912
 20
12.7975926963301
 30
0.0
 10
10.05972395108856
 20
12.79521628331153
 30
0.0
 10
10.0588385335803
 20
12.7870382728723
 30
0.0
 10
10.06242290727434
 20
12.77443326482393
 30
0.0
 10
10.07214441470383
 20
12.75601758711914
 30
0.0
 10
10.08753443438189
 20
12.73517290729849
 30
0.0
 10
10.10998753726562
 20
12.70999835470849
 30
0.0
 10
10.1371557507799
 20
12.68018744012615
 30
0.0
 10
10.16229556063923
 20
12.6519436164694
 30
0.0
 10
10.189622811721
 20
12.6176574276367
 30
0.0
 10
10.21071089745566
 20
12.58839775123666
 30
0.0
 10
10.23183229931884
 20
12.55516593181868
 30
0.0
 10
10.25202251318428
 20
12.51721003117206
 30
0.0
 10
10.2695372300167
 20
12.47791822816897
 30
0.0
 10
10.27813558432957
 20
12.44852473774319
 30
0.0
 10
10.28192546792413
 20
12.43556901353157
 30
0.0
  0
SPLINE
  5
12C
330
1F
100
AcDbEntity
  8
0
  6
Continuous
 62
     7
370
    15
100
AcDbSpline
210
0.0
220
0.0
230
1.0
 70
     8
 71
     3
 72
    19
 73
    15
 74
     0
 42
0.00000001
 43
0.00000001
 40
0.0
 40
0.0
 40
0.0
 40
0.0
 40
0.0210589222997296
 40
0.1052999955683567
 40
0.1895403755307404
 40
0.3580475381342086
 40
0.4422872149421463
 40
0.5265267254571778
 40
0.6107661674634992
 40
0.6950055466222518
 40
0.7792449190180062
 40
0.86348428875717
 40
0.9477236771098405
 40
1.0
 40
1.0
 40
1.0
 40
1.0
 10
9.749060773355795
 20
12.69396268880152
 30
0.0
 10
9.751862504895273
 20
12.69404845216434
 30
0.0
 10
9.765871878902722
 20
12.6944772909053
 30
0.0
 10
9.789922246814141
 20
12.69380868868248
 30
0.0
 10
9.82921370300603
 20
12.68957438101701
 30
0.0
 10
9.862882076657677
 20
12.68145592635704
 30
0.0
 10
9.890466747407492
 20
12.67114004331047
 30
0.0
 10
9.908076389786014
 20
12.66267929419629
 30
0.0
 10
9.922578519043652
 20
12.65383705151085
 30
0.0
 10
9.933966133400453
 20
12.64491224389355
 30
0.0
 10
9.942290898972749
 20
12.63614566607136
 30
0.0
 10
9.947403365329716
 20
12.62775907923183
 30
0.0
 10
9.949612066293618
 20
12.62078474528198
 30
0.0
 10
9.948838778281935
 20
12.61685198335382
 30
0.0
 10
9.948542661055443
 20
12.61534600041211
 30
0.0
  0
SPLINE
  5
12D
330
1F
100
AcDbEntity
  8
0
  6
Continuous
 62
     7
370
    15
100
AcDbSpline
210
0.0
220
0.0
230
1.0
 70
     8
 71
     3
 72
    17
 73
    13
 74
     0
 42
0.00000001
 43
0.00000001
 40
0.0
 40
0.0
 40
0.0
 40
0.0
 40
0.0058505894952843
 40
0.0823903847321952
 40
0.1653134033007758
 40
0.2500279352083714
 40
0.3698706737418836
 40
0.489593726271671
 40
0.611901758551445
 40
0.7516735770981012
 40
0.8865223237303372
 40
1.0
 40
1.0
 40
1.0
 40
1.0
 10
9.921026625796431
 20
11.92897954949698
 30
0.0
 10
9.919720055009298
 20
11.92895283658604
 30
0.0
 10
9.901320392903736
 20
11.92857665449172
 30
0.0
 10
9.866674594614887
 20
11.93495086934047
 30
0.0
 10
9.81890611885899
 20
11.94791250333526
 30
0.0
 10
9.769529313350546
 20
11.97037935156294
 30
0.0
 10
9.723547141796852
 20
12.00078305818206
 30
0.0
 10
9.68498783477282
 20
12.03617027083635
 30
0.0
 10
9.655897548379578
 20
12.07011540331366
 30
0.0
 10
9.635965662371795
 20
12.0970339422412
 30
0.0
 10
9.623182770334605
 20
12.11349971632888
 30
0.0
 10
9.619079708276075
 20
12.11378570838735
 30
0.0
 10
9.617204732820175
 20
12.11391639812164
 30
0.0
  0
POINT
  5
12E
330
1F
100
AcDbEntity
  8
0
  6
Continuous
 62
     7
370
     0
100
AcDbPoint
 10
9.899875673
 20
13.1474446422
 30
0.0
  0
POINT
  5
12F
330
1F
100
AcDbEntity
  8
0
  6
Continuous
 62
     7
370
     0
100
AcDbPoint
 10
9.9458381411
 20
11.3660917868
 30
0.0
  0
DIMENSION
  5
130
330
1F
100
AcDbEntity
  8
0
  6
Continuous
 62
     7
370
     0
100
AcDbDimension
  2
*D5
 10
12.5700257541
 20
11.3660917868
 30
0.0
 11
12.5700257541
 21
12.2965994988
 31
0.0
 70
   160
 71
     2
 42
-1.0
  3
SLDDIMSTYLE1
100
AcDbAlignedDimension
 13
9.899875673
 23
13.1474446422
 33
0.0
 14
9.9458381411
 24
11.3660917868
 34
0.0
 50
90.0
100
AcDbRotatedDimension
  0
INSERT
  5
155
330
1F
100
AcDbEntity
  8
0
  6
Continuous
 62
     7
370
     0
100
AcDbBlockReference
  2
SW_CENTERMARKSYMBOL_0
 10
9.9253570039
 20
12.2567392996
 30
0.0
  0
ENDSEC
  0
SECTION
  2
OBJECTS
  0
DICTIONARY
  5
C
330
0
100
AcDbDictionary
281
     1
  3
ACAD_GROUP
350
D
  3
ACAD_LAYOUT
350
1A
  3
ACAD_MLINESTYLE
350
17
  3
ACAD_PLOTSETTINGS
350
19
  3
ACAD_PLOTSTYLENAME
350
E
  0
DICTIONARY
  5
D
102
{ACAD_REACTORS
330
C
102
}
330
C
100
AcDbDictionary
281
     1
  0
DICTIONARY
  5
1A
102
{ACAD_REACTORS
330
C
102
}
330
C
100
AcDbDictionary
281
     1
  3
Layout1
350
1E
  3
Layout2
350
26
  3
Model
350
22
  0
DICTIONARY
  5
17
102
{ACAD_REACTORS
330
C
102
}
330
C
100
AcDbDictionary
281
     1
  3
Standard
350
18
  0
DICTIONARY
  5
19
102
{ACAD_REACTORS
330
C
102
}
330
C
100
AcDbDictionary
281
     1
  0
ACDBDICTIONARYWDFLT
  5
E
102
{ACAD_REACTORS
330
C
102
}
330
C
100
AcDbDictionary
281
     1
  3
Normal
350
F
100
AcDbDictionaryWithDefault
340
F
  0
LAYOUT
  5
1E
102
{ACAD_REACTORS
330
1A
102
}
330
1A
100
AcDbPlotSettings
  1

  2
none_device
  4

  6

 40
0.0
 41
0.0
 42
0.0
 43
0.0
 44
0.0
 45
0.0
 46
0.0
 47
0.0
 48
0.0
 49
0.0
140
0.0
141
0.0
142
1.0
143
1.0
 70
   688
 72
     0
 73
     0
 74
     5
  7

 75
    16
147
1.0
148
0.0
149
0.0
100
AcDbLayout
  1
Layout1
 70
     1
 71
     1
 10
0.0
 20
0.0
 11
420.0
 21
297.0
 12
0.0
 22
0.0
 32
0.0
 14
1.0000000000E+20
 24
1.0000000000E+20
 34
1.0000000000E+20
 15
-1.0000000000E+20
 25
-1.0000000000E+20
 35
-1.0000000000E+20
146
0.0
 13
0.0
 23
0.0
 33
0.0
 16
1.0
 26
0.0
 36
0.0
 17
0.0
 27
1.0
 37
0.0
 76
     0
330
1B
  0
LAYOUT
  5
26
102
{ACAD_REACTORS
330
1A
102
}
330
1A
100
AcDbPlotSettings
  1

  2
none_device
  4

  6

 40
0.0
 41
0.0
 42
0.0
 43
0.0
 44
0.0
 45
0.0
 46
0.0
 47
0.0
 48
0.0
 49
0.0
140
0.0
141
0.0
142
1.0
143
1.0
 70
   688
 72
     0
 73
     0
 74
     5
  7

 75
    16
147
1.0
148
0.0
149
0.0
100
AcDbLayout
  1
Layout2
 70
     1
 71
     2
 10
0.0
 20
0.0
 11
0.0
 21
0.0
 12
0.0
 22
0.0
 32
0.0
 14
0.0
 24
0.0
 34
0.0
 15
0.0
 25
0.0
 35
0.0
146
0.0
 13
0.0
 23
0.0
 33
0.0
 16
1.0
 26
0.0
 36
0.0
 17
0.0
 27
1.0
 37
0.0
 76
     0
330
23
  0
LAYOUT
  5
22
102
{ACAD_REACTORS
330
1A
102
}
330
1A
100
AcDbPlotSettings
  1

  2
none_device
  4

  6

 40
0.0
 41
0.0
 42
0.0
 43
0.0
 44
0.0
 45
0.0
 46
0.0
 47
0.0
 48
0.0
 49
0.0
140
0.0
141
0.0
142
1.0
143
1.0
 70
  1712
 72
     0
 73
     0
 74
     0
  7

 75
     0
147
1.0
148
0.0
149
0.0
100
AcDbLayout
  1
Model
 70
     1
 71
     0
 10
0.0
 20
0.0
 11
21.0
 21
29.7
 12
0.0
 22
0.0
 32
0.0
 14
0.0
 24
0.0
 34
0.0
 15
21.0
 25
29.7
 35
0.0
146
0.0
 13
0.0
 23
0.0
 33
0.0
 16
1.0
 26
0.0
 36
0.0
 17
0.0
 27
1.0
 37
0.0
 76
     0
330
1F
331
29
  0
MLINESTYLE
  5
18
102
{ACAD_REACTORS
330
17
102
}
330
17
100
AcDbMlineStyle
  2
Standard
 70
     0
  3

 62
   256
 51
90.0
 52
90.0
 71
     2
 49
0.5
 62
   256
  6
BYLAYER
 49
-0.5
 62
   256
  6
BYLAYER
  0
ACDBPLACEHOLDER
  5
F
102
{ACAD_REACTORS
330
E
102
}
330
E
  0
ENDSEC
  0
EOF
