  0
SECTION
  2
HEADER
  9
$ACADVER
  1
AC1015
  9
$ACADMAINTVER
 70
     6
  9
$DWGCODEPAGE
  3
ANSI_1252
  9
$INSBASE
 10
0.0
 20
0.0
 30
0.0
  9
$EXTMIN
 10
0.0
 20
0.0
 30
0.0
  9
$EXTMAX
 10
21.0
 20
29.7
 30
0.0
  9
$LIMMIN
 10
0.0
 20
0.0
  9
$LIMMAX
 10
21.0
 20
29.7
  9
$ORTHOMODE
 70
     0
  9
$REGENMODE
 70
     1
  9
$FILLMODE
 70
     1
  9
$QTEXTMODE
 70
     0
  9
$MIRRTEXT
 70
     1
  9
$LTSCALE
 40
1.0
  9
$ATTMODE
 70
     1
  9
$TEXTSIZE
 40
0.35
  9
$TRACEWID
 40
1.0
  9
$TEXTSTYLE
  7
Standard
  9
$CLAYER
  8
0
  9
$CELTYPE
  6
ByLayer
  9
$CECOLOR
 62
   256
  9
$CELTSCALE
 40
1.0
  9
$DISPSILH
 70
     0
  9
$DIMSCALE
 40
1.0
  9
$DIMASZ
 40
0.3556
  9
$DIMEXO
 40
0.1
  9
$DIMDLI
 40
3.75
  9
$DIMRND
 40
0.0
  9
$DIMDLE
 40
0.0
  9
$DIMEXE
 40
0.1
  9
$DIMTP
 40
0.0
  9
$DIMTM
 40
0.0
  9
$DIMTXT
 40
0.35
  9
$DIMCEN
 40
2.5
  9
$DIMTSZ
 40
0.0
  9
$DIMTOL
 70
     0
  9
$DIMLIM
 70
     0
  9
$DIMTIH
 70
     1
  9
$DIMTOH
 70
     1
  9
$DIMSE1
 70
     0
  9
$DIMSE2
 70
     0
  9
$DIMTAD
 70
     1
  9
$DIMZIN
 70
     0
  9
$DIMBLK
  1

  9
$DIMASO
 70
     1
  9
$DIMSHO
 70
     1
  9
$DIMPOST
  1

  9
$DIMAPOST
  1

  9
$DIMALT
 70
     0
  9
$DIMALTD
 70
     3
  9
$DIMALTF
 40
0.3937007874
  9
$DIMLFAC
 40
5.0
  9
$DIMTOFL
 70
     1
  9
$DIMTVP
 40
0.0
  9
$DIMTIX
 70
     0
  9
$DIMSOXD
 70
     0
  9
$DIMSAH
 70
     0
  9
$DIMBLK1
  1

  9
$DIMBLK2
  1

  9
$DIMSTYLE
  2
ISO-25
  9
$DIMCLRD
 70
     0
  9
$DIMCLRE
 70
     0
  9
$DIMCLRT
 70
     0
  9
$DIMTFAC
 40
1.0
  9
$DIMGAP
 40
0.1524
  9
$DIMJUST
 70
     0
  9
$DIMSD1
 70
     0
  9
$DIMSD2
 70
     0
  9
$DIMTOLJ
 70
     0
  9
$DIMTZIN
 70
     0
  9
$DIMALTZ
 70
     0
  9
$DIMALTTZ
 70
     0
  9
$DIMUPT
 70
     0
  9
$DIMDEC
 70
     0
  9
$DIMTDEC
 70
     0
  9
$DIMALTU
 70
     2
  9
$DIMALTTD
 70
     3
  9
$DIMTXSTY
  7
Standard
  9
$DIMAUNIT
 70
     0
  9
$DIMADEC
 70
     2
  9
$DIMALTRND
 40
0.0
  9
$DIMAZIN
 70
     0
  9
$DIMDSEP
 70
    44
  9
$DIMATFIT
 70
     3
  9
$DIMFRAC
 70
     0
  9
$DIMLDRBLK
  1

  9
$DIMLUNIT
 70
     2
  9
$DIMLWD
 70
    -2
  9
$DIMLWE
 70
    -2
  9
$DIMTMOVE
 70
     0
  9
$LUNITS
 70
     2
  9
$LUPREC
 70
     0
  9
$SKETCHINC
 40
1.0
  9
$FILLETRAD
 40
10.0
  9
$AUNITS
 70
     0
  9
$AUPREC
 70
     2
  9
$MENU
  1
.
  9
$ELEVATION
 40
0.0
  9
$PELEVATION
 40
0.0
  9
$THICKNESS
 40
0.0
  9
$LIMCHECK
 70
     0
  9
$CHAMFERA
 40
10.0
  9
$CHAMFERB
 40
10.0
  9
$CHAMFERC
 40
20.0
  9
$CHAMFERD
 40
0.0
  9
$SKPOLY
 70
     0
  9
$TDCREATE
 40
2455833.662342465
  9
$TDUCREATE
 40
2455833.579009132
  9
$TDUPDATE
 40
2455833.662342477
  9
$TDUUPDATE
 40
2455833.579009144
  9
$TDINDWG
 40
0.0000000116
  9
$TDUSRTIMER
 40
0.0000000116
  9
$USRTIMER
 70
     1
  9
$ANGBASE
 50
0.0
  9
$ANGDIR
 70
     0
  9
$PDMODE
 70
     0
  9
$PDSIZE
 40
-1.0
  9
$PLINEWID
 40
0.0
  9
$SPLFRAME
 70
     0
  9
$SPLINETYPE
 70
     6
  9
$SPLINESEGS
 70
     8
  9
$HANDSEED
  5
29C
  9
$SURFTAB1
 70
     6
  9
$SURFTAB2
 70
     6
  9
$SURFTYPE
 70
     6
  9
$SURFU
 70
     6
  9
$SURFV
 70
     6
  9
$UCSBASE
  2

  9
$UCSNAME
  2

  9
$UCSORG
 10
0.0
 20
0.0
 30
0.0
  9
$UCSXDIR
 10
1.0
 20
0.0
 30
0.0
  9
$UCSYDIR
 10
0.0
 20
1.0
 30
0.0
  9
$UCSORTHOREF
  2

  9
$UCSORTHOVIEW
 70
     0
  9
$UCSORGTOP
 10
0.0
 20
0.0
 30
0.0
  9
$UCSORGBOTTOM
 10
0.0
 20
0.0
 30
0.0
  9
$UCSORGLEFT
 10
0.0
 20
0.0
 30
0.0
  9
$UCSORGRIGHT
 10
0.0
 20
0.0
 30
0.0
  9
$UCSORGFRONT
 10
0.0
 20
0.0
 30
0.0
  9
$UCSORGBACK
 10
0.0
 20
0.0
 30
0.0
  9
$PUCSBASE
  2

  9
$PUCSNAME
  2

  9
$PUCSORG
 10
0.0
 20
0.0
 30
0.0
  9
$PUCSXDIR
 10
1.0
 20
0.0
 30
0.0
  9
$PUCSYDIR
 10
0.0
 20
1.0
 30
0.0
  9
$PUCSORTHOREF
  2

  9
$PUCSORTHOVIEW
 70
     0
  9
$PUCSORGTOP
 10
0.0
 20
0.0
 30
0.0
  9
$PUCSORGBOTTOM
 10
0.0
 20
0.0
 30
0.0
  9
$PUCSORGLEFT
 10
0.0
 20
0.0
 30
0.0
  9
$PUCSORGRIGHT
 10
0.0
 20
0.0
 30
0.0
  9
$PUCSORGFRONT
 10
0.0
 20
0.0
 30
0.0
  9
$PUCSORGBACK
 10
0.0
 20
0.0
 30
0.0
  9
$USERI1
 70
     0
  9
$USERI2
 70
     0
  9
$USERI3
 70
     0
  9
$USERI4
 70
     0
  9
$USERI5
 70
     0
  9
$USERR1
 40
0.0
  9
$USERR2
 40
0.0
  9
$USERR3
 40
0.0
  9
$USERR4
 40
0.0
  9
$USERR5
 40
0.0
  9
$WORLDVIEW
 70
     1
  9
$SHADEDGE
 70
     3
  9
$SHADEDIF
 70
    70
  9
$TILEMODE
 70
     1
  9
$MAXACTVP
 70
    64
  9
$PINSBASE
 10
0.0
 20
0.0
 30
0.0
  9
$PLIMCHECK
 70
     0
  9
$PEXTMIN
 10
1.0000000000E+20
 20
1.0000000000E+20
 30
1.0000000000E+20
  9
$PEXTMAX
 10
-1.0000000000E+20
 20
-1.0000000000E+20
 30
-1.0000000000E+20
  9
$PLIMMIN
 10
0.0
 20
0.0
  9
$PLIMMAX
 10
420.0
 20
297.0
  9
$UNITMODE
 70
     0
  9
$VISRETAIN
 70
     1
  9
$PLINEGEN
 70
     0
  9
$PSLTSCALE
 70
     1
  9
$TREEDEPTH
 70
  3020
  9
$CMLSTYLE
  2
Standard
  9
$CMLJUST
 70
     0
  9
$CMLSCALE
 40
20.0
  9
$PROXYGRAPHICS
 70
     1
  9
$MEASUREMENT
 70
     1
  9
$CELWEIGHT
370
    -1
  9
$ENDCAPS
280
     0
  9
$JOINSTYLE
280
     0
  9
$LWDISPLAY
290
     1
  9
$INSUNITS
 70
     4
  9
$HYPERLINKBASE
  1

  9
$STYLESHEET
  1

  9
$XEDIT
290
     1
  9
$CEPSNTYPE
380
     0
  9
$PSTYLEMODE
290
     1
  9
$FINGERPRINTGUID
  2
{390B45FD-4266-4E04-9C0D-7020DC104C59}
  9
$VERSIONGUID
  2
{FAEB1C32-E019-11D5-929B-00C0DF256EC4}
  9
$EXTNAMES
290
     1
  9
$PSVPSCALE
 40
0.0
  9
$OLESTARTUP
290
     0
  0
ENDSEC
  0
SECTION
  2
CLASSES
  0
CLASS
  1
ACDBDICTIONARYWDFLT
  2
AcDbDictionaryWithDefault
  3
ObjectDBX Classes
 90
        0
280
     0
281
     0
  0
CLASS
  1
VISUALSTYLE
  2
AcDbVisualStyle
  3
ObjectDBX Classes
 90
     4095
280
     0
281
     0
  0
CLASS
  1
MATERIAL
  2
AcDbMaterial
  3
ObjectDBX Classes
 90
     1153
280
     0
281
     0
  0
CLASS
  1
ACDBPLACEHOLDER
  2
AcDbPlaceHolder
  3
ObjectDBX Classes
 90
        0
280
     0
281
     0
  0
CLASS
  1
LAYOUT
  2
AcDbLayout
  3
ObjectDBX Classes
 90
        0
280
     0
281
     0
  0
ENDSEC
  0
SECTION
  2
TABLES
  0
TABLE
  2
VPORT
  5
8
330
0
100
AcDbSymbolTable
 70
     1
  0
VPORT
  5
29
330
8
100
AcDbSymbolTableRecord
100
AcDbViewportTableRecord
  2
*Active
 70
     0
 10
0.0
 20
0.0
 11
1.0
 21
1.0
 12
10.5
 22
14.85
 13
0.0
 23
0.0
 14
10.0
 24
10.0
 15
10.0
 25
10.0
 16
0.0
 26
0.0
 36
1.0
 17
0.0
 27
0.0
 37
0.0
 40
29.7
 41
0.7070707071
 42
50.0
 43
0.0
 44
0.0
 50
0.0
 51
0.0
 71
     0
 72
  2000
 73
     1
 74
     3
 75
     0
 76
     0
 77
     0
 78
     0
281
     0
 65
     1
110
0.0
120
0.0
130
0.0
111
1.0
121
0.0
131
0.0
112
0.0
122
1.0
132
0.0
 79
     0
146
0.0
  0
ENDTAB
  0
TABLE
  2
LTYPE
  5
5
330
0
100
AcDbSymbolTable
 70
     6
  0
LTYPE
  5
14
330
5
100
AcDbSymbolTableRecord
100
AcDbLinetypeTableRecord
  2
ByBlock
 70
     0
  3

 72
    65
 73
     0
 40
0.0
  0
LTYPE
  5
15
330
5
100
AcDbSymbolTableRecord
100
AcDbLinetypeTableRecord
  2
ByLayer
 70
     0
  3

 72
    65
 73
     0
 40
0.0
  0
LTYPE
  5
16
330
5
100
AcDbSymbolTableRecord
100
AcDbLinetypeTableRecord
  2
Continuous
 70
     0
  3
Solid line
 72
    65
 73
     0
 40
0.0
  0
LTYPE
  5
3F
330
5
100
AcDbSymbolTableRecord
100
AcDbLinetypeTableRecord
  2
HIDDEN
 70
     0
  3
Hidden __ __ __ __ __ __ __ __ __ __ __ __ __ __
 72
    65
 73
     2
 40
0.1905
 49
0.127
 74
     0
 49
-0.0635
 74
     0
  0
LTYPE
  5
40
330
5
100
AcDbSymbolTableRecord
100
AcDbLinetypeTableRecord
  2
PHANTOM
 70
     0
  3
Phantom ______  __  __  ______  __  __  ______
 72
    65
 73
     6
 40
1.27
 49
0.635
 74
     0
 49
-0.127
 74
     0
 49
0.127
 74
     0
 49
-0.127
 74
     0
 49
0.127
 74
     0
 49
-0.127
 74
     0
  0
LTYPE
  5
41
330
5
100
AcDbSymbolTableRecord
100
AcDbLinetypeTableRecord
  2
CENTER
 70
     0
  3
Center ____ _ ____ _ ____ _ ____ _ ____ _ ____
 72
    65
 73
     4
 40
1.016
 49
0.635
 74
     0
 49
-0.127
 74
     0
 49
0.127
 74
     0
 49
-0.127
 74
     0
  0
LTYPE
  5
42
330
5
100
AcDbSymbolTableRecord
100
AcDbLinetypeTableRecord
  2
CENTERX2
 70
     0
  3
Center (2x) ________  __  ________  __  _____
 72
    65
 73
     4
 40
2.032
 49
1.27
 74
     0
 49
-0.254
 74
     0
 49
0.254
 74
     0
 49
-0.254
 74
     0
  0
LTYPE
  5
43
330
5
100
AcDbSymbolTableRecord
100
AcDbLinetypeTableRecord
  2
DOT2
 70
     0
  3
Dot (.5x) ........................................
 72
    65
 73
     2
 40
0.0635
 49
0.0
 74
     0
 49
-0.0635
 74
     0
  0
ENDTAB
  0
TABLE
  2
LAYER
  5
2
330
0
100
AcDbSymbolTable
 70
     2
  0
LAYER
  5
10
330
2
100
AcDbSymbolTableRecord
100
AcDbLayerTableRecord
  2
0
 70
     0
 62
     7
  6
Continuous
370
    -3
390
F
  0
LAYER
  5
44
330
2
100
AcDbSymbolTableRecord
100
AcDbLayerTableRecord
  2
FORMAT
 70
     0
 62
     7
  6
Continuous
370
    -3
390
F
  0
ENDTAB
  0
TABLE
  2
STYLE
  5
3
330
0
100
AcDbSymbolTable
 70
     3
  0
STYLE
  5
11
330
3
100
AcDbSymbolTableRecord
100
AcDbTextStyleTableRecord
  2
Standard
 70
     0
 40
0.0
 41
1.0
 50
0.0
 71
     0
 42
2.5
  3
txt
  4

  0
STYLE
  5
68
330
3
100
AcDbSymbolTableRecord
100
AcDbTextStyleTableRecord
  2
SLDTEXTSTYLE0
 70
     0
 40
0.0
 41
0.75
 50
0.0
 71
     0
 42
0.2
  3
TXT
  4

  0
STYLE
  5
6F
330
3
100
AcDbSymbolTableRecord
100
AcDbTextStyleTableRecord
  2
SLDTEXTSTYLE1
 70
     0
 40
0.0
 41
0.6923076923
 50
0.0
 71
     0
 42
0.2
  3
TXT
  4

  0
ENDTAB
  0
TABLE
  2
VIEW
  5
6
330
0
100
AcDbSymbolTable
 70
     0
  0
ENDTAB
  0
TABLE
  2
UCS
  5
7
330
0
100
AcDbSymbolTable
 70
     0
  0
ENDTAB
  0
TABLE
  2
APPID
  5
9
330
0
100
AcDbSymbolTable
 70
     1
  0
APPID
  5
12
330
9
100
AcDbSymbolTableRecord
100
AcDbRegAppTableRecord
  2
ACAD
 70
     0
  0
ENDTAB
  0
TABLE
  2
DIMSTYLE
  5
A
330
0
100
AcDbSymbolTable
 70
     2
100
AcDbDimStyleTable
  0
DIMSTYLE
105
27
330
A
100
AcDbSymbolTableRecord
100
AcDbDimStyleTableRecord
  2
ISO-25
 70
     0
 41
2.5
 42
0.625
 43
3.75
 44
1.25
 73
     0
 74
     0
 77
     1
 78
     8
140
2.5
141
2.5
143
0.0393700787
147
0.625
171
     3
172
     1
178
     0
271
     2
272
     2
274
     3
278
    44
283
     0
284
     8
340
11
  0
DIMSTYLE
105
13D
102
{ACAD_REACTORS
330
13C
330
286
102
}
330
A
100
AcDbSymbolTableRecord
100
AcDbDimStyleTableRecord
  2
SLDDIMSTYLE0
 70
     0
 41
0.3556
 44
0.0
 45
0.000000001
 73
     0
 74
     0
 77
     1
 78
    12
 79
     3
140
0.35
143
0.3937007874
144
5.0
147
0.0875
148
0.000000001
170
     1
171
     0
173
     1
178
     0
271
     0
272
     0
274
     0
276
     2
284
    12
340
68
341
13E
343
13E
344
13E
  0
ENDTAB
  0
TABLE
  2
BLOCK_RECORD
  5
1
330
0
100
AcDbSymbolTable
 70
     6
  0
BLOCK_RECORD
  5
1F
330
1
100
AcDbSymbolTableRecord
100
AcDbBlockTableRecord
  2
*Model_Space
340
22
  0
BLOCK_RECORD
  5
1B
330
1
100
AcDbSymbolTableRecord
100
AcDbBlockTableRecord
  2
*Paper_Space
340
1E
  0
BLOCK_RECORD
  5
23
330
1
100
AcDbSymbolTableRecord
100
AcDbBlockTableRecord
  2
*Paper_Space0
340
26
  0
BLOCK_RECORD
  5
7A
330
1
100
AcDbSymbolTableRecord
100
AcDbBlockTableRecord
  2
SW_NOTE_0
340
0
102
{BLKREFS
331
80
102
}
  0
BLOCK_RECORD
  5
82
330
1
100
AcDbSymbolTableRecord
100
AcDbBlockTableRecord
  2
SW_NOTE_1
340
0
102
{BLKREFS
331
8B
102
}
  0
BLOCK_RECORD
  5
13E
330
1
100
AcDbSymbolTableRecord
100
AcDbBlockTableRecord
  2
_CLOSED
340
0
102
{BLKREFS
331
148
331
149
331
28A
331
28B
102
}
  0
BLOCK_RECORD
  5
145
330
1
100
AcDbSymbolTableRecord
100
AcDbBlockTableRecord
  2
*D4
340
0
  0
BLOCK_RECORD
  5
287
330
1
100
AcDbSymbolTableRecord
100
AcDbBlockTableRecord
  2
*D5
340
0
  0
ENDTAB
  0
ENDSEC
  0
SECTION
  2
BLOCKS
  0
BLOCK
  5
20
330
1F
100
AcDbEntity
  8
0
100
AcDbBlockBegin
  2
*Model_Space
 70
     0
 10
0.0
 20
0.0
 30
0.0
  3
*Model_Space
  1

  0
ENDBLK
  5
21
330
1F
100
AcDbEntity
  8
0
100
AcDbBlockEnd
  0
BLOCK
  5
1C
330
1B
100
AcDbEntity
 67
     1
  8
0
100
AcDbBlockBegin
  2
*Paper_Space
 70
     0
 10
0.0
 20
0.0
 30
0.0
  3
*Paper_Space
  1

  0
ENDBLK
  5
1D
330
1B
100
AcDbEntity
 67
     1
  8
0
100
AcDbBlockEnd
  0
BLOCK
  5
24
330
23
100
AcDbEntity
  8
0
100
AcDbBlockBegin
  2
*Paper_Space0
 70
     0
 10
0.0
 20
0.0
 30
0.0
  3
*Paper_Space0
  1

  0
ENDBLK
  5
25
330
23
100
AcDbEntity
  8
0
100
AcDbBlockEnd
  0
BLOCK
  5
7B
330
7A
100
AcDbEntity
  8
0
100
AcDbBlockBegin
  2
SW_NOTE_0
 70
     0
 10
0.0
 20
0.0
 30
0.0
  3
SW_NOTE_0
  1

  0
MTEXT
  5
7D
330
7A
100
AcDbEntity
  8
0
  6
Continuous
 62
     0
370
     0
100
AcDbMText
 10
0.0
 20
0.193360161
 30
0.0
 40
0.15
 41
0.0
 71
     1
 72
     1
  1
SBAVATURA E
  7
SLDTEXTSTYLE0
 73
     1
 44
1.0
  0
MTEXT
  5
7E
330
7A
100
AcDbEntity
  8
0
  6
Continuous
 62
     0
370
     0
100
AcDbMText
 10
0.0
 20
-0.0566398334
 30
0.0
 40
0.15
 41
0.0
 71
     1
 72
     1
  1
INTERRUZIONE DEI
  7
SLDTEXTSTYLE0
 73
     1
 44
1.0
  0
MTEXT
  5
7F
330
7A
100
AcDbEntity
  8
0
  6
Continuous
 62
     0
370
     0
100
AcDbMText
 10
0.0
 20
-0.3066398279
 30
0.0
 40
0.15
 41
0.0
 71
     1
 72
     1
  1
BORDI NETTI
  7
SLDTEXTSTYLE0
 73
     1
 44
1.0
  0
ENDBLK
  5
7C
330
7A
100
AcDbEntity
  8
0
100
AcDbBlockEnd
  0
BLOCK
  5
83
330
82
100
AcDbEntity
  8
0
100
AcDbBlockBegin
  2
SW_NOTE_1
 70
     0
 10
0.0
 20
0.0
 30
0.0
  3
SW_NOTE_1
  1

  0
MTEXT
  5
85
330
82
100
AcDbEntity
  8
0
  6
Continuous
 62
     0
370
     0
100
AcDbMText
 10
0.0
 20
0.193360161
 30
0.0
 40
0.15
 41
0.0
 71
     1
 72
     1
  1
SE NON SPECIFICATO:
  7
SLDTEXTSTYLE0
 73
     1
 44
1.0
  0
MTEXT
  5
86
330
82
100
AcDbEntity
  8
0
  6
Continuous
 62
     0
370
     0
100
AcDbMText
 10
0.0
 20
-0.0566398334
 30
0.0
 40
0.15
 41
0.0
 71
     1
 72
     1
  1
QUOTE IN MILLIMETRI
  7
SLDTEXTSTYLE0
 73
     1
 44
1.0
  0
MTEXT
  5
87
330
82
100
AcDbEntity
  8
0
  6
Continuous
 62
     0
370
     0
100
AcDbMText
 10
0.0
 20
-0.3066398279
 30
0.0
 40
0.15
 41
0.0
 71
     1
 72
     1
  1
FINITURA SUPERFICIE:
  7
SLDTEXTSTYLE0
 73
     1
 44
1.0
  0
MTEXT
  5
88
330
82
100
AcDbEntity
  8
0
  6
Continuous
 62
     0
370
     0
100
AcDbMText
 10
0.0
 20
-0.5566398223
 30
0.0
 40
0.15
 41
0.0
 71
     1
 72
     1
  1
TOLLERANZE:
  7
SLDTEXTSTYLE0
 73
     1
 44
1.0
  0
MTEXT
  5
89
330
82
100
AcDbEntity
  8
0
  6
Continuous
 62
     0
370
     0
100
AcDbMText
 10
0.16875
 20
-0.8066398167
 30
0.0
 40
0.15
 41
0.0
 71
     1
 72
     1
  1
LINEARE:
  7
SLDTEXTSTYLE0
 73
     1
 44
1.0
  0
MTEXT
  5
8A
330
82
100
AcDbEntity
  8
0
  6
Continuous
 62
     0
370
     0
100
AcDbMText
 10
0.16875
 20
-1.0566398111
 30
0.0
 40
0.15
 41
0.0
 71
     1
 72
     1
  1
ANGOLARE:
  7
SLDTEXTSTYLE0
 73
     1
 44
1.0
  0
ENDBLK
  5
84
330
82
100
AcDbEntity
  8
0
100
AcDbBlockEnd
  0
BLOCK
  5
13F
330
13E
100
AcDbEntity
  8
0
100
AcDbBlockBegin
  2
_CLOSED
 70
     0
 10
0.0
 20
0.0
 30
0.0
  3
_CLOSED
  1

  0
LINE
  5
141
330
13E
100
AcDbEntity
  8
0
  6
ByBlock
 62
     0
370
    -2
100
AcDbLine
 10
-1.0
 20
0.166667
 30
0.0
 11
0.0
 21
0.0
 31
0.0
  0
LINE
  5
142
330
13E
100
AcDbEntity
  8
0
  6
ByBlock
 62
     0
370
    -2
100
AcDbLine
 10
0.0
 20
0.0
 30
0.0
 11
-1.0
 21
-0.166667
 31
0.0
  0
LINE
  5
143
330
13E
100
AcDbEntity
  8
0
  6
ByBlock
 62
     0
370
    -2
100
AcDbLine
 10
-1.0
 20
0.166667
 30
0.0
 11
-1.0
 21
-0.166667
 31
0.0
  0
LINE
  5
144
330
13E
100
AcDbEntity
  8
0
  6
ByBlock
 62
     0
370
    -2
100
AcDbLine
 10
0.0
 20
0.0
 30
0.0
 11
-1.0
 21
0.0
 31
0.0
  0
ENDBLK
  5
140
330
13E
100
AcDbEntity
  8
0
100
AcDbBlockEnd
  0
BLOCK
  5
146
330
145
100
AcDbEntity
  8
0
100
AcDbBlockBegin
  2
*D4
 70
     1
 10
0.0
 20
0.0
 30
0.0
  3
*D4
  1

  0
INSERT
  5
148
330
145
100
AcDbEntity
  8
0
  6
Continuous
 62
     7
370
     0
100
AcDbBlockReference
  2
_CLOSED
 10
14.5868589494
 20
24.3304533665
 30
0.002
 41
0.3556
 42
0.3556
 50
90.0
  0
INSERT
  5
149
330
145
100
AcDbEntity
  8
0
  6
Continuous
 62
     7
370
     0
100
AcDbBlockReference
  2
_CLOSED
 10
14.5868589494
 20
16.3863159295
 30
0.002
 41
0.3556
 42
0.3556
 50
270.0
  0
LINE
  5
14A
330
145
100
AcDbEntity
  8
0
  6
Continuous
 62
     7
370
     0
100
AcDbLine
 10
13.147800029
 20
19.8259022463
 30
0.0
 11
13.147800029
 21
19.7548084977
 31
0.0
  0
LINE
  5
14B
330
145
100
AcDbEntity
  8
0
  6
Continuous
 62
     7
370
     0
100
AcDbLine
 10
13.147800029
 20
19.7548084977
 30
0.0
 11
14.0631958701
 21
19.7548084977
 31
0.0
  0
LINE
  5
14C
330
145
100
AcDbEntity
  8
0
  6
Continuous
 62
     7
370
     0
100
AcDbLine
 10
14.0631958701
 20
19.7548084977
 30
0.0
 11
14.0631958701
 21
19.8259022463
 31
0.0
  0
LINE
  5
14D
330
145
100
AcDbEntity
  8
0
  6
Continuous
 62
     7
370
     0
100
AcDbLine
 10
13.147800029
 20
21.1289839613
 30
0.0
 11
13.147800029
 21
21.2000777098
 31
0.0
  0
LINE
  5
14E
330
145
100
AcDbEntity
  8
0
  6
Continuous
 62
     7
370
     0
100
AcDbLine
 10
13.147800029
 20
21.2000777098
 30
0.0
 11
14.0631958701
 21
21.2000777098
 31
0.0
  0
LINE
  5
14F
330
145
100
AcDbEntity
  8
0
  6
Continuous
 62
     7
370
     0
100
AcDbLine
 10
14.0631958701
 20
21.2000777098
 30
0.0
 11
14.0631958701
 21
21.1289839613
 31
0.0
  0
LINE
  5
150
330
145
100
AcDbEntity
  8
0
  6
Continuous
 62
     7
370
     0
100
AcDbLine
 10
13.569598649
 20
20.4832763962
 30
0.0
 11
13.569598649
 21
20.844456981
 31
0.0
  0
LINE
  5
151
330
145
100
AcDbEntity
  8
0
  6
Continuous
 62
     7
370
     0
100
AcDbLine
 10
12.5566028044
 20
24.3304533665
 30
0.0
 11
14.6868589494
 21
24.3304533665
 31
0.0
  0
LINE
  5
152
330
145
100
AcDbEntity
  8
0
  6
Continuous
 62
     7
370
     0
100
AcDbLine
 10
12.9482044332
 20
16.3863159295
 30
0.0
 11
14.6868589494
 21
16.3863159295
 31
0.0
  0
LINE
  5
153
330
145
100
AcDbEntity
  8
0
  6
Continuous
 62
     7
370
     0
100
AcDbLine
 10
14.5868589494
 20
24.3304533665
 30
0.0
 11
14.5868589494
 21
16.3863159295
 31
0.0
  0
MTEXT
  5
154
330
145
100
AcDbEntity
  8
0
  6
Continuous
 62
     7
370
     0
100
AcDbMText
 10
14.130338116
 20
19.7034326252
 30
0.002
 40
0.35
 41
0.0
 71
     1
 72
     1
  1

  7
SLDTEXTSTYLE0
 11
-7.044195017643634E-15
 21
1.0
 31
0.0
 73
     1
 44
1.0
  0
MTEXT
  5
155
330
145
100
AcDbEntity
  8
0
  6
Continuous
 62
     7
370
     0
100
AcDbMText
 10
13.4049145248
 20
19.9147694363
 30
0.002
 40
0.35
 41
0.0
 71
     1
 72
     1
  1
15
  7
SLDTEXTSTYLE0
 11
-7.044195017643634E-15
 21
1.0
 31
0.0
 73
     1
 44
1.0
  0
MTEXT
  5
156
330
145
100
AcDbEntity
  8
0
  6
Continuous
 62
     7
370
     0
100
AcDbMText
 10
13.1491957732
 20
20.5345611289
 30
0.002
 40
0.35
 41
0.0
 71
     1
 72
     1
  1
5
  7
SLDTEXTSTYLE0
 11
-7.044195017643634E-15
 21
1.0
 31
0.0
 73
     1
 44
1.0
  0
MTEXT
  5
157
330
145
100
AcDbEntity
  8
0
  6
Continuous
 62
     7
370
     0
100
AcDbMText
 10
13.6120221706
 20
20.5345611289
 30
0.002
 40
0.35
 41
0.0
 71
     1
 72
     1
  1
8
  7
SLDTEXTSTYLE0
 11
-7.044195017643634E-15
 21
1.0
 31
0.0
 73
     1
 44
1.0
  0
MTEXT
  5
158
330
145
100
AcDbEntity
  8
0
  6
Continuous
 62
     7
370
     0
100
AcDbMText
 10
13.4049145248
 20
20.8957417487
 30
0.002
 40
0.35
 41
0.0
 71
     1
 72
     1
  1
"
  7
SLDTEXTSTYLE0
 11
-7.044195017643634E-15
 21
1.0
 31
0.0
 73
     1
 44
1.0
  0
MTEXT
  5
159
330
145
100
AcDbEntity
  8
0
  6
Continuous
 62
     7
370
     0
100
AcDbMText
 10
14.1356853802
 20
20.0766444757
 30
0.002
 40
0.35
 41
0.0
 71
     1
 72
     1
  1
40
  7
SLDTEXTSTYLE0
 11
-7.044195017643634E-15
 21
1.0
 31
0.0
 73
     1
 44
1.0
  0
MTEXT
  5
15A
330
145
100
AcDbEntity
  8
0
  6
Continuous
 62
     7
370
     0
100
AcDbMText
 10
14.130338116
 20
21.3846479412
 30
0.002
 40
0.35
 41
0.0
 71
     1
 72
     1
  1

  7
SLDTEXTSTYLE0
 11
-7.044195017643634E-15
 21
1.0
 31
0.0
 73
     1
 44
1.0
  0
ENDBLK
  5
147
330
145
100
AcDbEntity
  8
0
100
AcDbBlockEnd
  0
BLOCK
  5
288
330
287
100
AcDbEntity
  8
0
100
AcDbBlockBegin
  2
*D5
 70
     1
 10
0.0
 20
0.0
 30
0.0
  3
*D5
  1

  0
INSERT
  5
28A
330
287
100
AcDbEntity
  8
0
  6
Continuous
 62
     7
370
     0
100
AcDbBlockReference
  2
_CLOSED
 10
14.5868589494
 20
13.5206400778
 30
-0.7232258016
 41
0.3556
 42
0.3556
 50
90.0
  0
INSERT
  5
28B
330
287
100
AcDbEntity
  8
0
  6
Continuous
 62
     7
370
     0
100
AcDbBlockReference
  2
_CLOSED
 10
14.5868589494
 20
8.3406400778
 30
-0.7232258016
 41
0.3556
 42
0.3556
 50
270.0
  0
LINE
  5
28C
330
287
100
AcDbEntity
  8
0
  6
Continuous
 62
     7
370
     0
100
AcDbLine
 10
13.147800029
 20
10.1775966754
 30
0.0
 11
13.147800029
 21
10.1065029269
 31
0.0
  0
LINE
  5
28D
330
287
100
AcDbEntity
  8
0
  6
Continuous
 62
     7
370
     0
100
AcDbLine
 10
13.147800029
 20
10.1065029269
 30
0.0
 11
14.0631958701
 21
10.1065029269
 31
0.0
  0
LINE
  5
28E
330
287
100
AcDbEntity
  8
0
  6
Continuous
 62
     7
370
     0
100
AcDbLine
 10
14.0631958701
 20
10.1065029269
 30
0.0
 11
14.0631958701
 21
10.1775966754
 31
0.0
  0
LINE
  5
28F
330
287
100
AcDbEntity
  8
0
  6
Continuous
 62
     7
370
     0
100
AcDbLine
 10
13.147800029
 20
11.4806783904
 30
0.0
 11
13.147800029
 21
11.551772139
 31
0.0
  0
LINE
  5
290
330
287
100
AcDbEntity
  8
0
  6
Continuous
 62
     7
370
     0
100
AcDbLine
 10
13.147800029
 20
11.551772139
 30
0.0
 11
14.0631958701
 21
11.551772139
 31
0.0
  0
LINE
  5
291
330
287
100
AcDbEntity
  8
0
  6
Continuous
 62
     7
370
     0
100
AcDbLine
 10
14.0631958701
 20
11.551772139
 30
0.0
 11
14.0631958701
 21
11.4806783904
 31
0.0
  0
LINE
  5
292
330
287
100
AcDbEntity
  8
0
  6
Continuous
 62
     7
370
     0
100
AcDbLine
 10
13.569598649
 20
10.8349708253
 30
0.0
 11
13.569598649
 21
11.1961514102
 31
0.0
  0
LINE
  5
293
330
287
100
AcDbEntity
  8
0
  6
Continuous
 62
     7
370
     0
100
AcDbLine
 10
10.4968589494
 20
13.5206400778
 30
0.0
 11
14.6868589494
 21
13.5206400778
 31
0.0
  0
LINE
  5
294
330
287
100
AcDbEntity
  8
0
  6
Continuous
 62
     7
370
     0
100
AcDbLine
 10
10.4968589494
 20
8.3406400778
 30
0.0
 11
14.6868589494
 21
8.3406400778
 31
0.0
  0
LINE
  5
295
330
287
100
AcDbEntity
  8
0
  6
Continuous
 62
     7
370
     0
100
AcDbLine
 10
14.5868589494
 20
13.5206400778
 30
0.0
 11
14.5868589494
 21
8.3406400778
 31
0.0
  0
MTEXT
  5
296
330
287
100
AcDbEntity
  8
0
  6
Continuous
 62
     7
370
     0
100
AcDbMText
 10
13.4049145248
 20
10.2664638655
 30
-0.7232258016
 40
0.35
 41
0.0
 71
     1
 72
     1
  1
10
  7
SLDTEXTSTYLE0
 11
-7.044195017643634E-15
 21
1.0
 31
0.0
 73
     1
 44
1.0
  0
MTEXT
  5
297
330
287
100
AcDbEntity
  8
0
  6
Continuous
 62
     7
370
     0
100
AcDbMText
 10
13.1491957732
 20
10.8862555581
 30
-0.7232258016
 40
0.35
 41
0.0
 71
     1
 72
     1
  1
1
  7
SLDTEXTSTYLE0
 11
-7.044195017643634E-15
 21
1.0
 31
0.0
 73
     1
 44
1.0
  0
MTEXT
  5
298
330
287
100
AcDbEntity
  8
0
  6
Continuous
 62
     7
370
     0
100
AcDbMText
 10
13.6120221706
 20
10.8862555581
 30
-0.7232258016
 40
0.35
 41
0.0
 71
     1
 72
     1
  1
4
  7
SLDTEXTSTYLE0
 11
-7.044195017643634E-15
 21
1.0
 31
0.0
 73
     1
 44
1.0
  0
MTEXT
  5
299
330
287
100
AcDbEntity
  8
0
  6
Continuous
 62
     7
370
     0
100
AcDbMText
 10
13.4049145248
 20
11.2474361779
 30
-0.7232258016
 40
0.35
 41
0.0
 71
     1
 72
     1
  1
"
  7
SLDTEXTSTYLE0
 11
-7.044195017643634E-15
 21
1.0
 31
0.0
 73
     1
 44
1.0
  0
MTEXT
  5
29A
330
287
100
AcDbEntity
  8
0
  6
Continuous
 62
     7
370
     0
100
AcDbMText
 10
14.1356853802
 20
10.1644170349
 30
-0.7232258016
 40
0.35
 41
0.0
 71
     1
 72
     1
  1
%%c
  7
SLDTEXTSTYLE0
 11
-7.044195017643634E-15
 21
1.0
 31
0.0
 73
     1
 44
1.0
  0
MTEXT
  5
29B
330
287
100
AcDbEntity
  8
0
  6
Continuous
 62
     7
370
     0
100
AcDbMText
 10
14.1356853802
 20
10.6922607747
 30
-0.7232258016
 40
0.35
 41
0.0
 71
     1
 72
     1
  1
26
  7
SLDTEXTSTYLE0
 11
-7.044195017643634E-15
 21
1.0
 31
0.0
 73
     1
 44
1.0
  0
ENDBLK
  5
289
330
287
100
AcDbEntity
  8
0
100
AcDbBlockEnd
  0
ENDSEC
  0
SECTION
  2
ENTITIES
  0
LINE
  5
45
330
1F
100
AcDbEntity
  8
0
  6
Continuous
 62
     7
370
    40
100
AcDbLine
 10
1.0078843565
 20
0.5214780157
 30
0.0
 11
20.5078843565
 21
0.5214780157
 31
0.0
  0
LINE
  5
46
330
1F
100
AcDbEntity
  8
0
  6
Continuous
 62
     7
370
    40
100
AcDbLine
 10
0.0078843565
 20
0.0214780157
 30
0.0
 11
21.0078843565
 21
0.0214780157
 31
0.0
  0
LINE
  5
47
330
1F
100
AcDbEntity
  8
0
  6
Continuous
 62
     7
370
    40
100
AcDbLine
 10
0.0078843565
 20
0.0214780157
 30
0.0
 11
0.0078843565
 21
29.7214780157
 31
0.0
  0
LINE
  5
48
330
1F
100
AcDbEntity
  8
0
  6
Continuous
 62
     7
370
    40
100
AcDbLine
 10
0.0078843565
 20
29.7214780157
 30
0.0
 11
21.0078843565
 21
29.7214780157
 31
0.0
  0
LINE
  5
49
330
1F
100
AcDbEntity
  8
0
  6
Continuous
 62
     7
370
    40
100
AcDbLine
 10
21.0078843565
 20
0.0214780157
 30
0.0
 11
21.0078843565
 21
29.7214780157
 31
0.0
  0
LINE
  5
4A
330
1F
100
AcDbEntity
  8
0
  6
Continuous
 62
     7
370
    40
100
AcDbLine
 10
1.0078843565
 20
29.2214780157
 30
0.0
 11
20.5078843565
 21
29.2214780157
 31
0.0
  0
LINE
  5
4B
330
1F
100
AcDbEntity
  8
0
  6
Continuous
 62
     7
370
    40
100
AcDbLine
 10
20.5078843565
 20
0.5214780157
 30
0.0
 11
18.0988311848
 21
0.5214780157
 31
0.0
  0
LINE
  5
4C
330
1F
100
AcDbEntity
  8
0
  6
Continuous
 62
     7
370
    40
100
AcDbLine
 10
1.0078843565
 20
0.5214780157
 30
0.0
 11
1.0078843565
 21
29.2214780157
 31
0.0
  0
LINE
  5
4D
330
1F
100
AcDbEntity
  8
0
  6
Continuous
 62
     7
370
    40
100
AcDbLine
 10
1.0110820912
 20
0.9370927258
 30
0.0
 11
20.5078843565
 21
0.9370927258
 31
0.0
  0
LINE
  5
4E
330
1F
100
AcDbEntity
  8
0
  6
Continuous
 62
     7
370
    40
100
AcDbLine
 10
20.5078843565
 20
4.3370927258
 30
0.0
 11
1.0110820912
 21
4.3370927258
 31
0.0
  0
LINE
  5
4F
330
1F
100
AcDbEntity
  8
0
  6
Continuous
 62
     7
370
    40
100
AcDbLine
 10
1.0110820912
 20
6.0370927258
 30
0.0
 11
20.5078843565
 21
6.0370927258
 31
0.0
  0
LINE
  5
50
330
1F
100
AcDbEntity
  8
0
  6
Continuous
 62
     7
370
    40
100
AcDbLine
 10
21.0078843565
 20
29.2214780157
 30
0.0
 11
21.0078843565
 21
29.7214780157
 31
0.0
  0
LINE
  5
51
330
1F
100
AcDbEntity
  8
0
  6
Continuous
 62
     7
370
    40
100
AcDbLine
 10
3.7101773345
 20
4.3370927258
 30
0.0
 11
3.7101773345
 21
0.5120927258
 31
0.0
  0
LINE
  5
52
330
1F
100
AcDbEntity
  8
0
  6
Continuous
 62
     7
370
    40
100
AcDbLine
 10
10.8910820912
 20
2.6370927258
 30
0.0
 11
1.0110820912
 21
2.6370927258
 31
0.0
  0
LINE
  5
53
330
1F
100
AcDbEntity
  8
0
  6
Continuous
 62
     7
370
    40
100
AcDbLine
 10
10.8910820912
 20
3.0620927258
 30
0.0
 11
1.0110820912
 21
3.0620927258
 31
0.0
  0
LINE
  5
54
330
1F
100
AcDbEntity
  8
0
  6
Continuous
 62
     7
370
    40
100
AcDbLine
 10
10.8910820912
 20
3.4870927258
 30
0.0
 11
1.0110820912
 21
3.4870927258
 31
0.0
  0
LINE
  5
55
330
1F
100
AcDbEntity
  8
0
  6
Continuous
 62
     7
370
    40
100
AcDbLine
 10
10.8910820912
 20
3.9120927258
 30
0.0
 11
1.0110820912
 21
3.9120927258
 31
0.0
  0
LINE
  5
56
330
1F
100
AcDbEntity
  8
0
  6
Continuous
 62
     7
370
    40
100
AcDbLine
 10
6.4710820912
 20
0.5120927258
 30
0.0
 11
6.4710820912
 21
4.3370927258
 31
0.0
  0
LINE
  5
57
330
1F
100
AcDbEntity
  8
0
  6
Continuous
 62
     7
370
    40
100
AcDbLine
 10
1.0110820912
 20
6.0370927258
 30
0.0
 11
1.0110820912
 21
0.5120927258
 31
0.0
  0
LINE
  5
58
330
1F
100
AcDbEntity
  8
0
  6
Continuous
 62
     7
370
    40
100
AcDbLine
 10
2.3529807256
 20
4.3370927258
 30
0.0
 11
2.3529807256
 21
0.5214780157
 31
0.0
  0
LINE
  5
59
330
1F
100
AcDbEntity
  8
0
  6
Continuous
 62
     7
370
    40
100
AcDbLine
 10
4.3910820912
 20
4.3370927258
 30
0.0
 11
4.3910820912
 21
6.0370927258
 31
0.0
  0
LINE
  5
5A
330
1F
100
AcDbEntity
  8
0
  6
Continuous
 62
     7
370
    40
100
AcDbLine
 10
5.4509747075
 20
4.3370927258
 30
0.0
 11
5.4509747075
 21
0.5120927258
 31
0.0
  0
LINE
  5
5B
330
1F
100
AcDbEntity
  8
0
  6
Continuous
 62
     7
370
    40
100
AcDbLine
 10
7.5110820912
 20
2.6370927258
 30
0.0
 11
7.5110820912
 21
4.3370927258
 31
0.0
  0
LINE
  5
5C
330
1F
100
AcDbEntity
  8
0
  6
Continuous
 62
     7
370
    40
100
AcDbLine
 10
6.4710820912
 20
1.3620927258
 30
0.0
 11
1.0110820912
 21
1.3620927258
 31
0.0
  0
LINE
  5
5D
330
1F
100
AcDbEntity
  8
0
  6
Continuous
 62
     7
370
    40
100
AcDbLine
 10
9.0710820912
 20
6.0370927258
 30
0.0
 11
9.0710820912
 21
2.2120927258
 31
0.0
  0
LINE
  5
5E
330
1F
100
AcDbEntity
  8
0
  6
Continuous
 62
     7
370
    40
100
AcDbLine
 10
6.4710820912
 20
1.7870855258
 30
0.0
 11
1.0110820912
 21
1.7870855258
 31
0.0
  0
LINE
  5
5F
330
1F
100
AcDbEntity
  8
0
  6
Continuous
 62
     7
370
    40
100
AcDbLine
 10
6.4710820912
 20
2.2120927258
 30
0.0
 11
1.0110820912
 21
2.2120927258
 31
0.0
  0
LINE
  5
60
330
1F
100
AcDbEntity
  8
0
  6
Continuous
 62
     7
370
    40
100
AcDbLine
 10
6.4710820912
 20
2.2120927258
 30
0.0
 11
20.5078843565
 21
2.2120927258
 31
0.0
  0
LINE
  5
61
330
1F
100
AcDbEntity
  8
0
  6
Continuous
 62
     7
370
    40
100
AcDbLine
 10
10.8910820912
 20
6.0370927258
 30
0.0
 11
10.8910820912
 21
0.5120927258
 31
0.0
  0
LINE
  5
62
330
1F
100
AcDbEntity
  8
0
  6
Continuous
 62
     7
370
    40
100
AcDbLine
 10
16.0878843565
 20
0.5214780157
 30
0.0
 11
16.0878843565
 21
0.9464780157
 31
0.0
  0
LINE
  5
63
330
1F
100
AcDbEntity
  8
0
  6
Continuous
 62
     7
370
    40
100
AcDbLine
 10
16.8678843565
 20
5.4089780157
 30
0.0
 11
16.8678843565
 21
6.0464780157
 31
0.0
  0
LINE
  5
64
330
1F
100
AcDbEntity
  8
0
  6
Continuous
 62
     7
370
    40
100
AcDbLine
 10
19.2078843565
 20
0.9464780157
 30
0.0
 11
19.2078843565
 21
2.2214780157
 31
0.0
  0
LINE
  5
65
330
1F
100
AcDbEntity
  8
0
  6
Continuous
 62
     7
370
    40
100
AcDbLine
 10
20.5078843565
 20
5.3995927258
 30
0.0
 11
10.8910820912
 21
5.3995927258
 31
0.0
  0
LINE
  5
66
330
1F
100
AcDbEntity
  8
0
  6
Continuous
 62
     7
370
    40
100
AcDbLine
 10
20.5078843565
 20
1.3714780157
 30
0.0
 11
19.2078843565
 21
1.3714780157
 31
0.0
  0
LINE
  5
67
330
1F
100
AcDbEntity
  8
0
  6
Continuous
 62
     7
370
    40
100
AcDbLine
 10
20.5078843565
 20
0.5214780157
 30
0.0
 11
20.5078843565
 21
29.2214780157
 31
0.0
  0
MTEXT
  5
69
330
1F
100
AcDbEntity
  8
0
  6
Continuous
 62
     7
370
     0
100
AcDbMText
 10
15.7458736745
 20
3.5849896778
 30
0.0
 40
0.5291666667
 41
0.0
 71
     2
 72
     1
  1
$PRPSHEET:\{Descrizione\}
  7
SLDTEXTSTYLE0
 73
     1
 44
1.0
  0
MTEXT
  5
6A
330
1F
100
AcDbEntity
  8
0
  6
Continuous
 62
     7
370
     0
100
AcDbMText
 10
15.8060921265
 20
1.9846518799
 30
0.0
 40
0.635
 41
0.0
 71
     2
 72
     1
  1
Disegno31
  7
SLDTEXTSTYLE0
 73
     1
 44
1.0
  0
MTEXT
  5
6B
330
1F
100
AcDbEntity
  8
0
  6
Continuous
 62
     7
370
     0
100
AcDbMText
 10
6.572863204
 20
0.8070239161
 30
0.0
 40
0.14986
 41
0.0
 71
     1
 72
     1
  1
PESO: $PRPSHEET:\{Peso\}
  7
SLDTEXTSTYLE0
 73
     1
 44
1.0
  0
MTEXT
  5
6C
330
1F
100
AcDbEntity
  8
0
  6
Continuous
 62
     7
370
     0
100
AcDbMText
 10
6.917245415
 20
5.3102097813
 30
0.0
 40
0.238125
 41
0.0
 71
     2
 72
     1
  1
$PRPSHEET:\{Fine\}
  7
SLDTEXTSTYLE0
 73
     1
 44
1.0
  0
MTEXT
  5
6D
330
1F
100
AcDbEntity
  8
0
  6
Continuous
 62
     7
370
     0
100
AcDbMText
 10
8.9081811541
 20
1.6606492949
 30
0.0
 40
0.238125
 41
0.0
 71
     2
 72
     1
  1
$PRPSHEET:\{Materiale\}
  7
SLDTEXTSTYLE0
 73
     1
 44
1.0
  0
MTEXT
  5
6E
330
1F
100
AcDbEntity
  8
0
  6
Continuous
 62
     7
370
     0
100
AcDbMText
 10
19.5999828412
 20
1.9515224668
 30
0.0
 40
0.2910416667
 41
0.0
 71
     1
 72
     1
  1
A4
  7
SLDTEXTSTYLE0
 73
     1
 44
1.0
  0
MTEXT
  5
70
330
1F
100
AcDbEntity
  8
0
  6
Continuous
 62
     7
370
     0
100
AcDbMText
 10
16.2357137993
 20
0.8114867431
 30
0.0
 40
0.15
 41
0.0
 71
     1
 72
     1
  1
FOGLIO 1 DI 1
  7
SLDTEXTSTYLE1
 73
     1
 44
1.0
  0
MTEXT
  5
71
330
1F
100
AcDbEntity
  8
0
  6
Continuous
 62
     7
370
     0
100
AcDbMText
 10
11.0184787029
 20
0.8021014532
 30
0.0
 40
0.15
 41
0.0
 71
     1
 72
     1
  1
SCALA:1:5
  7
SLDTEXTSTYLE0
 73
     1
 44
1.0
  0
MTEXT
  5
72
330
1F
100
AcDbEntity
  8
0
  6
Continuous
 62
     7
370
     0
100
AcDbMText
 10
11.0184787029
 20
1.9989565085
 30
0.0
 40
0.15
 41
0.0
 71
     1
 72
     1
  1
N. DISEGNO
  7
SLDTEXTSTYLE0
 73
     1
 44
1.0
  0
MTEXT
  5
73
330
1F
100
AcDbEntity
  8
0
  6
Continuous
 62
     7
370
     0
100
AcDbMText
 10
11.0067007848
 20
4.1399261544
 30
0.0
 40
0.15
 41
0.0
 71
     1
 72
     1
  1
TITOLO:
  7
SLDTEXTSTYLE0
 73
     1
 44
1.0
  0
MTEXT
  5
74
330
1F
100
AcDbEntity
  8
0
  6
Continuous
 62
     7
370
     0
100
AcDbMText
 10
17.1206425265
 20
5.7549688837
 30
0.0
 40
0.15
 41
0.0
 71
     1
 72
     1
  1
REVISIONE
  7
SLDTEXTSTYLE0
 73
     1
 44
1.0
  0
MTEXT
  5
75
330
1F
100
AcDbEntity
  8
0
  6
Continuous
 62
     7
370
     0
100
AcDbMText
 10
13.0493484088
 20
5.7747773732
 30
0.0
 40
0.15
 41
0.0
 71
     1
 72
     1
  1
NON SCALARE IL DISEGNO
  7
SLDTEXTSTYLE0
 73
     1
 44
1.0
  0
MTEXT
  5
76
330
1F
100
AcDbEntity
  8
0
  6
Continuous
 62
     7
370
     0
100
AcDbMText
 10
6.575668322
 20
2.1106983547
 30
0.0
 40
0.15
 41
0.0
 71
     1
 72
     1
  1
MATERIALE:
  7
SLDTEXTSTYLE0
 73
     1
 44
1.0
  0
MTEXT
  5
77
330
1F
100
AcDbEntity
  8
0
  6
Continuous
 62
     7
370
     0
100
AcDbMText
 10
5.7325522877
 20
4.1697106479
 30
0.0
 40
0.15
 41
0.0
 71
     1
 72
     1
  1
DATA
  7
SLDTEXTSTYLE0
 73
     1
 44
1.0
  0
MTEXT
  5
78
330
1F
100
AcDbEntity
  8
0
  6
Continuous
 62
     7
370
     0
100
AcDbMText
 10
4.0144408475
 20
4.1682683637
 30
0.0
 40
0.15
 41
0.0
 71
     1
 72
     1
  1
FIRMA
  7
SLDTEXTSTYLE0
 73
     1
 44
1.0
  0
MTEXT
  5
79
330
1F
100
AcDbEntity
  8
0
  6
Continuous
 62
     7
370
     0
100
AcDbMText
 10
2.4433060129
 20
4.1622409891
 30
0.0
 40
0.15
 41
0.0
 71
     1
 72
     1
  1
NOME
  7
SLDTEXTSTYLE0
 73
     1
 44
1.0
  0
INSERT
  5
80
330
1F
100
AcDbEntity
  8
0
  6
Continuous
 62
     7
370
     0
100
AcDbBlockReference
  2
SW_NOTE_0
 10
9.1420036598
 20
5.7190416901
 30
0.0
  0
MTEXT
  5
81
330
1F
100
AcDbEntity
  8
0
  6
Continuous
 62
     7
370
     0
100
AcDbMText
 10
4.4482113078
 20
5.9040199253
 30
0.0
 40
0.15
 41
0.0
 71
     1
 72
     1
  1
FINITURA:
  7
SLDTEXTSTYLE0
 73
     1
 44
1.0
  0
INSERT
  5
8B
330
1F
100
AcDbEntity
  8
0
  6
Continuous
 62
     7
370
     0
100
AcDbBlockReference
  2
SW_NOTE_1
 10
1.0704489657
 20
5.7108297132
 30
0.0
  0
MTEXT
  5
8C
330
1F
100
AcDbEntity
  8
0
  6
Continuous
 62
     7
370
     0
100
AcDbMText
 10
1.0779863774
 20
2.0470576465
 30
0.0
 40
0.15
 41
0.0
 71
     1
 72
     1
  1
QUALITA'
  7
SLDTEXTSTYLE0
 73
     1
 44
1.0
  0
MTEXT
  5
8D
330
1F
100
AcDbEntity
  8
0
  6
Continuous
 62
     7
370
     0
100
AcDbMText
 10
1.0566007411
 20
2.4854631908
 30
0.0
 40
0.15
 41
0.0
 71
     1
 72
     1
  1
FATTO
  7
SLDTEXTSTYLE0
 73
     1
 44
1.0
  0
MTEXT
  5
8E
330
1F
100
AcDbEntity
  8
0
  6
Continuous
 62
     7
370
     0
100
AcDbMText
 10
1.051254332
 20
2.9185223261
 30
0.0
 40
0.15
 41
0.0
 71
     1
 72
     1
  1
APPROVATO
  7
SLDTEXTSTYLE0
 73
     1
 44
1.0
  0
MTEXT
  5
8F
330
1F
100
AcDbEntity
  8
0
  6
Continuous
 62
     7
370
     0
100
AcDbMText
 10
1.0521289779
 20
3.3275334418
 30
0.0
 40
0.15
 41
0.0
 71
     1
 72
     1
  1
VERIFICATO
  7
SLDTEXTSTYLE0
 73
     1
 44
1.0
  0
MTEXT
  5
90
330
1F
100
AcDbEntity
  8
0
  6
Continuous
 62
     7
370
     0
100
AcDbMText
 10
1.0322970156
 20
3.7550642144
 30
0.0
 40
0.15
 41
0.0
 71
     1
 72
     1
  1
DISEGNATO
  7
SLDTEXTSTYLE0
 73
     1
 44
1.0
  0
SPLINE
  5
91
330
1F
100
AcDbEntity
  8
0
  6
Continuous
 62
     7
370
    15
100
AcDbSpline
210
0.0
220
0.0
230
1.0
 70
     8
 71
     3
 72
    14
 73
    10
 74
     0
 42
0.00000001
 43
0.00000001
 40
0.0
 40
0.0
 40
0.0
 40
0.0
 40
0.1243256992467357
 40
0.2936848708503464
 40
0.4596864146996819
 40
0.6231813283690861
 40
0.789025611499891
 40
0.9532574530894626
 40
1.0
 40
1.0
 40
1.0
 40
1.0
 10
9.148504609195255
 20
17.00825876252708
 30
0.0
 10
9.143444213167069
 20
16.99913613026678
 30
0.0
 10
9.13149043560544
 20
16.97758644992383
 30
0.0
 10
9.116552577108317
 20
16.93933430869171
 30
0.0
 10
9.103549511721106
 20
16.89480605739449
 30
0.0
 10
9.094533782405135
 20
16.84786588867194
 30
0.0
 10
9.08945547052848
 20
16.79922452437538
 30
0.0
 10
9.087516234786833
 20
16.76117121619495
 30
0.0
 10
9.088512323405862
 20
16.73973321478726
 30
0.0
 10
9.088733012368788
 20
16.73498350657106
 30
0.0
  0
ARC
  5
92
330
1F
100
AcDbEntity
  8
0
  6
Continuous
 62
     7
370
    15
100
AcDbCircle
 10
9.098799751
 20
16.3963159295
 30
0.0
 40
0.0100000000000012
100
AcDbArc
 50
180.8301242246
 51
270.0
  0
LINE
  5
93
330
1F
100
AcDbEntity
  8
0
  6
Continuous
 62
     7
370
    15
100
AcDbLine
 10
9.0883956646
 20
16.7247369892
 30
0.0
 11
9.0887997586
 21
16.3963036258
 31
0.0
  0
SPLINE
  5
94
330
1F
100
AcDbEntity
  8
0
  6
Continuous
 62
     7
370
    15
100
AcDbSpline
210
0.0
220
0.0
230
1.0
 70
     8
 71
     3
 72
     9
 73
     5
 74
     0
 42
0.00000001
 43
0.00000001
 40
0.0
 40
0.0
 40
0.0
 40
0.0
 40
0.700666271582628
 40
1.0
 40
1.0
 40
1.0
 40
1.0
 10
9.08827450287839
 20
16.7350193244894
 30
0.0
 10
9.088322648311525
 20
16.73261871311952
 30
0.0
 10
9.0883913620988
 20
16.72919252940378
 30
0.0
 10
9.088389229963962
 20
16.72576276473624
 30
0.0
 10
9.08838859174409
 20
16.72473612049071
 30
0.0
  0
ARC
  5
95
330
1F
100
AcDbEntity
  8
0
  6
Continuous
 62
     7
370
    15
100
AcDbCircle
 10
9.300974259
 20
16.3963159295
 30
0.0
 40
0.0099999999999992
100
AcDbArc
 50
270.0
 51
356.7278423316
  0
LINE
  5
96
330
1F
100
AcDbEntity
  8
0
  6
Continuous
 62
     7
370
    15
100
AcDbLine
 10
9.310966646
 20
16.3959258006
 30
0.0
 11
9.3238806121
 21
16.7266917751
 31
0.0
  0
SPLINE
  5
97
330
1F
100
AcDbEntity
  8
0
  6
Continuous
 62
     7
370
    15
100
AcDbSpline
210
0.0
220
0.0
230
1.0
 70
     8
 71
     3
 72
    13
 73
     9
 74
     0
 42
0.00000001
 43
0.00000001
 40
0.0
 40
0.0
 40
0.0
 40
0.0
 40
0.0290515696443503
 40
0.2291464259595528
 40
0.4406531442065153
 40
0.6646967465493685
 40
0.8475325741887999
 40
1.0
 40
1.0
 40
1.0
 40
1.0
 10
9.323909975433471
 20
16.72668085064633
 30
0.0
 10
9.323961531219494
 20
16.72806801427146
 30
0.0
 10
9.324368181333393
 20
16.7390093709971
 30
0.0
 10
9.326620733358832
 20
16.75965769630179
 30
0.0
 10
9.331973929714543
 20
16.7876545581638
 30
0.0
 10
9.33923134893447
 20
16.81227737613182
 30
0.0
 10
9.34684755258806
 20
16.83147528077465
 30
0.0
 10
9.351985301207458
 20
16.83995550601019
 30
0.0
 10
9.354321512676938
 20
16.84381159180314
 30
0.0
  0
LINE
  5
98
330
1F
100
AcDbEntity
  8
0
  6
Continuous
 62
     7
370
    15
100
AcDbLine
 10
9.1551099718
 20
17.0218376812
 30
0.0
 11
9.1480999226
 21
17.008715452
 31
0.0
  0
LINE
  5
99
330
1F
100
AcDbEntity
  8
0
  6
Continuous
 62
     7
370
    15
100
AcDbLine
 10
9.9723929834
 20
18.5772539718
 30
0.0
 11
9.1551072489
 21
17.0211064226
 31
0.0
  0
LINE
  5
9A
330
1F
100
AcDbEntity
  8
0
  6
Continuous
 62
     7
370
    15
100
AcDbLine
 10
9.3538495106
 20
16.8433741475
 30
0.0
 11
10.236183342
 21
18.2220836281
 31
0.0
  0
SPLINE
  5
9B
330
1F
100
AcDbEntity
  8
0
  6
Continuous
 62
     7
370
    15
100
AcDbSpline
210
0.0
220
0.0
230
1.0
 70
     8
 71
     3
 72
     9
 73
     5
 74
     0
 42
0.00000001
 43
0.00000001
 40
0.0
 40
0.0
 40
0.0
 40
0.0
 40
0.6460990581824143
 40
1.0
 40
1.0
 40
1.0
 40
1.0
 10
9.986046128857257
 20
18.60436060880302
 30
0.0
 10
9.983211230311205
 20
18.59855483409874
 30
0.0
 10
9.978823515284924
 20
18.58956894465847
 30
0.0
 10
9.97399425843676
 20
18.58039680493135
 30
0.0
 10
9.972285179889914
 20
18.57715077604344
 30
0.0
  0
SPLINE
  5
9C
330
1F
100
AcDbEntity
  8
0
  6
Continuous
 62
     7
370
    15
100
AcDbSpline
210
0.0
220
0.0
230
1.0
 70
     8
 71
     3
 72
    19
 73
    15
 74
     0
 42
0.00000001
 43
0.00000001
 40
0.0
 40
0.0
 40
0.0
 40
0.0
 40
0.0649174947958445
 40
0.139756047698424
 40
0.2075549283518073
 40
0.2804393225194187
 40
0.3613117167352105
 40
0.4528547950197354
 40
0.5561034283985289
 40
0.6672991291037528
 40
0.7777862095760155
 40
0.8637210021608203
 40
0.9403878514232388
 40
1.0
 40
1.0
 40
1.0
 40
1.0
 10
10.24832825902987
 20
18.2407485066919
 30
0.0
 10
10.25338370577145
 20
18.24683969614919
 30
0.0
 10
10.26426720117087
 20
18.2599529650301
 30
0.0
 10
10.28358607480191
 20
18.27545933545061
 30
0.0
 10
10.30829502970161
 20
18.28996846494756
 30
0.0
 10
10.33818853866865
 20
18.30243879192714
 30
0.0
 10
10.37450579837232
 20
18.31292384634163
 30
0.0
 10
10.41763130823398
 20
18.32053471644945
 30
0.0
 10
10.46654665089989
 20
18.32395181281339
 30
0.0
 10
10.51721547869089
 20
18.32176631706765
 30
0.0
 10
10.56488149227499
 20
18.3140371670867
 30
0.0
 10
10.60785360712871
 20
18.30220917639346
 30
0.0
 10
10.64346406359028
 20
18.28934226811995
 30
0.0
 10
10.66562003679037
 20
18.27881932009055
 30
0.0
 10
10.67531166343284
 20
18.27421629577029
 30
0.0
  0
SPLINE
  5
9D
330
1F
100
AcDbEntity
  8
0
  6
Continuous
 62
     7
370
    15
100
AcDbSpline
210
0.0
220
0.0
230
1.0
 70
     8
 71
     3
 72
     9
 73
     5
 74
     0
 42
0.00000001
 43
0.00000001
 40
0.0
 40
0.0
 40
0.0
 40
0.0
 40
0.860350728729992
 40
1.0
 40
1.0
 40
1.0
 40
1.0
 10
10.23588187549641
 20
18.22262535552222
 30
0.0
 10
10.23879707543645
 20
18.22716954236128
 30
0.0
 10
10.24218546094331
 20
18.23245132650736
 30
0.0
 10
10.24476908901562
 20
18.23557373858579
 30
0.0
 10
10.24512989079315
 20
18.23600978115715
 30
0.0
  0
LINE
  5
9E
330
1F
100
AcDbEntity
  8
0
  6
Continuous
 62
     7
370
    15
100
AcDbLine
 10
9.9946343474
 20
18.6213294641
 30
0.0
 11
9.986560722
 21
18.6042895719
 31
0.0
  0
ARC
  5
9F
330
1F
100
AcDbEntity
  8
0
  6
Continuous
 62
     7
370
    15
100
AcDbCircle
 10
10.3968589494
 20
17.7137463033
 30
0.0
 40
0.6261321342946811
100
AcDbArc
 50
56.608176021
 51
56.7249338534
  0
LINE
  5
A0
330
1F
100
AcDbEntity
  8
0
  6
Continuous
 62
     7
370
    15
100
AcDbLine
 10
10.5659203413
 20
19.1859047899
 30
0.0
 11
10.5714813672
 21
19.1025842417
 31
0.0
  0
LINE
  5
A1
330
1F
100
AcDbEntity
  8
0
  6
Continuous
 62
     7
370
    15
100
AcDbLine
 10
10.8597544177
 20
18.6631507963
 30
0.0
 11
10.9048296535
 21
18.622258151
 31
0.0
  0
LINE
  5
A2
330
1F
100
AcDbEntity
  8
0
  6
Continuous
 62
     7
370
    15
100
AcDbLine
 10
10.5659203413
 20
19.1859047899
 30
0.0
 11
10.5376676622
 21
21.2469099881
 31
0.0
  0
SPLINE
  5
A3
330
1F
100
AcDbEntity
  8
0
  6
Continuous
 62
     7
370
    15
100
AcDbSpline
210
0.0
220
0.0
230
1.0
 70
     8
 71
     3
 72
    13
 73
     9
 74
     0
 42
0.00000001
 43
0.00000001
 40
0.0
 40
0.0
 40
0.0
 40
0.0
 40
0.0128132634975415
 40
0.098311617855229
 40
0.2211825649090926
 40
0.4018383075548088
 40
0.7016613363298668
 40
1.0
 40
1.0
 40
1.0
 40
1.0
 10
10.2518535284273
 20
21.24690998810651
 30
0.0
 10
10.25110001494373
 20
21.23812817431551
 30
0.0
 10
10.24531857373169
 20
21.17074843755589
 30
0.0
 10
10.23563435929403
 20
21.01889263756723
 30
0.0
 10
10.22083710931384
 20
20.75170350330699
 30
0.0
 10
10.20069029824005
 20
20.33715275606004
 30
0.0
 10
10.17654038776016
 20
19.80196336626068
 30
0.0
 10
10.15786463048827
 20
19.39092156926312
 30
0.0
 10
10.14854992421755
 20
19.18591068010449
 30
0.0
  0
LINE
  5
A4
330
1F
100
AcDbEntity
  8
0
  6
Continuous
 62
     7
370
    15
100
AcDbLine
 10
10.3068589494
 20
18.6324029936
 30
0.0
 11
10.3068589494
 21
18.6321751735
 31
0.0
  0
SPLINE
  5
A5
330
1F
100
AcDbEntity
  8
0
  6
Continuous
 62
     7
370
    15
100
AcDbSpline
210
0.0
220
0.0
230
1.0
 70
     8
 71
     3
 72
    12
 73
     8
 74
     0
 42
0.00000001
 43
0.00000001
 40
0.0
 40
0.0
 40
0.0
 40
0.0
 40
0.036651964515687
 40
0.2660722244631677
 40
0.5192132409783077
 40
0.7818059196869712
 40
1.0
 40
1.0
 40
1.0
 40
1.0
 10
12.54696627062549
 20
16.82838162701063
 30
0.0
 10
12.5481367424423
 20
16.82747631992136
 30
0.0
 10
12.55663369599135
 20
16.82090431009195
 30
0.0
 10
12.57095442087679
 20
16.80528709733178
 30
0.0
 10
12.58713984977699
 20
16.77988257934821
 30
0.0
 10
12.59892801628334
 20
16.75230369432683
 30
0.0
 10
12.60142063079889
 20
16.73298664165437
 30
0.0
 10
12.60255184691829
 20
16.72422003886605
 30
0.0
  0
LINE
  5
A6
330
1F
100
AcDbEntity
  8
0
  6
Continuous
 62
     7
370
    15
100
AcDbLine
 10
10.7621475736
 20
18.2224843159
 30
0.0
 11
10.7827304214
 21
18.2076234167
 31
0.0
  0
LINE
  5
A7
330
1F
100
AcDbEntity
  8
0
  6
Continuous
 62
     7
370
    15
100
AcDbLine
 10
10.782344383
 20
18.2071451583
 30
0.0
 11
12.5470120459
 21
16.8284356777
 31
0.0
  0
ARC
  5
A8
330
1F
100
AcDbEntity
  8
0
  6
Continuous
 62
     7
370
    15
100
AcDbCircle
 10
12.6385523167
 20
16.3963159295
 30
0.0
 40
0.0099999999999993
100
AcDbArc
 50
185.1614216513
 51
270.0
  0
LINE
  5
A9
330
1F
100
AcDbEntity
  8
0
  6
Continuous
 62
     7
370
    15
100
AcDbLine
 10
12.6029063558
 20
16.7243616536
 30
0.0
 11
12.6285826645
 21
16.395537447
 31
0.0
  0
ARC
  5
AA
330
1F
100
AcDbEntity
  8
0
  6
Continuous
 62
     7
370
    15
100
AcDbCircle
 10
10.0490900003
 20
18.5954319451
 30
0.0
 40
0.0600000000000031
100
AcDbArc
 50
152.9959383727
 51
154.0662925223
  0
SPLINE
  5
AB
330
1F
100
AcDbEntity
  8
0
  6
Continuous
 62
     7
370
    15
100
AcDbSpline
210
0.0
220
0.0
230
1.0
 70
     8
 71
     3
 72
     9
 73
     5
 74
     0
 42
0.00000001
 43
0.00000001
 40
0.0
 40
0.0
 40
0.0
 40
0.0
 40
0.2652246061070722
 40
1.0
 40
1.0
 40
1.0
 40
1.0
 10
10.23588454845055
 20
18.22182877957396
 30
0.0
 10
10.23681980574899
 20
18.22325480598023
 30
0.0
 10
10.24034608979994
 20
18.22863148059275
 30
0.0
 10
10.24342480087487
 20
18.23303451690684
 30
0.0
 10
10.24568696201763
 20
18.23626975964886
 30
0.0
  0
LINE
  5
AC
330
1F
100
AcDbEntity
  8
0
  6
Continuous
 62
     7
370
    15
100
AcDbLine
 10
9.0880821006
 20
16.7350015881
 30
0.0
 11
9.0883043636
 21
16.7247099664
 31
0.0
  0
LINE
  5
AD
330
1F
100
AcDbEntity
  8
0
  6
Continuous
 62
     7
370
    15
100
AcDbLine
 10
12.9868589494
 20
21.2469099881
 30
0.0
 11
12.5625287986
 21
24.2661758953
 31
0.0
  0
LINE
  5
AE
330
1F
100
AcDbEntity
  8
0
  6
Continuous
 62
     7
370
    15
100
AcDbLine
 10
8.2311891002
 20
24.2661758953
 30
0.0
 11
7.8068589494
 21
21.2469099881
 31
0.0
  0
ARC
  5
AF
330
1F
100
AcDbEntity
  8
0
  6
Continuous
 62
     7
370
    15
100
AcDbCircle
 10
12.4833073531
 20
24.2550420472
 30
0.0
 40
0.0800000000000018
100
AcDbArc
 50
8.0
 51
90.0
  0
ARC
  5
B0
330
1F
100
AcDbEntity
  8
0
  6
Continuous
 62
     7
370
    15
100
AcDbCircle
 10
8.3104105457
 20
24.2550420472
 30
0.0
 40
0.0800000000000018
100
AcDbArc
 50
90.0
 51
172.0
  0
LINE
  5
B1
330
1F
100
AcDbEntity
  8
0
  6
Continuous
 62
     7
370
    15
100
AcDbLine
 10
12.4833073531
 20
24.3350420472
 30
0.0
 11
8.3104105457
 21
24.3350420472
 31
0.0
  0
SPLINE
  5
B2
330
1F
100
AcDbEntity
  8
0
  6
Continuous
 62
     7
370
    15
100
AcDbSpline
210
0.0
220
0.0
230
1.0
 70
     8
 71
     3
 72
    20
 73
    16
 74
     0
 42
0.00000001
 43
0.00000001
 40
0.0
 40
0.0
 40
0.0
 40
0.0
 40
0.2500000000000061
 40
0.2500000000000061
 40
0.3750000000000082
 40
0.3750000000000082
 40
0.4375000000000093
 40
0.4375000000000093
 40
0.5000000000000103
 40
0.5000000000000103
 40
0.7500000000000026
 40
0.7500000000000026
 40
0.8750000000000013
 40
0.8750000000000013
 40
1.0
 40
1.0
 40
1.0
 40
1.0
 10
9.180491997586149
 20
17.02379432229944
 30
0.0
 10
9.170212134736062
 20
17.00571659948509
 30
0.0
 10
9.161015940500729
 20
16.98588156632876
 30
0.0
 10
9.149035210263689
 20
16.95359995121353
 30
0.0
 10
9.145343591416545
 20
16.94241457756048
 30
0.0
 10
9.140285219770076
 20
16.92498270104913
 30
0.0
 10
9.13867475108433
 20
16.91904521872377
 30
0.0
 10
9.135645263529078
 20
16.90705536848005
 30
0.0
 10
9.134225156182499
 20
16.90100212771453
 30
0.0
 10
9.127589038364313
 20
16.87044998906178
 30
0.0
 10
9.123761481928023
 20
16.84510225994939
 30
0.0
 10
9.120140678840972
 20
16.80571918735727
 30
0.0
 10
9.119287214880604
 20
16.79230719163582
 30
0.0
 10
9.118287707187338
 20
16.76534782440702
 30
0.0
 10
9.11813773150267
 20
16.75179652120736
 30
0.0
 10
9.118306754462488
 20
16.73817183266484
 30
0.0
  0
LINE
  5
B3
330
1F
100
AcDbEntity
  8
0
  6
Continuous
 62
     7
370
    15
100
AcDbLine
 10
9.1804919976
 20
17.0237943223
 30
0.0
 11
9.2985205048
 21
17.0237943223
 31
0.0
  0
SPLINE
  5
B4
330
1F
100
AcDbEntity
  8
0
  6
Continuous
 62
     7
370
    15
100
AcDbSpline
210
0.0
220
0.0
230
1.0
 70
     8
 71
     3
 72
    18
 73
    14
 74
     0
 42
0.00000001
 43
0.00000001
 40
0.0
 40
0.0
 40
0.0
 40
0.0
 40
0.2499999999999973
 40
0.2499999999999973
 40
0.3749999999999984
 40
0.3749999999999984
 40
0.4999999999999996
 40
0.4999999999999996
 40
0.7500000000000018
 40
0.7500000000000018
 40
0.8750000000000009
 40
0.8750000000000009
 40
1.0
 40
1.0
 40
1.0
 40
1.0
 10
9.225997436387336
 20
16.73817183266484
 30
0.0
 10
9.22728710087066
 20
16.7654222524597
 30
0.0
 10
9.23003569828777
 20
16.79210308758055
 30
0.0
 10
9.235948904280486
 20
16.83131626575431
 30
0.0
 10
9.238224019641292
 20
16.84425143922964
 30
0.0
 10
9.243373715579446
 20
16.86984371426499
 30
0.0
 10
9.246252673023998
 20
16.8824973871348
 30
0.0
 10
9.255580428652019
 20
16.91917085533425
 30
0.0
 10
9.262762370342218
 20
16.94221804756341
 30
0.0
 10
9.275050140257816
 20
16.97468410526659
 30
0.0
 10
9.279421525917845
 20
16.98519277772344
 30
0.0
 10
9.28861955836768
 20
17.00522574975693
 30
0.0
 10
9.293443570777235
 20
17.01475494254966
 30
0.0
 10
9.298520504785015
 20
17.02379432229944
 30
0.0
  0
LINE
  5
B5
330
1F
100
AcDbEntity
  8
0
  6
Continuous
 62
     7
370
    15
100
AcDbLine
 10
9.2259974364
 20
16.7381718327
 30
0.0
 11
9.1183067545
 21
16.7381718327
 31
0.0
  0
SPLINE
  5
B6
330
1F
100
AcDbEntity
  8
0
  6
Continuous
 62
     7
370
    15
100
AcDbSpline
210
0.0
220
0.0
230
1.0
 70
     8
 71
     3
 72
    18
 73
    14
 74
     0
 42
0.00000001
 43
0.00000001
 40
0.0
 40
0.0
 40
0.0
 40
0.0
 40
0.1250000000000022
 40
0.1250000000000022
 40
0.2500000000000045
 40
0.2500000000000045
 40
0.5000000000000038
 40
0.5000000000000038
 40
0.6250000000000028
 40
0.6250000000000028
 40
0.7500000000000018
 40
0.7500000000000018
 40
1.0
 40
1.0
 40
1.0
 40
1.0
 10
9.373807544692422
 20
16.95872541220811
 30
0.0
 10
9.369798558041065
 20
16.95153481429158
 30
0.0
 10
9.3659935414928
 20
16.94396345383368
 30
0.0
 10
9.35873591695418
 20
16.92806555022569
 30
0.0
 10
9.355285888179688
 20
16.91973647908544
 30
0.0
 10
9.345570439988396
 20
16.89402339093973
 30
0.0
 10
9.339867832583433
 20
16.87579713270772
 30
0.0
 10
9.332407136693847
 20
16.84683480419058
 30
0.0
 10
9.330094221779293
 20
16.836849535666
 30
0.0
 10
9.32593246884709
 20
16.81665108291799
 30
0.0
 10
9.32408116376428
 20
16.80644414951753
 30
0.0
 10
9.319234023528573
 20
16.77550609652978
 30
0.0
 10
9.316923344257976
 20
16.75446194200197
 30
0.0
 10
9.315791659937055
 20
16.73296751943601
 30
0.0
  0
ARC
  5
B7
330
1F
100
AcDbEntity
  8
0
  6
Continuous
 62
     7
370
    15
100
AcDbCircle
 10
9.1124772765
 20
14.0022684164
 30
0.0
 40
2.738257535348327
100
AcDbArc
 50
85.7418956738
 51
87.6240033917
  0
ARC
  5
B8
330
1F
100
AcDbEntity
  8
0
  6
Continuous
 62
     7
370
    15
100
AcDbCircle
 10
9.3015192361
 20
16.9511746164
 30
0.0
 40
0.0726815938090235
100
AcDbArc
 50
5.9631432358
 51
92.3646073444
  0
LINE
  5
B9
330
1F
100
AcDbEntity
  8
0
  6
Continuous
 62
     7
370
    15
100
AcDbLine
 10
9.2935459557
 20
16.3863159295
 30
0.0
 11
9.2185552499
 21
16.3863159295
 31
0.0
  0
LWPOLYLINE
  5
BA
330
1F
100
AcDbEntity
  8
0
  6
Continuous
 62
     7
370
    15
100
AcDbPolyline
 90
        9
 70
   128
 43
0.0
 10
9.2135582958
 20
16.3966649244
 10
9.2136238219
 20
16.3946654534
 10
9.2138873478
 20
16.39273225
 10
9.2143382927
 20
16.3909429334
 10
9.2149585509
 20
16.3893693458
 10
9.2157232188
 20
16.3880746676
 10
9.2166015943
 20
16.3871108809
 10
9.2175584103
 20
16.3865166824
 10
9.2185552499
 20
16.3863159295
  0
ELLIPSE
  5
BB
330
1F
100
AcDbEntity
  8
0
  6
Continuous
 62
     7
370
    15
100
AcDbEllipse
 10
9.2436031034
 20
16.3963159295
 30
0.0
 11
0.06002613422435132
 21
-0.0003612564402857288
 31
0.0
210
0.0
220
0.0
230
1.0
 40
0.003236195
 41
0.0598284396964165
 42
2.095025267139531
  0
ARC
  5
BC
330
1F
100
AcDbEntity
  8
0
  6
Continuous
 62
     7
370
    15
100
AcDbCircle
 10
9.2935373852
 20
16.3963062129
 30
0.0
 40
0.009990287138224
100
AcDbArc
 50
270.0491531171
 51
358.0538136293
  0
ARC
  5
BD
330
1F
100
AcDbEntity
  8
0
  6
Continuous
 62
     7
370
    15
100
AcDbCircle
 10
9.2051745562
 20
15.3252954364
 30
0.0
 40
1.401756665898932
100
AcDbArc
 50
85.4926537195
 51
89.1693123029
  0
LINE
  5
BE
330
1F
100
AcDbEntity
  8
0
  6
Continuous
 62
     7
370
    15
100
AcDbLine
 10
9.3153342904
 20
16.7227168414
 30
0.0
 11
9.3035219096
 21
16.3959669345
 31
0.0
  0
LINE
  5
BF
330
1F
100
AcDbEntity
  8
0
  6
Continuous
 62
     7
370
    15
100
AcDbLine
 10
9.2135582958
 20
16.3966649244
 30
0.0
 11
9.2254968423
 21
16.726904781
 31
0.0
  0
SPLINE
  5
C0
330
1F
100
AcDbEntity
  8
0
  6
Continuous
 62
     7
370
    15
100
AcDbSpline
210
0.0
220
0.0
230
1.0
 70
     8
 71
     3
 72
    11
 73
     7
 74
     0
 42
0.00000001
 43
0.00000001
 40
0.0
 40
0.0
 40
0.0
 40
0.0
 40
0.0005130641833185
 40
0.0005130641833185
 40
0.0005130641833185
 40
0.0005131241833185
 40
0.0005131241833185
 40
0.0005131241833185
 40
0.0005131241833185
 10
9.315791659937053
 20
16.73296751943601
 30
0.0
 10
9.315611833569573
 20
16.72955202285302
 30
0.0
 10
9.315458956343393
 20
16.72613515235508
 30
0.0
 10
9.31533433415731
 20
16.72271804026152
 30
0.0
 10
9.31533431958344
 20
16.72271764064928
 30
0.0
 10
9.315334305009937
 20
16.72271724103705
 30
0.0
 10
9.315334290436857
 20
16.72271684142479
 30
0.0
  0
SPLINE
  5
C1
330
1F
100
AcDbEntity
  8
0
  6
Continuous
 62
     7
370
    15
100
AcDbSpline
210
0.0
220
0.0
230
1.0
 70
     8
 71
     3
 72
     8
 73
     4
 74
     0
 42
0.00000001
 43
0.00000001
 40
0.0
 40
0.0
 40
0.0
 40
0.0
 40
0.000563968909266
 40
0.000563968909266
 40
0.000563968909266
 40
0.000563968909266
 10
9.225496842321688
 20
16.72690478102909
 30
0.0
 10
9.225632648720348
 20
16.73066140965621
 30
0.0
 10
9.225799965739997
 20
16.7344174153388
 30
0.0
 10
9.225997436387336
 20
16.73817183266484
 30
0.0
  0
LINE
  5
C2
330
1F
100
AcDbEntity
  8
0
  6
Continuous
 62
     7
370
    15
100
AcDbLine
 10
9.118820211
 20
16.3966649244
 30
0.0
 11
9.2135582958
 21
16.3966649244
 31
0.0
  0
LINE
  5
C3
330
1F
100
AcDbEntity
  8
0
  6
Continuous
 62
     7
370
    15
100
AcDbLine
 10
9.2185552499
 20
16.3863159295
 30
0.0
 11
9.1238171652
 21
16.3863159295
 31
0.0
  0
LWPOLYLINE
  5
C4
330
1F
100
AcDbEntity
  8
0
  6
Continuous
 62
     7
370
    15
100
AcDbPolyline
 90
        9
 70
   128
 43
0.0
 10
9.118820211
 20
16.3966649244
 10
9.1188857372
 20
16.3946654534
 10
9.119149263
 20
16.39273225
 10
9.1196002079
 20
16.3909429334
 10
9.1202204662
 20
16.3893693458
 10
9.120985134
 20
16.3880746676
 10
9.1218635095
 20
16.3871108809
 10
9.1228203255
 20
16.3865166824
 10
9.1238171652
 20
16.3863159295
  0
SPLINE
  5
C5
330
1F
100
AcDbEntity
  8
0
  6
Continuous
 62
     7
370
    15
100
AcDbSpline
210
0.0
220
0.0
230
1.0
 70
     8
 71
     3
 72
     8
 73
     4
 74
     0
 42
0.00000001
 43
0.00000001
 40
0.0
 40
0.0
 40
0.0
 40
0.0
 40
0.0005639689092661
 40
0.0005639689092661
 40
0.0005639689092661
 40
0.0005639689092661
 10
9.118306754462488
 20
16.73817183266484
 30
0.0
 10
9.11837311796781
 20
16.7344174153388
 30
0.0
 10
9.118409272378807
 20
16.73066140965621
 30
0.0
 10
9.118413894415111
 20
16.72690478102908
 30
0.0
  0
LINE
  5
C6
330
1F
100
AcDbEntity
  8
0
  6
Continuous
 62
     7
370
    15
100
AcDbLine
 10
9.1184138944
 20
16.726904781
 30
0.0
 11
9.118820211
 21
16.3966649244
 31
0.0
  0
LINE
  5
C7
330
1F
100
AcDbEntity
  8
0
  6
Continuous
 62
     7
370
    15
100
AcDbLine
 10
9.1238171652
 20
16.3863159295
 30
0.0
 11
9.098799751
 21
16.3863159295
 31
0.0
  0
LINE
  5
C8
330
1F
100
AcDbEntity
  8
0
  6
Continuous
 62
     7
370
    15
100
AcDbLine
 10
9.3008840631
 20
16.3863159295
 30
0.0
 11
9.2935459557
 21
16.3863159295
 31
0.0
  0
SPLINE
  5
C9
330
1F
100
AcDbEntity
  8
0
  6
Continuous
 62
     7
370
    15
100
AcDbSpline
210
0.0
220
0.0
230
1.0
 70
     8
 71
     3
 72
     8
 73
     4
 74
     0
 42
0.00000001
 43
0.00000001
 40
0.0
 40
0.0
 40
0.0
 40
0.0
 40
1.0
 40
1.0
 40
1.0
 40
1.0
 10
9.381496020727075
 20
16.97204038791313
 30
0.0
 10
9.378834923462465
 20
16.96758664159618
 30
0.0
 10
9.376273371479753
 20
16.96314816800689
 30
0.0
 10
9.373807544692422
 20
16.95872541220811
 30
0.0
  0
LINE
  5
CA
330
1F
100
AcDbEntity
  8
0
  6
Continuous
 62
     7
370
    15
100
AcDbLine
 10
9.3814960207
 20
16.9720403879
 30
0.0
 11
9.3580446276
 21
16.854548571
 31
0.0
  0
SPLINE
  5
CB
330
1F
100
AcDbEntity
  8
0
  6
Continuous
 62
     7
370
    15
100
AcDbSpline
210
0.0
220
0.0
230
1.0
 70
     8
 71
     3
 72
    18
 73
    14
 74
     0
 42
0.00000001
 43
0.00000001
 40
0.0
 40
0.0
 40
0.0
 40
0.0
 40
0.1250000000000021
 40
0.1250000000000021
 40
0.2500000000000041
 40
0.2500000000000041
 40
0.5000000000000067
 40
0.5000000000000067
 40
0.7500000000000093
 40
0.7500000000000093
 40
0.8750000000000047
 40
0.8750000000000047
 40
1.0
 40
1.0
 40
1.0
 40
1.0
 10
9.323782012899885
 20
16.72693857835877
 30
0.0
 10
9.324030818966236
 20
16.73313094861333
 30
0.0
 10
9.324480166421003
 20
16.73929777305984
 30
0.0
 10
9.325711510601305
 20
16.7514481588275
 30
0.0
 10
9.326490061133061
 20
16.75740907946148
 30
0.0
 10
9.329254886185781
 20
16.77499302096254
 30
0.0
 10
9.33166393742816
 20
16.78632715498484
 30
0.0
 10
9.33755127120449
 20
16.80823294167354
 30
0.0
 10
9.340953745622489
 20
16.81852403297624
 30
0.0
 10
9.346774311240939
 20
16.83292135846025
 30
0.0
 10
9.348835588803096
 20
16.83754484914088
 30
0.0
 10
9.353232005243175
 20
16.84639117596339
 30
0.0
 10
9.355580584220846
 20
16.85063440316903
 30
0.0
 10
9.358044627559451
 20
16.85454857104108
 30
0.0
  0
LINE
  5
CC
330
1F
100
AcDbEntity
  8
0
  6
Continuous
 62
     7
370
    15
100
AcDbLine
 10
9.3237820129
 20
16.7269385784
 30
0.0
 11
9.3153342904
 21
16.7227168414
 31
0.0
  0
LINE
  5
CD
330
1F
100
AcDbEntity
  8
0
  6
Continuous
 62
     7
370
    15
100
AcDbLine
 10
9.310860017
 20
16.3959669345
 30
0.0
 11
9.3237820129
 21
16.7269385784
 31
0.0
  0
LINE
  5
CE
330
1F
100
AcDbEntity
  8
0
  6
Continuous
 62
     7
370
    15
100
AcDbLine
 10
9.3035219096
 20
16.3959669345
 30
0.0
 11
9.310860017
 21
16.3959669345
 31
0.0
  0
ARC
  5
CF
330
1F
100
AcDbEntity
  8
0
  6
Continuous
 62
     7
370
    15
100
AcDbCircle
 10
9.3008754926
 20
16.3963062129
 30
0.0
 40
0.0099902871382221
100
AcDbArc
 50
270.0491531171
 51
358.0538136294
  0
LWPOLYLINE
  5
D0
330
1F
100
AcDbEntity
  8
0
  6
Continuous
 62
     7
370
    15
100
AcDbPolyline
 90
        9
 70
   128
 43
0.0
 10
9.1157583885
 20
16.3959669345
 10
9.1158962504
 20
16.3940664189
 10
9.1162313878
 20
16.392248563
 10
9.1167514859
 20
16.3905801651
 10
9.1174374335
 20
16.3891225315
 10
9.1182640248
 20
16.3879292238
 10
9.1192008864
 20
16.3870440909
 10
9.1202135925
 20
16.3864996576
 10
9.1212649307
 20
16.3863159295
  0
SPLINE
  5
D1
330
1F
100
AcDbEntity
  8
0
  6
Continuous
 62
     7
370
    15
100
AcDbSpline
210
0.0
220
0.0
230
1.0
 70
     8
 71
     3
 72
     8
 73
     4
 74
     0
 42
0.00000001
 43
0.00000001
 40
0.0
 40
0.0
 40
0.0
 40
0.0
 40
1.0
 40
1.0
 40
1.0
 40
1.0
 10
9.298520504785015
 20
17.02379432229944
 30
0.0
 10
9.301204916180378
 20
17.02857912651473
 30
0.0
 10
9.303991404506991
 20
17.03336286547782
 30
0.0
 10
9.30688534864749
 20
17.03814548305587
 30
0.0
  0
ARC
  5
D2
330
1F
100
AcDbEntity
  8
0
  6
Continuous
 62
     7
370
    15
100
AcDbCircle
 10
9.3073329761
 20
16.9634928379
 30
0.0
 40
0.0746539871731939
100
AcDbArc
 50
6.5745305536
 51
90.3435491936
  0
SPLINE
  5
D3
330
1F
100
AcDbEntity
  8
0
  6
Continuous
 62
     7
370
    15
100
AcDbSpline
210
0.0
220
0.0
230
1.0
 70
     8
 71
     3
 72
     8
 73
     4
 74
     0
 42
0.00000001
 43
0.00000001
 40
0.0
 40
0.0
 40
0.0
 40
0.0
 40
1.0
 40
1.0
 40
1.0
 40
1.0
 10
9.188348190164437
 20
17.03814548305587
 30
0.0
 10
9.18583636850435
 20
17.03336286547781
 30
0.0
 10
9.18321582353517
 20
17.02857912651473
 30
0.0
 10
9.180491997586149
 20
17.02379432229944
 30
0.0
  0
LINE
  5
D4
330
1F
100
AcDbEntity
  8
0
  6
Continuous
 62
     7
370
    15
100
AcDbLine
 10
10.0056339247
 20
18.5942930322
 30
0.0
 11
9.1883481902
 21
17.0381454831
 31
0.0
  0
SPLINE
  5
D5
330
1F
100
AcDbEntity
  8
0
  6
Continuous
 62
     7
370
    15
100
AcDbSpline
210
0.0
220
0.0
230
1.0
 70
     8
 71
     3
 72
     8
 73
     4
 74
     0
 42
0.00000001
 43
0.00000001
 40
0.0
 40
0.0
 40
0.0
 40
0.0
 40
1.0
 40
1.0
 40
1.0
 40
1.0
 10
10.02016955216653
 20
18.62225815102938
 30
0.0
 10
10.01541625710767
 20
18.61293884993193
 30
0.0
 10
10.01053037126415
 20
18.60361607922496
 30
0.0
 10
10.00563392467215
 20
18.59429303216642
 30
0.0
  0
LINE
  5
D6
330
1F
100
AcDbEntity
  8
0
  6
Continuous
 62
     7
370
    15
100
AcDbLine
 10
10.0201695522
 20
18.622258151
 30
0.0
 11
10.2655776426
 21
18.622258151
 31
0.0
  0
SPLINE
  5
D7
330
1F
100
AcDbEntity
  8
0
  6
Continuous
 62
     7
370
    15
100
AcDbSpline
210
0.0
220
0.0
230
1.0
 70
     8
 71
     3
 72
     8
 73
     4
 74
     0
 42
0.00000001
 43
0.00000001
 40
0.0
 40
0.0
 40
0.0
 40
0.0
 40
1.0
 40
1.0
 40
1.0
 40
1.0
 10
10.24850445324997
 20
18.59429303216642
 30
0.0
 10
10.25414579441278
 20
18.60361607922496
 30
0.0
 10
10.25979738396537
 20
18.61293884993192
 30
0.0
 10
10.26557764262238
 20
18.62225815102938
 30
0.0
  0
LINE
  5
D8
330
1F
100
AcDbEntity
  8
0
  6
Continuous
 62
     7
370
    15
100
AcDbLine
 10
9.3068853486
 20
17.0381454831
 30
0.0
 11
10.2485044532
 21
18.5942930322
 31
0.0
  0
LINE
  5
D9
330
1F
100
AcDbEntity
  8
0
  6
Continuous
 62
     7
370
    15
100
AcDbLine
 10
10.3231151253
 20
18.528187937
 30
0.0
 11
9.3814960207
 21
16.9720403879
 31
0.0
  0
ARC
  5
DA
330
1F
100
AcDbEntity
  8
0
  6
Continuous
 62
     7
370
    15
100
AcDbCircle
 10
10.2489520807
 20
18.519640387
 30
0.0
 40
0.0746539871782492
100
AcDbArc
 50
6.574530557
 51
90.3435491901
  0
LINE
  5
DB
330
1F
100
AcDbEntity
  8
0
  6
Continuous
 62
     7
370
    15
100
AcDbLine
 10
9.3580446276
 20
16.854548571
 30
0.0
 11
10.240378459
 21
18.2332580516
 31
0.0
  0
LINE
  5
DC
330
1F
100
AcDbEntity
  8
0
  6
Continuous
 62
     7
370
    15
100
AcDbLine
 10
10.3231151253
 20
18.528187937
 30
0.0
 11
10.240378459
 21
18.2332580516
 31
0.0
  0
ELLIPSE
  5
DD
330
1F
100
AcDbEntity
  8
0
  6
Continuous
 62
     7
370
    15
100
AcDbEllipse
 10
9.2509361653
 20
16.3963159295
 30
0.0
 11
0.06003048629711749
 21
-0.0003898827640753666
 31
0.0
210
0.0
220
0.0
230
0.9999999999999999
 40
0.0112245427
 41
6.282820064959445
 42
6.342871461144835
  0
LINE
  5
DE
330
1F
100
AcDbEntity
  8
0
  6
Continuous
 62
     7
370
    15
100
AcDbLine
 10
9.3237820129
 20
16.7269385784
 30
0.0
 11
9.3238806121
 21
16.7266917751
 31
0.0
  0
SPLINE
  5
DF
330
1F
100
AcDbEntity
  8
0
  6
Continuous
 62
     7
370
    15
100
AcDbSpline
210
0.0
220
0.0
230
1.0
 70
     8
 71
     3
 72
     8
 73
     4
 74
     0
 42
0.00000001
 43
0.00000001
 40
0.0
 40
0.0
 40
0.0
 40
0.0
 40
1.0
 40
1.0
 40
1.0
 40
1.0
 10
10.33996519221097
 20
18.55597854378249
 30
0.0
 10
10.33425207112221
 20
18.54664156807486
 30
0.0
 10
10.32867380534945
 20
18.53737437583603
 30
0.0
 10
10.32311512532984
 20
18.52818793702461
 30
0.0
  0
ARC
  5
E0
330
1F
100
AcDbEntity
  8
0
  6
Continuous
 62
     7
370
    15
100
AcDbCircle
 10
10.2650320834
 20
18.5467623845
 30
0.0
 40
0.0754977376590608
100
AcDbArc
 50
7.0116982578
 51
89.5859675316
  0
SPLINE
  5
E1
330
1F
100
AcDbEntity
  8
0
  6
Continuous
 62
     7
370
    15
100
AcDbSpline
210
0.0
220
0.0
230
1.0
 70
     8
 71
     3
 72
     8
 73
     4
 74
     0
 42
0.00000001
 43
0.00000001
 40
0.0
 40
0.0
 40
0.0
 40
0.0
 40
1.0
 40
1.0
 40
1.0
 40
1.0
 10
10.35106360335059
 20
18.57393663839689
 30
0.0
 10
10.34730405228555
 20
18.56791570734784
 30
0.0
 10
10.34360946971821
 20
18.56193440048994
 30
0.0
 10
10.33996519221097
 20
18.55597854378249
 30
0.0
  0
SPLINE
  5
E2
330
1F
100
AcDbEntity
  8
0
  6
Continuous
 62
     7
370
    15
100
AcDbSpline
210
0.0
220
0.0
230
1.0
 70
     8
 71
     3
 72
    34
 73
    30
 74
     0
 42
0.00000001
 43
0.00000001
 40
0.0
 40
0.0
 40
0.0
 40
0.0
 40
0.1249999999999994
 40
0.1249999999999994
 40
0.1874999999999989
 40
0.1874999999999989
 40
0.2499999999999985
 40
0.2499999999999985
 40
0.374999999999998
 40
0.374999999999998
 40
0.4062499999999981
 40
0.4062499999999981
 40
0.4374999999999982
 40
0.4374999999999982
 40
0.4999999999999984
 40
0.4999999999999984
 40
0.5624999999999987
 40
0.5624999999999987
 40
0.5937499999999989
 40
0.5937499999999989
 40
0.624999999999999
 40
0.624999999999999
 40
0.7499999999999997
 40
0.7499999999999997
 40
0.8124999999999997
 40
0.8124999999999997
 40
0.8749999999999996
 40
0.8749999999999996
 40
1.0
 40
1.0
 40
1.0
 40
1.0
 10
10.8297508246978
 20
18.57393663851196
 30
0.0
 10
10.80868234849166
 20
18.59307817118126
 30
0.0
 10
10.78791981706343
 20
18.61237268770764
 30
0.0
 10
10.75671155363516
 20
18.64087407599432
 30
0.0
 10
10.74629695568052
 20
18.65029902980078
 30
0.0
 10
10.7252505501031
 20
18.66875700298658
 30
0.0
 10
10.71458547497376
 20
18.67781865612568
 30
0.0
 10
10.68201561528187
 20
18.70359235650765
 30
0.0
 10
10.65962734782443
 20
18.71876410469837
 30
0.0
 10
10.62934525079575
 20
18.73244229003024
 30
0.0
 10
10.62318098654817
 20
18.73490968617011
 30
0.0
 10
10.61088673740234
 20
18.73917960123961
 30
0.0
 10
10.60472426374607
 20
18.74099884960146
 30
0.0
 10
10.58619118198644
 20
18.74547443378123
 30
0.0
 10
10.57377961407033
 20
18.74719775870195
 30
0.0
 10
10.54878775083494
 20
18.74719909469605
 30
0.0
 10
10.53676893806095
 20
18.7454677178003
 30
0.0
 10
10.51940849264903
 20
18.74098643296557
 30
0.0
 10
10.5137269688612
 20
18.73916612028692
 30
0.0
 10
10.50256466608405
 20
18.73489792924284
 30
0.0
 10
10.49706162173963
 20
18.73243712932634
 30
0.0
 10
10.47030613867488
 20
18.71872715931439
 30
0.0
 10
10.45184622299629
 20
18.70355482420993
 30
0.0
 10
10.42675980702326
 20
18.67784566514174
 30
0.0
 10
10.41882900309957
 20
18.66877999149273
 30
0.0
 10
10.40375928881674
 20
18.65031190026334
 30
0.0
 10
10.3965948075471
 20
18.64088306901051
 30
0.0
 10
10.37590530191511
 20
18.61237319106174
 30
0.0
 10
10.36316704779449
 20
18.59307714010739
 30
0.0
 10
10.35106360335034
 20
18.57393663839649
 30
0.0
  0
SPLINE
  5
E3
330
1F
100
AcDbEntity
  8
0
  6
Continuous
 62
     7
370
    15
100
AcDbSpline
210
0.0
220
0.0
230
1.0
 70
     8
 71
     3
 72
     8
 73
     4
 74
     0
 42
0.00000001
 43
0.00000001
 40
0.0
 40
0.0
 40
0.0
 40
0.0
 40
1.0
 40
1.0
 40
1.0
 40
1.0
 10
10.84921805346178
 20
18.55597854378343
 30
0.0
 10
10.84268974463375
 20
18.56193440052857
 30
0.0
 10
10.83619508588841
 20
18.56791570742445
 30
0.0
 10
10.82975082469781
 20
18.57393663851197
 30
0.0
  0
SPLINE
  5
E4
330
1F
100
AcDbEntity
  8
0
  6
Continuous
 62
     7
370
    15
100
AcDbSpline
210
0.0
220
0.0
230
1.0
 70
     8
 71
     3
 72
     8
 73
     4
 74
     0
 42
0.00000001
 43
0.00000001
 40
0.0
 40
0.0
 40
0.0
 40
0.0
 40
1.0
 40
1.0
 40
1.0
 40
1.0
 10
10.88014320713255
 20
18.52818793702329
 30
0.0
 10
10.86975982691252
 20
18.53737437583542
 30
0.0
 10
10.85945246029076
 20
18.54664156807513
 30
0.0
 10
10.84921805346178
 20
18.55597854378343
 30
0.0
  0
LINE
  5
E5
330
1F
100
AcDbEntity
  8
0
  6
Continuous
 62
     7
370
    15
100
AcDbLine
 10
10.8027460112
 20
18.2332580516
 30
0.0
 11
10.8801432071
 21
18.528187937
 31
0.0
  0
SPLINE
  5
E6
330
1F
100
AcDbEntity
  8
0
  6
Continuous
 62
     7
370
    15
100
AcDbSpline
210
0.0
220
0.0
230
1.0
 70
     8
 71
     3
 72
    10
 73
     6
 74
     0
 42
0.00000001
 43
0.00000001
 40
0.0
 40
0.0
 40
0.0
 40
0.0
 40
0.5
 40
0.5
 40
1.0
 40
1.0
 40
1.0
 40
1.0
 10
10.7811861257905
 20
18.2500953990831
 30
0.0
 10
10.78484188560901
 20
18.2473704416351
 30
0.0
 10
10.78843629343516
 20
18.24456605519127
 30
0.0
 10
10.79559193072819
 20
18.23891368905293
 30
0.0
 10
10.79917221104006
 20
18.23605021619041
 30
0.0
 10
10.80274601118152
 20
18.23325805163735
 30
0.0
  0
SPLINE
  5
E7
330
1F
100
AcDbEntity
  8
0
  6
Continuous
 62
     7
370
    15
100
AcDbSpline
210
0.0
220
0.0
230
1.0
 70
     8
 71
     3
 72
    40
 73
    36
 74
     0
 42
0.00000001
 43
0.00000001
 40
0.0
 40
0.0
 40
0.0
 40
0.0
 40
0.0625
 40
0.0625
 40
0.1249999999999999
 40
0.1249999999999999
 40
0.1874999999999999
 40
0.1874999999999999
 40
0.2499999999999999
 40
0.2499999999999999
 40
0.3124999999999999
 40
0.3124999999999999
 40
0.3749999999999998
 40
0.3749999999999998
 40
0.4374999999999998
 40
0.4374999999999998
 40
0.4999999999999998
 40
0.4999999999999998
 40
0.5624999999999998
 40
0.5624999999999998
 40
0.6249999999999998
 40
0.6249999999999998
 40
0.6874999999999997
 40
0.6874999999999997
 40
0.7499999999999997
 40
0.7499999999999997
 40
0.8124999999999997
 40
0.8124999999999997
 40
0.8437499999999997
 40
0.8437499999999997
 40
0.8749999999999996
 40
0.8749999999999996
 40
0.9374999999999998
 40
0.9374999999999998
 40
1.0
 40
1.0
 40
1.0
 40
1.0
 10
10.25139696777399
 20
18.25009539908404
 30
0.0
 10
10.25735468671859
 20
18.25881350440255
 30
0.0
 10
10.2638083421461
 20
18.26736784272188
 30
0.0
 10
10.27829471081724
 20
18.28385696565578
 30
0.0
 10
10.28630977525523
 20
18.29179910190851
 30
0.0
 10
10.3039876700319
 20
18.30681485242452
 30
0.0
 10
10.31371932349483
 20
18.31392311247385
 30
0.0
 10
10.33420580407441
 20
18.32664117119974
 30
0.0
 10
10.34499229248454
 20
18.33229156815269
 30
0.0
 10
10.36744497364587
 20
18.34214768025879
 30
0.0
 10
10.37911159633527
 20
18.34635439068637
 30
0.0
 10
10.40308957902627
 20
18.35341191592472
 30
0.0
 10
10.41535531277683
 20
18.35625027973072
 30
0.0
 10
10.44001262488774
 20
18.36069668488149
 30
0.0
 10
10.4523417425923
 20
18.36230204782819
 30
0.0
 10
10.47684536363825
 20
18.36444880937441
 30
0.0
 10
10.48902706137103
 20
18.36499581013766
 30
0.0
 10
10.51332689324255
 20
18.36498622083547
 30
0.0
 10
10.52544423223007
 20
18.36443049068787
 30
0.0
 10
10.54953982433806
 20
18.36227382907961
 30
0.0
 10
10.56152108797228
 20
18.36066890917523
 30
0.0
 10
10.58544426625934
 20
18.35623395860718
 30
0.0
 10
10.59740273466198
 20
18.35338722674009
 30
0.0
 10
10.6209531461373
 20
18.3463591456167
 30
0.0
 10
10.63260258098399
 20
18.34216652732098
 30
0.0
 10
10.65580140839051
 20
18.33231688449902
 30
0.0
 10
10.66734971330725
 20
18.32665862832138
 30
0.0
 10
10.68474533581591
 20
18.31707404169917
 30
0.0
 10
10.69057337323445
 20
18.31368609692432
 30
0.0
 10
10.70210480618508
 20
18.30667182701868
 30
0.0
 10
10.70782722741241
 20
18.3030361983761
 30
0.0
 10
10.72490903035344
 20
18.29179823513709
 30
0.0
 10
10.73618665882838
 20
18.28386652073041
 30
0.0
 10
10.75870152090936
 20
18.26738318270126
 30
0.0
 10
10.76993802297852
 20
18.25882400492213
 30
0.0
 10
10.78118612579056
 20
18.25009539908305
 30
0.0
  0
SPLINE
  5
E8
330
1F
100
AcDbEntity
  8
0
  6
Continuous
 62
     7
370
    15
100
AcDbSpline
210
0.0
220
0.0
230
1.0
 70
     8
 71
     3
 72
     8
 73
     4
 74
     0
 42
0.00000001
 43
0.00000001
 40
0.0
 40
0.0
 40
0.0
 40
0.0
 40
1.0
 40
1.0
 40
1.0
 40
1.0
 10
10.2403784590161
 20
18.23325805163611
 30
0.0
 10
10.24397135573846
 20
18.23887221428279
 30
0.0
 10
10.24759753492831
 20
18.24464548546457
 30
0.0
 10
10.25139696777399
 20
18.25009539908403
 30
0.0
  0
SPLINE
  5
E9
330
1F
100
AcDbEntity
  8
0
  6
Continuous
 62
     7
370
    15
100
AcDbSpline
210
0.0
220
0.0
230
1.0
 70
     8
 71
     3
 72
    30
 73
    26
 74
     0
 42
0.00000001
 43
0.00000001
 40
0.0
 40
0.0
 40
0.0
 40
0.0
 40
0.1249999999999996
 40
0.1249999999999996
 40
0.1874999999999999
 40
0.1874999999999999
 40
0.2500000000000001
 40
0.2500000000000001
 40
0.3750000000000008
 40
0.3750000000000008
 40
0.4375000000000009
 40
0.4375000000000009
 40
0.5000000000000009
 40
0.5000000000000009
 40
0.5625000000000009
 40
0.5625000000000009
 40
0.625000000000001
 40
0.625000000000001
 40
0.7500000000000007
 40
0.7500000000000007
 40
0.8125000000000006
 40
0.8125000000000006
 40
0.8750000000000003
 40
0.8750000000000003
 40
1.0
 40
1.0
 40
1.0
 40
1.0
 10
10.32358240943845
 20
18.62267516474677
 30
0.0
 10
10.33733028303565
 20
18.64269629950191
 30
0.0
 10
10.35167703338321
 20
18.66263996882493
 30
0.0
 10
10.37513074646447
 20
18.69119687141481
 30
0.0
 10
10.38327835582022
 20
18.70048493503585
 30
0.0
 10
10.40051856974651
 20
18.71830413886287
 30
0.0
 10
10.4096348799499
 20
18.72684495449728
 30
0.0
 10
10.43843278170579
 20
18.75042283147621
 30
0.0
 10
10.45970926905125
 20
18.76351548647224
 30
0.0
 10
10.49571683517042
 20
18.77738235764867
 30
0.0
 10
10.50811510681089
 20
18.78095044567592
 30
0.0
 10
10.53371326856474
 20
18.78587848122143
 30
0.0
 10
10.5469349649875
 20
18.78725241089386
 30
0.0
 10
10.57425275527891
 20
18.78724966312248
 30
0.0
 10
10.587973820656
 20
18.78587835446579
 30
0.0
 10
10.61552352431482
 20
18.78095155495009
 30
0.0
 10
10.62938430574877
 20
18.77737180123505
 30
0.0
 10
10.67095893281035
 20
18.76351572702028
 30
0.0
 10
10.69761954497253
 20
18.75043176753628
 30
0.0
 10
10.73662294779668
 20
18.72679028543044
 30
0.0
 10
10.74947015073809
 20
18.71823756925186
 30
0.0
 10
10.77459279102533
 20
18.7004369493134
 30
0.0
 10
10.78692603649002
 20
18.69115722377576
 30
0.0
 10
10.82353234130409
 20
18.66262208310692
 30
0.0
 10
10.84742121284163
 20
18.64268856468861
 30
0.0
 10
10.87136289876999
 20
18.62267516485843
 30
0.0
  0
ARC
  5
EA
330
1F
100
AcDbEntity
  8
0
  6
Continuous
 62
   144
370
     0
100
AcDbCircle
 10
10.2911427959
 20
18.5722672128
 30
0.0
 40
0.0599440585226086
100
AcDbArc
 50
1.5958781275
 51
57.2370339005
  0
ARC
  5
EB
330
1F
100
AcDbEntity
  8
0
  6
Continuous
 62
   144
370
     0
100
AcDbCircle
 10
10.0684610514
 20
19.2660451879
 30
0.0
 40
1.028871402575038
100
AcDbArc
 50
317.7252010238
 51
321.2945957432
  0
SPLINE
  5
EC
330
1F
100
AcDbEntity
  8
0
  6
Continuous
 62
     7
370
    15
100
AcDbSpline
210
0.0
220
0.0
230
1.0
 70
     8
 71
     3
 72
    21
 73
    17
 74
     0
 42
0.00000001
 43
0.00000001
 40
0.0
 40
0.0
 40
0.0
 40
0.0
 40
0.0356105507512964
 40
0.061983399443486
 40
0.1262785834710099
 40
0.1915564370521874
 40
0.2562755665426861
 40
0.3350478771534766
 40
0.4194711280426259
 40
0.5105654114403382
 40
0.6309240681073923
 40
0.7580192907803265
 40
0.8170514611596302
 40
0.8797411198767319
 40
0.92823312558638
 40
1.0
 40
1.0
 40
1.0
 40
1.0
 10
10.52088385681347
 20
19.18590478989028
 30
0.0
 10
10.5207546478503
 20
19.17777899119355
 30
0.0
 10
10.52052974790895
 20
19.16363530018652
 30
0.0
 10
10.51977853875672
 20
19.13484896439936
 30
0.0
 10
10.51760816302963
 20
19.09942166931839
 30
0.0
 10
10.51229567370845
 20
19.05594061126563
 30
0.0
 10
10.50379231870153
 20
19.0104627037028
 30
0.0
 10
10.49148224403772
 20
18.96281654237557
 30
0.0
 10
10.47511352936105
 20
18.91231447881101
 30
0.0
 10
10.45365099473445
 20
18.85666498423915
 30
0.0
 10
10.42663060579562
 20
18.79661345847547
 30
0.0
 10
10.3997645373172
 20
18.74549993775824
 30
0.0
 10
10.37661180117723
 20
18.70573889968325
 30
0.0
 10
10.36031944545921
 20
18.67921592470178
 30
0.0
 10
10.34233671806412
 20
18.6513796070952
 30
0.0
 10
10.33059156357565
 20
18.63340303879739
 30
0.0
 10
10.32358240943853
 20
18.62267516474688
 30
0.0
  0
SPLINE
  5
ED
330
1F
100
AcDbEntity
  8
0
  6
Continuous
 62
     7
370
    15
100
AcDbSpline
210
0.0
220
0.0
230
1.0
 70
     8
 71
     3
 72
    23
 73
    19
 74
     0
 42
0.00000001
 43
0.00000001
 40
0.0
 40
0.0
 40
0.0
 40
0.0
 40
0.031531026628632
 40
0.0593378507451963
 40
0.0834180924138437
 40
0.1037740453195961
 40
0.1204106834058301
 40
0.1832714461804803
 40
0.2424667793118174
 40
0.3693132935268521
 40
0.4893933777862835
 40
0.6231633943384329
 40
0.7430377740880704
 40
0.8075835987075001
 40
0.8726202767275307
 40
0.9374792682060326
 40
0.964067908417034
 40
1.0
 40
1.0
 40
1.0
 40
1.0
 10
10.87136289877016
 20
18.62267516485829
 30
0.0
 10
10.86591443867087
 20
18.62737657384448
 30
0.0
 10
10.85566104870133
 20
18.6362240975233
 30
0.0
 10
10.84134665858496
 20
18.64876729884281
 30
0.0
 10
10.82900540744575
 20
18.65968886264363
 30
0.0
 10
10.81862193844238
 20
18.66897510317586
 30
0.0
 10
10.80174311946804
 20
18.68426789868551
 30
0.0
 10
10.77863000945905
 20
18.7058830092945
 30
0.0
 10
10.73808103320563
 20
18.74566155220219
 30
0.0
 10
10.69026976982636
 20
18.79672028204006
 30
0.0
 10
10.63534139095028
 20
18.86423104938351
 30
0.0
 10
10.58776379709596
 20
18.93534536901036
 30
0.0
 10
10.555943714054
 20
19.00105478103131
 30
0.0
 10
10.53834496048235
 20
19.05536536719536
 30
0.0
 10
10.52888607001236
 20
19.09886221115718
 30
0.0
 10
10.52449888810969
 20
19.13440661737831
 30
0.0
 10
10.52232949785453
 20
19.16344122271945
 30
0.0
 10
10.52148688126473
 20
19.17770631548217
 30
0.0
 10
10.52100261027805
 20
19.18590478989028
 30
0.0
  0
SPLINE
  5
EE
330
1F
100
AcDbEntity
  8
0
  6
Continuous
 62
     7
370
    15
100
AcDbSpline
210
0.0
220
0.0
230
1.0
 70
     8
 71
     3
 72
     8
 73
     4
 74
     0
 42
0.00000001
 43
0.00000001
 40
0.0
 40
0.0
 40
0.0
 40
0.0
 40
1.0
 40
1.0
 40
1.0
 40
1.0
 10
10.26557764262237
 20
18.62225815102938
 30
0.0
 10
10.26930184866539
 20
18.62826255317177
 30
0.0
 10
10.27307733883538
 20
18.63426402950406
 30
0.0
 10
10.27692153640857
 20
18.64027671306506
 30
0.0
  0
ARC
  5
EF
330
1F
100
AcDbEntity
  8
0
  6
Continuous
 62
   144
370
     0
100
AcDbCircle
 10
10.2749508049
 20
18.563473364
 30
0.0
 40
0.0768286288080594
100
AcDbArc
 50
7.8274249499
 51
88.5301444493
  0
SPLINE
  5
F0
330
1F
100
AcDbEntity
  8
0
  6
Continuous
 62
     7
370
    15
100
AcDbSpline
210
0.0
220
0.0
230
1.0
 70
     8
 71
     3
 72
     8
 73
     4
 74
     0
 42
0.00000001
 43
0.00000001
 40
0.0
 40
0.0
 40
0.0
 40
0.0
 40
1.0
 40
1.0
 40
1.0
 40
1.0
 10
10.02916004781761
 20
18.64027671317979
 30
0.0
 10
10.02623991805196
 20
18.63426402958047
 30
0.0
 10
10.02323208817824
 20
18.62826255321
 30
0.0
 10
10.0201695521665
 20
18.62225815102938
 30
0.0
  0
SPLINE
  5
F1
330
1F
100
AcDbEntity
  8
0
  6
Continuous
 62
     7
370
    15
100
AcDbSpline
210
0.0
220
0.0
230
1.0
 70
     8
 71
     3
 72
    24
 73
    20
 74
     0
 42
0.00000001
 43
0.00000001
 40
0.0
 40
0.0
 40
0.0
 40
0.0
 40
0.0617435624318216
 40
0.1173055878006896
 40
0.1669078615104767
 40
0.2103266068898149
 40
0.2470953460557502
 40
0.3090492585139857
 40
0.3724809349975667
 40
0.4229491445759866
 40
0.4981539154849596
 40
0.5696049305294917
 40
0.6232278214383082
 40
0.6887916831161804
 40
0.7485543291352165
 40
0.8113498317857428
 40
0.8738515632508987
 40
0.924884486467812
 40
1.0
 40
1.0
 40
1.0
 40
1.0
 10
10.19369695476511
 20
19.18590474555231
 30
0.0
 10
10.19276869013069
 20
19.17247018334896
 30
0.0
 10
10.19100509528313
 20
19.14694607761164
 30
0.0
 10
10.18772046485065
 20
19.11069161419953
 30
0.0
 10
10.18393627273687
 20
19.07866874786389
 30
0.0
 10
10.17987573642062
 20
19.05106720782597
 30
0.0
 10
10.17466172654374
 20
19.02132015863759
 30
0.0
 10
10.16756735748477
 20
18.98816061792275
 30
0.0
 10
10.15853845148587
 20
18.95342470124534
 30
0.0
 10
10.14762506847063
 20
18.91728881971066
 30
0.0
 10
10.13527418826765
 20
18.88096038539469
 30
0.0
 10
10.12187789845155
 20
18.84554451582385
 30
0.0
 10
10.10867124076006
 20
18.81295002488849
 30
0.0
 10
10.09611972429716
 20
18.78329002841961
 30
0.0
 10
10.08279053685269
 20
18.75307577196605
 30
0.0
 10
10.0697172197505
 20
18.72421630567497
 30
0.0
 10
10.05717852829032
 20
18.69748172983115
 30
0.0
 10
10.04390530077746
 20
18.66949416934045
 30
0.0
 10
10.0346632551565
 20
18.65118122052224
 30
0.0
 10
10.02916004781762
 20
18.6402767131798
 30
0.0
  0
LINE
  5
F2
330
1F
100
AcDbEntity
  8
0
  6
Continuous
 62
     7
370
    15
100
AcDbLine
 10
10.1937014358
 20
19.1859047899
 30
0.0
 11
10.4309550711
 21
19.1859047899
 31
0.0
  0
SPLINE
  5
F3
330
1F
100
AcDbEntity
  8
0
  6
Continuous
 62
     7
370
    15
100
AcDbSpline
210
0.0
220
0.0
230
1.0
 70
     8
 71
     3
 72
    24
 73
    20
 74
     0
 42
0.00000001
 43
0.00000001
 40
0.0
 40
0.0
 40
0.0
 40
0.0
 40
0.0525882371306876
 40
0.0948106930301568
 40
0.1260098201638729
 40
0.1883557012806425
 40
0.2509829834244257
 40
0.310565952016882
 40
0.3760180464353871
 40
0.4301006931785197
 40
0.5019640834658582
 40
0.577665088563962
 40
0.6277061311984381
 40
0.691357952272785
 40
0.753581721611697
 40
0.8008323262927453
 40
0.8579905313766935
 40
0.9243419658791029
 40
1.0
 40
1.0
 40
1.0
 40
1.0
 10
10.27692153640857
 20
18.64027671306506
 30
0.0
 10
10.28161175346203
 20
18.6479043179943
 30
0.0
 10
10.29006768873508
 20
18.66165603413767
 30
0.0
 10
10.301327456987
 20
18.68018909988913
 30
0.0
 10
10.31334916686342
 20
18.70039886897473
 30
0.0
 10
10.32669873682267
 20
18.72407827669158
 30
0.0
 10
10.3417890662235
 20
18.75285238772072
 30
0.0
 10
10.35619060088218
 20
18.78298433685804
 30
0.0
 10
10.36904399800443
 20
18.81266081943436
 30
0.0
 10
10.38172545869497
 20
18.84537542057997
 30
0.0
 10
10.39401703890929
 20
18.88103064000029
 30
0.0
 10
10.40473134564077
 20
18.91745480639097
 30
0.0
 10
10.41370196211967
 20
18.95365305972208
 30
0.0
 10
10.42098684055472
 20
18.98840686085306
 30
0.0
 10
10.4266374869477
 20
19.02381838034941
 30
0.0
 10
10.43059652157302
 20
19.05878989568156
 30
0.0
 10
10.43290949354372
 20
19.09533644506373
 30
0.0
 10
10.43311137589295
 20
19.13853873173033
 30
0.0
 10
10.43170747530744
 20
19.16944101384202
 30
0.0
 10
10.43095952265731
 20
19.18590474641623
 30
0.0
  0
SPLINE
  5
F4
330
1F
100
AcDbEntity
  8
0
  6
Continuous
 62
     7
370
    15
100
AcDbSpline
210
0.0
220
0.0
230
1.0
 70
     8
 71
     3
 72
    32
 73
    28
 74
     0
 42
0.00000001
 43
0.00000001
 40
0.0
 40
0.0
 40
0.0
 40
0.0
 40
0.0457772548892396
 40
0.0911966900449587
 40
0.1362582554763405
 40
0.1809619050263129
 40
0.225307596434723
 40
0.269295291404252
 40
0.3129249556692286
 40
0.3561965590674686
 40
0.399110075615274
 40
0.441665483585766
 40
0.4838627655906685
 40
0.5257019086657756
 40
0.5671829043602273
 40
0.6083057488298107
 40
0.6490704429344865
 40
0.6894769923403424
 40
0.7295254076262271
 40
0.7692157043952836
 40
0.8085479033916357
 40
0.8475220306225373
 40
0.886138117486218
 40
0.9243962009057948
 40
0.9622963234695235
 40
0.9998385335777846
 40
1.0
 40
1.0
 40
1.0
 40
1.0
 10
10.43095507111808
 20
19.18590478989028
 30
0.0
 10
10.43221032448779
 20
19.18590488935213
 30
0.0
 10
10.43471101948934
 20
19.18590508749837
 30
0.0
 10
10.43856830707632
 20
19.1859064352132
 30
0.0
 10
10.44247139319363
 20
19.18590824058506
 30
0.0
 10
10.44641898267071
 20
19.18591038215635
 30
0.0
 10
10.45039833847547
 20
19.1859126483638
 30
0.0
 10
10.4544001072314
 20
19.18591488519075
 30
0.0
 10
10.4584144206836
 20
19.18591695626495
 30
0.0
 10
10.46243195174021
 20
19.18591875253029
 30
0.0
 10
10.46644365608335
 20
19.18592018871987
 30
0.0
 10
10.47044085901826
 20
19.18592120325663
 30
0.0
 10
10.47441524831945
 20
19.18592175718876
 30
0.0
 10
10.47835888941807
 20
19.18592183333053
 30
0.0
 10
10.48226423223309
 20
19.18592143530646
 30
0.0
 10
10.48612411786952
 20
19.18592058658619
 30
0.0
 10
10.48993178310543
 20
19.18591932949393
 30
0.0
 10
10.49368086334513
 20
19.18591772420362
 30
0.0
 10
10.49736539389227
 20
19.18591584772336
 30
0.0
 10
10.50097980997537
 20
19.18591379287357
 30
0.0
 10
10.50451894448589
 20
19.18591166726601
 30
0.0
 10
10.50797802764149
 20
19.18590959227768
 30
0.0
 10
10.51135267349766
 20
19.18590770206091
 30
0.0
 10
10.51463890922308
 20
19.18590614245576
 30
0.0
 10
10.51783304176656
 20
19.18590507031363
 30
0.0
 10
10.51991338306436
 20
19.18590478908953
 30
0.0
 10
10.52093900625934
 20
19.1859047898946
 30
0.0
 10
10.5209433985023
 20
19.18590478989805
 30
0.0
  0
SPLINE
  5
F5
330
1F
100
AcDbEntity
  8
0
  6
Continuous
 62
   144
370
     0
100
AcDbSpline
210
0.0
220
0.0
230
1.0
 70
     8
 71
     3
 72
    10
 73
     6
 74
     0
 42
0.00000001
 43
0.00000001
 40
0.0
 40
0.0
 40
0.0
 40
0.0
 40
0.5
 40
0.5
 40
1.0
 40
1.0
 40
1.0
 40
1.0
 10
10.27692153640866
 20
18.64027671306521
 30
0.0
 10
10.28418213366185
 20
18.64004679477122
 30
0.0
 10
10.29244401870524
 20
18.63837393956361
 30
0.0
 10
10.30877976034437
 20
18.63221172426194
 30
0.0
 10
10.31677872502789
 20
18.62775061510975
 30
0.0
 10
10.32358240943862
 20
18.62267516474702
 30
0.0
  0
ARC
  5
F6
330
1F
100
AcDbEntity
  8
0
  6
Continuous
 62
     7
370
    15
100
AcDbCircle
 10
10.0178797147
 20
18.5859437726
 30
0.0
 40
0.0363865007793842
100
AcDbArc
 50
86.3919373814
 51
149.8181702231
  0
SPLINE
  5
F7
330
1F
100
AcDbEntity
  8
0
  6
Continuous
 62
     7
370
    15
100
AcDbSpline
210
0.0
220
0.0
230
1.0
 70
     8
 71
     3
 72
     9
 73
     5
 74
     0
 42
0.00000001
 43
0.00000001
 40
0.0
 40
0.0
 40
0.0
 40
0.0
 40
0.6105107706965258
 40
1.0
 40
1.0
 40
1.0
 40
1.0
 10
10.76119608470534
 20
18.22296128879962
 30
0.0
 10
10.74407715640104
 20
18.2347207369003
 30
0.0
 10
10.71603681849714
 20
18.253982392329
 30
0.0
 10
10.68649460349565
 20
18.2681699583822
 30
0.0
 10
10.6749882289428
 20
18.27369586254994
 30
0.0
  0
ARC
  5
F8
330
1F
100
AcDbEntity
  8
0
  6
Continuous
 62
   144
370
     0
100
AcDbCircle
 10
10.1505248557
 20
18.6937809938
 30
0.0
 40
0.7710969748114737
100
AcDbArc
 50
322.3682364894
 51
324.8726782245
  0
ARC
  5
F9
330
1F
100
AcDbEntity
  8
0
  6
Continuous
 62
   144
370
     0
100
AcDbCircle
 10
10.2210615747
 20
18.2546709598
 30
0.0
 40
0.0306785239193346
100
AcDbArc
 50
324.2441357305
 51
351.4225954735
  0
LWPOLYLINE
  5
FA
330
1F
100
AcDbEntity
  8
0
  6
Continuous
 62
   144
370
     0
100
AcDbPolyline
 90
        3
 70
   128
 43
0.0
 10
10.2453360096
 20
18.2359020441
 10
10.247236137
 20
18.2386943529
 10
10.2513969678
 20
18.2500953991
  0
ARC
  5
FB
330
1F
100
AcDbEntity
  8
0
  6
Continuous
 62
   144
370
     0
100
AcDbCircle
 10
10.027335927
 20
18.6032572554
 30
0.0
 40
0.0370643720074538
100
AcDbArc
 50
87.1790521284
 51
150.9682857949
  0
SPLINE
  5
FC
330
1F
100
AcDbEntity
  8
0
  6
Continuous
 62
     7
370
    15
100
AcDbSpline
210
0.0
220
0.0
230
1.0
 70
     8
 71
     3
 72
    23
 73
    19
 74
     0
 42
0.00000001
 43
0.00000001
 40
0.0
 40
0.0
 40
0.0
 40
0.0
 40
0.0315310269459123
 40
0.059337851220905
 40
0.0834180928892796
 40
0.1037740456363788
 40
0.120410683405918
 40
0.1832714462651324
 40
0.2424667793113657
 40
0.3693132935140674
 40
0.4893933777860295
 40
0.6231633943404985
 40
0.7430377740882176
 40
0.807583598717214
 40
0.8726202767272746
 40
0.9374792682059849
 40
0.964067908435118
 40
1.0
 40
1.0
 40
1.0
 40
1.0
 10
9.995631539967889
 20
18.62267516485819
 30
0.0
 10
9.99800790154246
 20
18.62737657389242
 30
0.0
 10
10.00247994711842
 20
18.63622409764357
 30
0.0
 10
10.00862021546866
 20
18.64876729903598
 30
0.0
 10
10.01387306240257
 20
18.65968886283737
 30
0.0
 10
10.0182670358605
 20
18.66897510329699
 30
0.0
 10
10.02541257682105
 20
18.68426789874776
 30
0.0
 10
10.03524917203722
 20
18.70588300930956
 30
0.0
 10
10.05265001855038
 20
18.74566155221271
 30
0.0
 10
10.07363384954165
 20
18.79672028203752
 30
0.0
 10
10.09818079024988
 20
18.86423104938117
 30
0.0
 10
10.11916798354725
 20
18.93534536901008
 30
0.0
 10
10.13260857920777
 20
19.00105478103382
 30
0.0
 10
10.14000262674915
 20
19.05536536719744
 30
0.0
 10
10.14410650347346
 20
19.09886221115929
 30
0.0
 10
10.14630043742608
 20
19.13440661738231
 30
0.0
 10
10.14771559171713
 20
19.16344122272357
 30
0.0
 10
10.14833429667339
 20
19.1777063154863
 30
0.0
 10
10.14868988053337
 20
19.18590478989028
 30
0.0
  0
SPLINE
  5
FD
330
1F
100
AcDbEntity
  8
0
  6
Continuous
 62
     7
370
    15
100
AcDbSpline
210
0.0
220
0.0
230
1.0
 70
     8
 71
     3
 72
    25
 73
    21
 74
     0
 42
0.00000001
 43
0.00000001
 40
0.0
 40
0.0
 40
0.0
 40
0.0
 40
0.046594127899164
 40
0.0925246347140963
 40
0.1377086069721908
 40
0.182068103089694
 40
0.2255306176133527
 40
0.2680294298670448
 40
0.309503837134205
 40
0.3498992761573206
 40
0.3891673398468239
 40
0.4272656985665071
 40
0.464157937159007
 40
0.4998133199999851
 40
0.5845991195496989
 40
0.6692354853233321
 40
0.753398008405433
 40
0.8367729995058278
 40
0.9190644474607166
 40
1.0
 40
1.0
 40
1.0
 40
1.0
 10
10.19370010879073
 20
19.18590478989028
 30
0.0
 10
10.19244381927991
 20
19.18590488663283
 30
0.0
 10
10.18994913307533
 20
19.18590507874006
 30
0.0
 10
10.18637722693723
 20
19.18590616888476
 30
0.0
 10
10.18297339642055
 20
19.18590732664959
 30
0.0
 10
10.17975426520282
 20
19.18590834358407
 30
0.0
 10
10.17672244053818
 20
19.18590899480527
 30
0.0
 10
10.17388152313328
 20
19.18590917791805
 30
0.0
 10
10.17123229910205
 20
19.18590887132468
 30
0.0
 10
10.16877388863072
 20
19.18590813895508
 30
0.0
 10
10.16650363866096
 20
19.18590711586851
 30
0.0
 10
10.16441739522677
 20
19.18590601667901
 30
0.0
 10
10.16250960756414
 20
19.18590506903595
 30
0.0
 10
10.15995585734938
 20
19.18590453892698
 30
0.0
 10
10.15697737782622
 20
19.18590550767454
 30
0.0
 10
10.15393782287523
 20
19.18590676530639
 30
0.0
 10
10.15157115145502
 20
19.18590730272003
 30
0.0
 10
10.14990650514318
 20
19.18590676198983
 30
0.0
 10
10.14887925758062
 20
19.18590535905939
 30
0.0
 10
10.14875345454024
 20
19.18590497855974
 30
0.0
 10
10.14869107553092
 20
19.18590478989028
 30
0.0
  0
SPLINE
  5
FE
330
1F
100
AcDbEntity
  8
0
  6
Continuous
 62
   144
370
     0
100
AcDbSpline
210
0.0
220
0.0
230
1.0
 70
     8
 71
     3
 72
    10
 73
     6
 74
     0
 42
0.00000001
 43
0.00000001
 40
0.0
 40
0.0
 40
0.0
 40
0.0
 40
0.5
 40
0.5
 40
1.0
 40
1.0
 40
1.0
 40
1.0
 10
9.995631539967889
 20
18.62267516485819
 30
0.0
 10
9.99821806431179
 20
18.62775061522151
 30
0.0
 10
10.00264096370178
 20
18.6322117243744
 30
0.0
 10
10.01437912902567
 20
18.63837393967732
 30
0.0
 10
10.02164058083426
 20
18.64004679488545
 30
0.0
 10
10.02916004781762
 20
18.6402767131798
 30
0.0
  0
SPLINE
  5
FF
330
1F
100
AcDbEntity
  8
0
  6
Continuous
 62
     7
370
    15
100
AcDbSpline
210
0.0
220
0.0
230
1.0
 70
     8
 71
     3
 72
     9
 73
     5
 74
     0
 42
0.00000001
 43
0.00000001
 40
0.0
 40
0.0
 40
0.0
 40
0.0
 40
0.0245419790951626
 40
1.0
 40
1.0
 40
1.0
 40
1.0
 10
10.71042877494799
 20
18.25560932180922
 30
0.0
 10
10.71085842981831
 20
18.25538691462526
 30
0.0
 10
10.72836536634764
 20
18.24632459804939
 30
0.0
 10
10.7449846607138
 20
18.23449781711944
 30
0.0
 10
10.76119608470504
 20
18.22296128879984
 30
0.0
  0
LINE
  5
100
330
1F
100
AcDbEntity
  8
0
  6
Continuous
 62
     7
370
    15
100
AcDbLine
 10
9.9956315399
 20
18.6226751647
 30
0.0
 11
10.0186002409
 21
18.6698248071
 31
0.0
  0
SPLINE
  5
101
330
1F
100
AcDbEntity
  8
0
  6
Continuous
 62
     7
370
    15
100
AcDbSpline
210
0.0
220
0.0
230
1.0
 70
     8
 71
     3
 72
     9
 73
     5
 74
     0
 42
0.00000001
 43
0.00000001
 40
0.0
 40
0.0
 40
0.0
 40
0.0
 40
0.3230790358468499
 40
1.0
 40
1.0
 40
1.0
 40
1.0
 10
10.06572159059232
 20
18.77795112854345
 30
0.0
 10
10.06648528101675
 20
18.77985431674551
 30
0.0
 10
10.06884906925338
 20
18.78574509884802
 30
0.0
 10
10.06919412836887
 20
18.7866405803846
 30
0.0
 10
10.06942770611801
 20
18.78724675060973
 30
0.0
  0
SPLINE
  5
102
330
1F
100
AcDbEntity
  8
0
  6
Continuous
 62
     7
370
    15
100
AcDbSpline
210
0.0
220
0.0
230
1.0
 70
     8
 71
     3
 72
     9
 73
     5
 74
     0
 42
0.00000001
 43
0.00000001
 40
0.0
 40
0.0
 40
0.0
 40
0.0
 40
0.980508205356783
 40
1.0
 40
1.0
 40
1.0
 40
1.0
 10
10.13559457905309
 20
19.0252663423858
 30
0.0
 10
10.13514424228222
 20
19.02137468975725
 30
0.0
 10
10.13468495314175
 20
19.01740567388642
 30
0.0
 10
10.1340052906492
 20
19.01363333990966
 30
0.0
 10
10.13399204280747
 20
19.01355981035046
 30
0.0
  0
SPLINE
  5
103
330
1F
100
AcDbEntity
  8
0
  6
Continuous
 62
     7
370
    15
100
AcDbSpline
210
0.0
220
0.0
230
1.0
 70
     8
 71
     3
 72
     9
 73
     5
 74
     0
 42
0.00000001
 43
0.00000001
 40
0.0
 40
0.0
 40
0.0
 40
0.0
 40
0.1557239994842516
 40
1.0
 40
1.0
 40
1.0
 40
1.0
 10
10.1108335947887
 20
18.90875152350786
 30
0.0
 10
10.1101763241081
 20
18.90626526105481
 30
0.0
 10
10.10595558303557
 20
18.89029943394215
 30
0.0
 10
10.10101399895483
 20
18.87527444405436
 30
0.0
 10
10.09684193811094
 20
18.86258920568411
 30
0.0
  0
SPLINE
  5
104
330
1F
100
AcDbEntity
  8
0
  6
Continuous
 62
     7
370
    15
100
AcDbSpline
210
0.0
220
0.0
230
1.0
 70
     8
 71
     3
 72
    25
 73
    21
 74
     0
 42
0.00000001
 43
0.00000001
 40
0.0
 40
0.0
 40
0.0
 40
0.0
 40
0.0465941278989752
 40
0.0925246347137526
 40
0.1377086069717266
 40
0.1820681030891439
 40
0.2255306176127514
 40
0.2680294298664292
 40
0.3095038371336089
 40
0.3498992761567785
 40
0.3891673398463685
 40
0.4272656985661706
 40
0.4641579371588214
 40
0.49981331999998
 40
0.5845991195496861
 40
0.6692354853233186
 40
0.7533980084054237
 40
0.8367729995058241
 40
0.919064447460717
 40
1.0
 40
1.0
 40
1.0
 40
1.0
 10
10.56591403430655
 20
19.18590478989028
 30
0.0
 10
10.56589362338225
 20
19.18590488663283
 30
0.0
 10
10.5658530922381
 20
19.18590507874006
 30
0.0
 10
10.5655282096396
 20
19.18590616888476
 30
0.0
 10
10.5650221061773
 20
19.18590732664959
 30
0.0
 10
10.56432823467355
 20
19.18590834358406
 30
0.0
 10
10.56346510967063
 20
19.18590899480527
 30
0.0
 10
10.56244610521895
 20
19.18590917791805
 30
0.0
 10
10.56128697420867
 20
19.18590887132468
 30
0.0
 10
10.56000354267292
 20
19.18590813895508
 30
0.0
 10
10.5586119670397
 20
19.18590711586851
 30
0.0
 10
10.55712837977273
 20
19.18590601667901
 30
0.0
 10
10.55556862753334
 20
19.18590506903595
 30
0.0
 10
10.55318486770863
 20
19.18590453892697
 30
0.0
 10
10.54972389273505
 20
19.18590550767454
 30
0.0
 10
10.54486479482572
 20
19.18590676530639
 30
0.0
 10
10.53949783553871
 20
19.18590730272003
 30
0.0
 10
10.53368800861279
 20
19.18590676198983
 30
0.0
 10
10.52754592559464
 20
19.18590535905939
 30
0.0
 10
10.52317120372564
 20
19.18590497855974
 30
0.0
 10
10.52100201277928
 20
19.18590478989028
 30
0.0
  0
SPLINE
  5
105
330
1F
100
AcDbEntity
  8
0
  6
Continuous
 62
     7
370
    15
100
AcDbSpline
210
0.0
220
0.0
230
1.0
 70
     8
 71
     3
 72
     9
 73
     5
 74
     0
 42
0.00000001
 43
0.00000001
 40
0.0
 40
0.0
 40
0.0
 40
0.0
 40
0.3844277906335719
 40
0.9999999999999999
 40
0.9999999999999999
 40
0.9999999999999999
 40
0.9999999999999999
 10
10.5543693356475
 20
19.67598322765782
 30
0.0
 10
10.55594365241443
 20
19.6131787919505
 30
0.0
 10
10.56003887342937
 20
19.44980757572335
 30
0.0
 10
10.56367935937063
 20
19.28645815419761
 30
0.0
 10
10.56592034134466
 20
19.18590478989028
 30
0.0
  0
SPLINE
  5
106
330
1F
100
AcDbEntity
  8
0
  6
Continuous
 62
     7
370
    15
100
AcDbSpline
210
0.0
220
0.0
230
1.0
 70
     8
 71
     3
 72
    24
 73
    20
 74
     0
 42
0.00000001
 43
0.00000001
 40
0.0
 40
0.0
 40
0.0
 40
0.0
 40
0.0617435623924404
 40
0.1173055877402672
 40
0.1669078614483041
 40
0.2103266068471318
 40
0.2470953460556934
 40
0.3090492584511388
 40
0.3724809349976496
 40
0.4229491445811696
 40
0.4981539154853129
 40
0.5696049304444438
 40
0.6232278214385377
 40
0.6887916830875417
 40
0.7485543291348294
 40
0.8113498318177894
 40
0.8738515632511821
 40
0.9248844845561637
 40
1.0
 40
1.0
 40
1.0
 40
1.0
 10
10.56592034235824
 20
19.18590474555231
 30
0.0
 10
10.56623733125645
 20
19.17247018335753
 30
0.0
 10
10.56683957329708
 20
19.14694607763335
 30
0.0
 10
10.56974228956431
 20
19.11069161423465
 30
0.0
 10
10.5746723509252
 20
19.07866874789931
 30
0.0
 10
10.58096259755287
 20
19.05106720784804
 30
0.0
 10
10.58968420901788
 20
19.02132015865948
 30
0.0
 10
10.60207152177925
 20
18.98816061793545
 30
0.0
 10
10.61839012086168
 20
18.95342470125633
 30
0.0
 10
10.63827455231924
 20
18.91728881970963
 30
0.0
 10
10.66131423464487
 20
18.88096038540942
 30
0.0
 10
10.68690877123659
 20
18.84554451583861
 30
0.0
 10
10.71273364854019
 20
18.81295002490748
 30
0.0
 10
10.73811894191031
 20
18.78329002842436
 30
0.0
 10
10.76588050780061
 20
18.75307577196547
 30
0.0
 10
10.79408205642911
 20
18.72421630567015
 30
0.0
 10
10.82169447975773
 20
18.697481730116
 30
0.0
 10
10.85178729799429
 20
18.66949416962097
 30
0.0
 10
10.87228803212918
 20
18.65118122080096
 30
0.0
 10
10.88449526395232
 20
18.6402767131799
 30
0.0
  0
SPLINE
  5
107
330
1F
100
AcDbEntity
  8
0
  6
Continuous
 62
   144
370
     0
100
AcDbSpline
210
0.0
220
0.0
230
1.0
 70
     8
 71
     3
 72
    10
 73
     6
 74
     0
 42
0.00000001
 43
0.00000001
 40
0.0
 40
0.0
 40
0.0
 40
0.0
 40
0.5
 40
0.5
 40
1.0
 40
1.0
 40
1.0
 40
1.0
 10
10.87136289877016
 20
18.6226751648583
 30
0.0
 10
10.87558005883714
 20
18.62775061522161
 30
0.0
 10
10.87915612413101
 20
18.63221172437451
 30
0.0
 10
10.88375370044704
 20
18.63837393967741
 30
0.0
 10
10.88475413368224
 20
18.64004679488555
 30
0.0
 10
10.88449526395232
 20
18.6402767131799
 30
0.0
  0
ARC
  5
108
330
1F
100
AcDbEntity
  8
0
  6
Continuous
 62
     7
370
    15
100
AcDbCircle
 10
10.4446284922
 20
18.951917689
 30
0.0
 40
0.5660923244580253
100
AcDbArc
 50
315.6191071403
 51
324.3845393042
  0
SPLINE
  5
109
330
1F
100
AcDbEntity
  8
0
  6
Continuous
 62
     7
370
    15
100
AcDbSpline
210
0.0
220
0.0
230
1.0
 70
     8
 71
     3
 72
     8
 73
     4
 74
     0
 42
0.00000001
 43
0.00000001
 40
0.0
 40
0.0
 40
0.0
 40
0.0
 40
1.0
 40
1.0
 40
1.0
 40
1.0
 10
10.88449526395232
 20
18.64027671317991
 30
0.0
 10
10.8912595913163
 20
18.63426402958054
 30
0.0
 10
10.89804291138406
 20
18.62826255321004
 30
0.0
 10
10.90482965346215
 20
18.62225815102938
 30
0.0
  0
ARC
  5
10A
330
1F
100
AcDbEntity
  8
0
  6
Continuous
 62
   144
370
     0
100
AcDbCircle
 10
10.5449336575
 20
18.8647282268
 30
0.0
 40
0.4070387777132496
100
AcDbArc
 50
314.4053307646
 51
326.5351447964
  0
SPLINE
  5
10B
330
1F
100
AcDbEntity
  8
0
  6
Continuous
 62
     7
370
    15
100
AcDbSpline
210
0.0
220
0.0
230
1.0
 70
    24
 71
     3
 72
     8
 73
     4
 74
     0
 42
0.00000001
 43
0.00000001
 40
0.0
 40
0.0
 40
0.0
 40
0.0
 40
1.0
 40
1.0
 40
1.0
 40
1.0
 10
10.90482965346215
 20
18.62225815102938
 30
0.0
 10
10.91536320717742
 20
18.61293884993193
 30
0.0
 10
10.92590068257284
 20
18.60361607922496
 30
0.0
 10
10.9364384703269
 20
18.59429303216642
 30
0.0
  0
ARC
  5
10C
330
1F
100
AcDbEntity
  8
0
  6
Continuous
 62
     7
370
    15
100
AcDbCircle
 10
10.3135450809
 20
19.067727449
 30
0.0
 40
0.7823914119947759
100
AcDbArc
 50
316.4013041512
 51
322.7630996658
  0
LINE
  5
10D
330
1F
100
AcDbEntity
  8
0
  6
Continuous
 62
     7
370
    15
100
AcDbLine
 10
12.6390480462
 20
16.9720403879
 30
0.0
 11
10.8801432071
 21
18.528187937
 31
0.0
  0
LINE
  5
10E
330
1F
100
AcDbEntity
  8
0
  6
Continuous
 62
     7
370
    15
100
AcDbLine
 10
10.9364384703
 20
18.5942930322
 30
0.0
 11
12.6953433094
 21
17.0381454831
 31
0.0
  0
ARC
  5
10F
330
1F
100
AcDbEntity
  8
0
  6
Continuous
 62
     7
370
    15
100
AcDbCircle
 10
12.07244992
 20
17.5115798999
 30
0.0
 40
0.7823914120194754
100
AcDbArc
 50
316.4013041512
 51
322.7630996656
  0
LINE
  5
110
330
1F
100
AcDbEntity
  8
0
  6
Continuous
 62
     7
370
    15
100
AcDbLine
 10
10.8027460112
 20
18.2332580516
 30
0.0
 11
12.5674136741
 21
16.854548571
 31
0.0
  0
LINE
  5
111
330
1F
100
AcDbEntity
  8
0
  6
Continuous
 62
     7
370
    15
100
AcDbLine
 10
12.5674136741
 20
16.854548571
 30
0.0
 11
12.6390480462
 21
16.9720403879
 31
0.0
  0
SPLINE
  5
112
330
1F
100
AcDbEntity
  8
0
  6
Continuous
 62
     7
370
    15
100
AcDbSpline
210
0.0
220
0.0
230
1.0
 70
    24
 71
     3
 72
     8
 73
     4
 74
     0
 42
0.00000001
 43
0.00000001
 40
0.0
 40
0.0
 40
0.0
 40
0.0
 40
1.0
 40
1.0
 40
1.0
 40
1.0
 10
12.69534330943712
 20
17.03814548305587
 30
0.0
 10
12.70074907523771
 20
17.03336286547781
 30
0.0
 10
12.7061561085335
 20
17.02857912651473
 30
0.0
 10
12.71156434587789
 20
17.02379432229944
 30
0.0
  0
SPLINE
  5
113
330
1F
100
AcDbEntity
  8
0
  6
Continuous
 62
     7
370
    15
100
AcDbSpline
210
0.0
220
0.0
230
1.0
 70
     8
 71
     3
 72
    16
 73
    12
 74
     0
 42
0.00000001
 43
0.00000001
 40
0.0
 40
0.0
 40
0.0
 40
0.0
 40
0.125
 40
0.125
 40
0.25
 40
0.25
 40
0.5
 40
0.5
 40
0.75
 40
0.75
 40
1.0
 40
1.0
 40
1.0
 40
1.0
 10
12.56741367409504
 20
16.85454857104108
 30
0.0
 10
12.57225614775736
 20
16.85062783504786
 30
0.0
 10
12.57685829983888
 20
16.84639117480483
 30
0.0
 10
12.58550177862511
 20
16.83754484815527
 30
0.0
 10
12.58956114349579
 20
16.83292135757461
 30
0.0
 10
12.60104922757928
 20
16.81852403242109
 30
0.0
 10
12.60780050650583
 20
16.80823294137857
 30
0.0
 10
12.61956960330826
 20
16.78632715527981
 30
0.0
 10
12.62443592196238
 20
16.7749930215723
 30
0.0
 10
12.63200280224062
 20
16.75154776691225
 30
0.0
 10
12.63472857584158
 20
16.73934410094304
 30
0.0
 10
12.63590779915482
 20
16.72693857835877
 30
0.0
  0
SPLINE
  5
114
330
1F
100
AcDbEntity
  8
0
  6
Continuous
 62
     7
370
    15
100
AcDbSpline
210
0.0
220
0.0
230
1.0
 70
     8
 71
     3
 72
     8
 73
     4
 74
     0
 42
0.00000001
 43
0.00000001
 40
0.0
 40
0.0
 40
0.0
 40
0.0
 40
1.0
 40
1.0
 40
1.0
 40
1.0
 10
12.65377084611635
 20
16.95872541220811
 30
0.0
 10
12.64884603755466
 20
16.96314816800689
 30
0.0
 10
12.64393687637825
 20
16.96758664159621
 30
0.0
 10
12.63904804624285
 20
16.97204038791313
 30
0.0
  0
SPLINE
  5
115
330
1F
100
AcDbEntity
  8
0
  6
Continuous
 62
     7
370
    15
100
AcDbSpline
210
0.0
220
0.0
230
1.0
 70
     8
 71
     3
 72
    18
 73
    14
 74
     0
 42
0.00000001
 43
0.00000001
 40
0.0
 40
0.0
 40
0.0
 40
0.0
 40
0.1250000000000019
 40
0.1250000000000019
 40
0.2500000000000037
 40
0.2500000000000037
 40
0.5000000000000019
 40
0.5000000000000019
 40
0.625000000000001
 40
0.625000000000001
 40
0.75
 40
0.75
 40
1.0
 40
1.0
 40
1.0
 40
1.0
 10
12.75950022635962
 20
16.73296751943601
 30
0.0
 10
12.75911638571856
 20
16.74371372074827
 30
0.0
 10
12.75818538067272
 20
16.75440141491478
 30
0.0
 10
12.75524139223085
 20
16.77566426429281
 30
0.0
 10
12.7532226044037
 20
16.7862391049421
 30
0.0
 10
12.74566241305886
 20
16.81730167864932
 30
0.0
 10
12.73861419480704
 20
16.83730626154974
 30
0.0
 10
12.72503906196344
 20
16.8662643709231
 30
0.0
 10
12.71997656756081
 20
16.8757925612822
 30
0.0
 10
12.70898926055024
 20
16.89417159468348
 30
0.0
 10
12.70307244913037
 20
16.90302468592147
 30
0.0
 10
12.68408290136824
 20
16.92859856816675
 30
0.0
 10
12.66978419502583
 20
16.94434452189326
 30
0.0
 10
12.65377084611635
 20
16.95872541220811
 30
0.0
  0
SPLINE
  5
116
330
1F
100
AcDbEntity
  8
0
  6
Continuous
 62
     7
370
    15
100
AcDbSpline
210
0.0
220
0.0
230
1.0
 70
     8
 71
     3
 72
    11
 73
     7
 74
     0
 42
0.00000001
 43
0.00000001
 40
-0.0000000599999999
 40
-0.0000000599999999
 40
-0.0000000599999999
 40
-0.0000000599999999
 40
0.0
 40
0.0
 40
0.0
 40
0.0005130641833186
 40
0.0005130641833186
 40
0.0005130641833186
 40
0.0005130641833186
 10
12.75988619198746
 20
16.72271684142478
 30
0.0
 10
12.75988617614214
 20
16.72271724103704
 30
0.0
 10
12.75988616029638
 20
16.72271764064927
 30
0.0
 10
12.75988614445098
 20
16.72271804026151
 30
0.0
 10
12.75975064937827
 20
16.72613515235507
 30
0.0
 10
12.75962222355285
 20
16.72955202285301
 30
0.0
 10
12.75950022635962
 20
16.732967519436
 30
0.0
  0
LINE
  5
117
330
1F
100
AcDbEntity
  8
0
  6
Continuous
 62
     7
370
    15
100
AcDbLine
 10
12.759886192
 20
16.7227168414
 30
0.0
 11
12.6359077992
 21
16.7269385784
 31
0.0
  0
ARC
  5
118
330
1F
100
AcDbEntity
  8
0
  6
Continuous
 62
     7
370
    15
100
AcDbCircle
 10
18.3592950579
 20
11.949340963
 30
0.0
 40
7.592558138810585
100
AcDbArc
 50
138.0604890991
 51
138.7172405119
  0
SPLINE
  5
119
330
1F
100
AcDbEntity
  8
0
  6
Continuous
 62
     7
370
    15
100
AcDbSpline
210
0.0
220
0.0
230
1.0
 70
     8
 71
     3
 72
    20
 73
    16
 74
     0
 42
0.00000001
 43
0.00000001
 40
0.0
 40
0.0
 40
0.0
 40
0.0
 40
0.2500000000000083
 40
0.2500000000000083
 40
0.3750000000000117
 40
0.3750000000000117
 40
0.4375000000000134
 40
0.4375000000000134
 40
0.5000000000000151
 40
0.5000000000000151
 40
0.7500000000000048
 40
0.7500000000000048
 40
0.8750000000000023
 40
0.8750000000000023
 40
1.0
 40
1.0
 40
1.0
 40
1.0
 10
12.71156434587789
 20
17.02379432229944
 30
0.0
 10
12.73199749449314
 20
17.0057165994851
 30
0.0
 10
12.75024851514272
 20
16.98588156632876
 30
0.0
 10
12.77448313902685
 20
16.95359995121353
 30
0.0
 10
12.78203358127544
 20
16.94241457756048
 30
0.0
 10
12.79254693766471
 20
16.92498270104913
 30
0.0
 10
12.79592479292527
 20
16.91904521872377
 30
0.0
 10
12.80234572567473
 20
16.90705536848004
 30
0.0
 10
12.80539083312649
 20
16.90100212771454
 30
0.0
 10
12.8198055434278
 20
16.87044998906178
 30
0.0
 10
12.82876725354708
 20
16.84510225994939
 30
0.0
 10
12.83835703200904
 20
16.80571918735727
 30
0.0
 10
12.84091232449165
 20
16.79230719163582
 30
0.0
 10
12.84462812044036
 20
16.76534782440702
 30
0.0
 10
12.84579687279124
 20
16.75179652120736
 30
0.0
 10
12.84627265739923
 20
16.73817183266484
 30
0.0
  0
ARC
  5
11A
330
1F
100
AcDbEntity
  8
0
  6
Continuous
 62
     7
370
    15
100
AcDbCircle
 10
12.7675696917
 20
17.3244120717
 30
0.0
 40
0.5914995981717861
100
AcDbArc
 50
269.2183246594
 51
277.6462613974
  0
SPLINE
  5
11B
330
1F
100
AcDbEntity
  8
0
  6
Continuous
 62
     7
370
    15
100
AcDbSpline
210
0.0
220
0.0
230
1.0
 70
    24
 71
     3
 72
     8
 73
     4
 74
     0
 42
0.00000001
 43
0.00000001
 40
0.0
 40
0.0
 40
0.0
 40
0.0
 40
0.000563968909266
 40
0.000563968909266
 40
0.000563968909266
 40
0.000563968909266
 10
12.84627265739923
 20
16.73817183266484
 30
0.0
 10
12.84640376454125
 20
16.7344174153388
 30
0.0
 10
12.8465349271499
 20
16.73066140965621
 30
0.0
 10
12.84666611151225
 20
16.72690478102909
 30
0.0
  0
ARC
  5
11C
330
1F
100
AcDbEntity
  8
0
  6
Continuous
 62
     7
370
    15
100
AcDbCircle
 10
12.7498917042
 20
17.831010638
 30
0.0
 40
1.108338860310283
100
AcDbArc
 50
270.5166738728
 51
275.0091492961
  0
LINE
  5
11D
330
1F
100
AcDbEntity
  8
0
  6
Continuous
 62
     7
370
    15
100
AcDbLine
 10
12.8466661115
 20
16.726904781
 30
0.0
 11
12.8581983414
 21
16.3966649244
 31
0.0
  0
ELLIPSE
  5
11E
330
1F
100
AcDbEntity
  8
0
  6
Continuous
 62
     7
370
    15
100
AcDbEllipse
 10
12.7981739559
 20
16.3963159295
 30
0.0
 11
0.06002438594383186
 21
0.0003489724442253817
 31
0.0
210
0.0
220
0.0
230
1.0
 40
0.0035909689
 41
4.248092980572011
 42
6.283289808018774
  0
LINE
  5
11F
330
1F
100
AcDbEntity
  8
0
  6
Continuous
 62
     7
370
    15
100
AcDbLine
 10
12.7712965502
 20
16.3959669345
 30
0.0
 11
12.759886192
 21
16.7227168414
 31
0.0
  0
LINE
  5
120
330
1F
100
AcDbEntity
  8
0
  6
Continuous
 62
     7
370
    15
100
AcDbLine
 10
12.6617517909
 20
16.3959669345
 30
0.0
 11
12.7712965502
 21
16.3959669345
 31
0.0
  0
LINE
  5
121
330
1F
100
AcDbEntity
  8
0
  6
Continuous
 62
     7
370
    15
100
AcDbLine
 10
12.6359077992
 20
16.7269385784
 30
0.0
 11
12.6617517909
 21
16.3959669345
 31
0.0
  0
LINE
  5
122
330
1F
100
AcDbEntity
  8
0
  6
Continuous
 62
     7
370
    15
100
AcDbLine
 10
12.8482044332
 20
16.3863159295
 30
0.0
 11
12.7757659618
 21
16.3863159295
 31
0.0
  0
LWPOLYLINE
  5
123
330
1F
100
AcDbEntity
  8
0
  6
Continuous
 62
     7
370
    15
100
AcDbPolyline
 90
        9
 70
   128
 43
0.0
 10
12.7712965502
 20
16.3959669345
 10
12.7714084464
 20
16.3940664189
 10
12.7716804623
 20
16.392248563
 10
12.7721026025
 20
16.3905801651
 10
12.7726593551
 20
16.3891225315
 10
12.773330262
 20
16.3879292238
 10
12.7740906702
 20
16.3870440909
 10
12.7749126381
 20
16.3864996576
 10
12.7757659618
 20
16.3863159295
  0
ARC
  5
124
330
1F
100
AcDbEntity
  8
0
  6
Continuous
 62
   144
370
     0
100
AcDbCircle
 10
12.8482044332
 20
16.3963159295
 30
0.0
 40
0.0100000000000003
100
AcDbArc
 50
270.0
 51
2.0
  0
LINE
  5
125
330
1F
100
AcDbEntity
  8
0
  6
Continuous
 62
     7
370
    15
100
AcDbLine
 10
12.7757659618
 20
16.3863159295
 30
0.0
 11
12.6662212026
 21
16.3863159295
 31
0.0
  0
LWPOLYLINE
  5
126
330
1F
100
AcDbEntity
  8
0
  6
Continuous
 62
     7
370
    15
100
AcDbPolyline
 90
        9
 70
   128
 43
0.0
 10
12.6617517909
 20
16.3959669345
 10
12.6618636872
 20
16.3940664189
 10
12.6621357031
 20
16.392248563
 10
12.6625578433
 20
16.3905801651
 10
12.6631145959
 20
16.3891225315
 10
12.6637855028
 20
16.3879292238
 10
12.664545911
 20
16.3870440909
 10
12.6653678788
 20
16.3864996576
 10
12.6662212026
 20
16.3863159295
  0
LINE
  5
127
330
1F
100
AcDbEntity
  8
0
  6
Continuous
 62
     7
370
    15
100
AcDbLine
 10
12.6662212026
 20
16.3863159295
 30
0.0
 11
12.6386418722
 21
16.3863159295
 31
0.0
  0
LINE
  5
128
330
1F
100
AcDbEntity
  8
0
  6
Continuous
 62
   144
370
     0
100
AcDbLine
 10
10.7811861258
 20
18.2500953991
 30
0.0
 11
10.7620704672
 21
18.2223473747
 31
0.0
  0
LINE
  5
129
330
1F
100
AcDbEntity
  8
0
  6
Continuous
 62
     7
370
    15
100
AcDbLine
 10
12.9868589494
 20
21.2469099881
 30
0.0
 11
7.8068589494
 21
21.2469099881
 31
0.0
  0
ARC
  5
12A
330
1F
100
AcDbEntity
  8
0
  6
Continuous
 62
     8
370
    15
100
AcDbCircle
 10
9.1116582275
 20
16.6577642266
 30
0.0
 40
0.0806820055819525
100
AcDbArc
 50
85.2732338427
 51
106.8281782796
  0
ARC
  5
12B
330
1F
100
AcDbEntity
  8
0
  6
Continuous
 62
     8
370
    15
100
AcDbCircle
 10
9.1769433196
 20
16.9895702166
 30
0.0
 40
0.0344075939693084
100
AcDbArc
 50
84.0801884996
 51
146.759358509
  0
ELLIPSE
  5
12C
330
1F
100
AcDbEntity
  8
0
  6
Continuous
 62
     8
370
    15
100
AcDbEllipse
 10
9.1487997889
 20
16.3963159295
 30
0.0
 11
0.06000003027817336
 21
1.230079989156252E-5
 31
0.0
210
0.0
220
0.0
230
1.0
 40
0.0068331349
 41
2.094000430509908
 42
3.140954020111087
  0
ARC
  5
12D
330
1F
100
AcDbEntity
  8
0
  6
Continuous
 62
     8
370
    15
100
AcDbCircle
 10
9.1105644881
 20
16.6266777041
 30
0.0
 40
0.1005339749921458
100
AcDbArc
 50
85.5219512039
 51
102.7390343091
  0
LINE
  5
12E
330
1F
100
AcDbEntity
  8
0
  6
Continuous
 62
     8
370
    15
100
AcDbLine
 10
9.3580446276
 20
16.854548571
 30
0.0
 11
9.3541435726
 21
16.8438438333
 31
0.0
  0
ARC
  5
12F
330
1F
100
AcDbEntity
  8
0
  6
Continuous
 62
     8
370
    15
100
AcDbCircle
 10
9.1857967033
 20
17.0020794193
 30
0.0
 40
0.0361562033567457
100
AcDbArc
 50
85.9533628228
 51
147.1030140863
  0
ARC
  5
130
330
1F
100
AcDbEntity
  8
0
  6
Continuous
 62
     8
370
    15
100
AcDbCircle
 10
10.0030317942
 20
18.5584255843
 30
0.0
 40
0.0359617143464203
100
AcDbArc
 50
85.8505453865
 51
148.4281371699
  0
LWPOLYLINE
  5
131
330
1F
100
AcDbEntity
  8
0
  6
Continuous
 62
     8
370
    15
100
AcDbPolyline
 90
        3
 70
   128
 43
0.0
 10
10.240378459
 20
18.2332580516
 10
10.2364542043
 20
18.2225154959
 10
10.236183342
 20
18.2220836281
  0
LINE
  5
132
330
1F
100
AcDbEntity
  8
0
  6
Continuous
 62
     8
370
    15
100
AcDbLine
 10
10.6749882289
 20
18.2736958625
 30
0.0
 11
10.6608501058
 21
18.2808481328
 31
0.0
  0
SPLINE
  5
133
330
1F
100
AcDbEntity
  8
0
  6
Continuous
 62
     8
370
    15
100
AcDbSpline
210
0.0
220
0.0
230
1.0
 70
     8
 71
     3
 72
    11
 73
     7
 74
     0
 42
0.00000001
 43
0.00000001
 40
0.0
 40
0.0
 40
0.0
 40
0.0
 40
0.2596945109423878
 40
0.5290824165682442
 40
0.8025875713212494
 40
1.0
 40
1.0
 40
1.0
 40
1.0
 10
10.14868988053337
 20
19.18590478989028
 30
0.0
 10
10.14807786024299
 20
19.17175694424102
 30
0.0
 10
10.14683097530479
 20
19.14293316842003
 30
0.0
 10
10.14411059141444
 20
19.09945124060302
 30
0.0
 10
10.14056189179413
 20
19.05977884371339
 30
0.0
 10
10.13706183213831
 20
19.03546070233283
 30
0.0
 10
10.13559457905309
 20
19.0252663423858
 30
0.0
  0
SPLINE
  5
134
330
1F
100
AcDbEntity
  8
0
  6
Continuous
 62
     8
370
    15
100
AcDbSpline
210
0.0
220
0.0
230
1.0
 70
     8
 71
     3
 72
    14
 73
    10
 74
     0
 42
0.00000001
 43
0.00000001
 40
0.0
 40
0.0
 40
0.0
 40
0.0
 40
0.1462250728469676
 40
0.5096751701964831
 40
0.6527464683873677
 40
0.7958090290584765
 40
0.8886798628510721
 40
0.9814604299143468
 40
1.0
 40
1.0
 40
1.0
 40
1.0
 10
10.43095507111808
 20
19.18590478989028
 30
0.0
 10
10.42969351734234
 20
19.28645961498141
 30
0.0
 10
10.42529630540844
 20
19.63694873832097
 30
0.0
 10
10.42187333533874
 20
20.08588423863622
 30
0.0
 10
10.42289113018522
 20
20.53264350293926
 30
0.0
 10
10.42732114259774
 20
20.79327973860559
 30
0.0
 10
10.4358381267335
 20
21.01905781890786
 30
0.0
 10
10.44637010235009
 20
21.15915215029963
 30
0.0
 10
10.45643547889271
 20
21.23438113971131
 30
0.0
 10
10.45811179513369
 20
21.24690998810651
 30
0.0
  0
SPLINE
  5
135
330
1F
100
AcDbEntity
  8
0
  6
Continuous
 62
     8
370
    15
100
AcDbSpline
210
0.0
220
0.0
230
1.0
 70
     8
 71
     3
 72
    14
 73
    10
 74
     0
 42
0.00000001
 43
0.00000001
 40
0.0
 40
0.0
 40
0.0
 40
0.0
 40
0.0185846028626499
 40
0.1113609128347086
 40
0.2042274853943407
 40
0.3472834818635647
 40
0.4903482154516574
 40
0.8537816364618452
 40
1.0
 40
1.0
 40
1.0
 40
1.0
 10
10.25301274621162
 20
21.24690998810651
 30
0.0
 10
10.25225769028683
 20
21.23438409697981
 30
0.0
 10
10.24773331504741
 20
21.15932762790993
 30
0.0
 10
10.24545666780814
 20
21.01900040068762
 30
0.0
 10
10.24139695846196
 20
20.79330457268023
 30
0.0
 10
10.23544359557303
 20
20.53263591315825
 30
0.0
 10
10.22378383414246
 20
20.0858899959493
 30
0.0
 10
10.20961865641327
 20
19.63694805383812
 30
0.0
 10
10.19724998874137
 20
19.28645946238418
 30
0.0
 10
10.19370143578628
 20
19.18590478989029
 30
0.0
  0
SPLINE
  5
136
330
1F
100
AcDbEntity
  8
0
  6
Continuous
 62
     8
370
    15
100
AcDbSpline
210
0.0
220
0.0
230
1.0
 70
     8
 71
     3
 72
    13
 73
     9
 74
     0
 42
0.00000001
 43
0.00000001
 40
0.0
 40
0.0
 40
0.0
 40
0.0
 40
0.0243742863641978
 40
0.1460533108655876
 40
0.2678507175661424
 40
0.4554731192837312
 40
0.6431069800052532
 40
1.0
 40
1.0
 40
1.0
 40
1.0
 10
10.47919500976369
 20
21.24690998810651
 30
0.0
 10
10.48171999073767
 20
21.23438409688828
 30
0.0
 10
10.49684994472327
 20
21.15932762726991
 30
0.0
 10
10.50913053361219
 20
21.01900041712415
 30
0.0
 10
10.52192606783483
 20
20.79330450013155
 30
0.0
 10
10.53221024759187
 20
20.53263634929501
 30
0.0
 10
10.54320824241029
 20
20.14869114333555
 30
0.0
 10
10.54995040028926
 20
19.86313924170696
 30
0.0
 10
10.5543693356475
 20
19.67598322765782
 30
0.0
  0
LINE
  5
137
330
1F
100
AcDbEntity
  8
0
  6
Continuous
 62
     8
370
    15
100
AcDbLine
 10
12.6359077992
 20
16.7269385784
 30
0.0
 11
12.6029063558
 21
16.7243616536
 31
0.0
  0
LINE
  5
138
330
1F
100
AcDbEntity
  8
0
  6
Continuous
 62
     8
370
    15
100
AcDbLine
 10
12.5674136741
 20
16.854548571
 30
0.0
 11
12.5470120459
 21
16.8284356777
 31
0.0
  0
LINE
  5
139
330
1F
100
AcDbEntity
  8
0
  6
Continuous
 62
     8
370
    15
100
AcDbLine
 10
10.8027460112
 20
18.2332580516
 30
0.0
 11
10.7823443889
 21
18.207145166
 31
0.0
  0
LINE
  5
13A
330
1F
100
AcDbEntity
  8
0
  6
Continuous
 62
     8
370
    15
100
AcDbLine
 10
12.6617517909
 20
16.3959669345
 30
0.0
 11
12.6285826645
 21
16.395537447
 31
0.0
  0
LINE
  5
13B
330
1F
100
AcDbEntity
  8
0
  6
Continuous
 62
     8
370
    15
100
AcDbLine
 10
12.5625287986
 20
24.2661758953
 30
0.0
 11
8.2311891002
 21
24.2661758953
 31
0.0
  0
DIMENSION
  5
13C
330
1F
100
AcDbEntity
  8
0
  6
Continuous
 62
     7
370
     0
100
AcDbDimension
  2
*D4
 10
14.5868589494
 20
16.3863159295
 30
0.0
 11
14.5868589494
 21
20.4774430689
 31
0.0
 70
   160
 71
     2
 42
-1.0
  3
SLDDIMSTYLE0
100
AcDbAlignedDimension
 13
12.4566028044
 23
24.3304533665
 33
0.0
 14
12.8482044332
 24
16.3863159295
 34
0.0
 50
90.0
100
AcDbRotatedDimension
  0
LINE
  5
15B
330
1F
100
AcDbEntity
  8
0
  6
Continuous
 62
     7
370
    15
100
AcDbLine
 10
9.1188171652
 20
8.8264008908
 30
0.0
 11
9.2135552499
 21
8.771703832
 31
0.0
  0
LINE
  5
15C
330
1F
100
AcDbEntity
  8
0
  6
Continuous
 62
     7
370
    15
100
AcDbLine
 10
9.2135552499
 20
13.0895763236
 30
0.0
 11
9.1188171652
 21
13.0348792649
 31
0.0
  0
LINE
  5
15D
330
1F
100
AcDbEntity
  8
0
  6
Continuous
 62
     7
370
    15
100
AcDbLine
 10
9.2720322827
 20
8.7708356059
 30
0.0
 11
9.2839077464
 21
8.7772252132
 31
0.0
  0
LINE
  5
15E
330
1F
100
AcDbEntity
  8
0
  6
Continuous
 62
     7
370
    15
100
AcDbLine
 10
9.0884225733
 20
8.8900886305
 30
0.0
 11
9.0888267429
 21
8.8766093736
 31
0.0
  0
LINE
  5
15F
330
1F
100
AcDbEntity
  8
0
  6
Continuous
 62
     7
370
    15
100
AcDbLine
 10
12.8182465286
 20
10.8177766605
 30
0.0
 11
12.8297178227
 21
10.8248663101
 31
0.0
  0
LINE
  5
160
330
1F
100
AcDbEntity
  8
0
  6
Continuous
 62
     7
370
    15
100
AcDbLine
 10
12.8297178227
 20
11.0364138455
 30
0.0
 11
12.8182465286
 21
11.0435034951
 31
0.0
  0
LINE
  5
161
330
1F
100
AcDbEntity
  8
0
  6
Continuous
 62
     7
370
    15
100
AcDbLine
 10
9.0888267429
 20
12.984670782
 30
0.0
 11
9.0884225733
 21
12.9711915252
 31
0.0
  0
LINE
  5
162
330
1F
100
AcDbEntity
  8
0
  6
Continuous
 62
     7
370
    15
100
AcDbLine
 10
9.2839077464
 20
13.0840549425
 30
0.0
 11
9.2720322827
 21
13.0904445497
 31
0.0
  0
LINE
  5
163
330
1F
100
AcDbEntity
  8
0
  6
Continuous
 62
     7
370
    15
100
AcDbLine
 10
9.0884281243
 20
8.8899035026
 30
0.0
 11
9.0884225734
 21
8.8900886273
 31
0.0
  0
LINE
  5
164
330
1F
100
AcDbEntity
  8
0
  6
Continuous
 62
     7
370
    15
100
AcDbLine
 10
12.8184040356
 20
10.8178740052
 30
0.0
 11
12.818246531
 21
10.817776662
 31
0.0
  0
LINE
  5
165
330
1F
100
AcDbEntity
  8
0
  6
Continuous
 62
     7
370
    15
100
AcDbLine
 10
9.2837446333
 20
13.0841427056
 30
0.0
 11
9.2839077432
 21
13.0840549442
 31
0.0
  0
SPLINE
  5
166
330
1F
100
AcDbEntity
  8
0
  6
Continuous
 62
     7
370
    15
100
AcDbSpline
210
0.0
220
0.0
230
1.0
 70
     8
 71
     3
 72
    15
 73
    11
 74
     0
 42
0.00000001
 43
0.00000001
 40
0.0
 40
0.0
 40
0.0
 40
0.0
 40
0.1296469828184638
 40
0.273060216218212
 40
0.4492579180967863
 40
0.6305271855493957
 40
0.8348445420366198
 40
0.9087815993664001
 40
0.9682203072203919
 40
0.9999999999999999
 40
0.9999999999999999
 40
0.9999999999999999
 40
0.9999999999999999
 10
9.148591826393483
 20
9.02485994124167
 30
0.0
 10
9.144140372821907
 20
9.017236555530928
 30
0.0
 10
9.134764798872437
 20
9.001180313378306
 30
0.0
 10
9.12148530370997
 20
8.978021866350682
 30
0.0
 10
9.10920012224402
 20
8.955632168782737
 30
0.0
 10
9.0986045912343
 20
8.934114526691806
 30
0.0
 10
9.092826621324903
 20
8.92018707667806
 30
0.0
 10
9.089649254083955
 20
8.907618014644946
 30
0.0
 10
9.088044620522655
 20
8.899322901005224
 30
0.0
 10
9.088362989663715
 20
8.892590076575877
 30
0.0
 10
9.088473906687287
 20
8.890244419445105
 30
0.0
  0
SPLINE
  5
167
330
1F
100
AcDbEntity
  8
0
  6
Continuous
 62
     7
370
    15
100
AcDbSpline
210
0.0
220
0.0
230
1.0
 70
     8
 71
     3
 72
    16
 73
    12
 74
     0
 42
0.00000001
 43
0.00000001
 40
0.0
 40
0.0
 40
0.0
 40
0.0
 40
0.0114099119310395
 40
0.0612248821942339
 40
0.1188603011222457
 40
0.1975830356416433
 40
0.3319793607107632
 40
0.5078678065510439
 40
0.6983372396236152
 40
0.8792513935209325
 40
0.9999999999999999
 40
0.9999999999999999
 40
0.9999999999999999
 40
0.9999999999999999
 10
9.283445878035689
 20
8.776976704379326
 30
0.0
 10
9.28425185038339
 20
8.777330628998017
 30
0.0
 10
9.288576648185325
 20
8.779229766626417
 30
0.0
 10
9.29425067533371
 20
8.78354127095081
 30
0.0
 10
9.30091567973931
 20
8.789118301926898
 30
0.0
 10
9.30787891965869
 20
8.796611111899777
 30
0.0
 10
9.316096232362717
 20
8.807021456821044
 30
0.0
 10
9.327351112880278
 20
8.823370071799369
 30
0.0
 10
9.341731714828152
 20
8.846718722333092
 30
0.0
 10
9.356159447738575
 20
8.871570005552396
 30
0.0
 10
9.366469555825727
 20
8.88961205501348
 30
0.0
 10
9.370596452969474
 20
8.896833868961393
 30
0.0
  0
SPLINE
  5
168
330
1F
100
AcDbEntity
  8
0
  6
Continuous
 62
     7
370
    15
100
AcDbSpline
210
0.0
220
0.0
230
1.0
 70
     8
 71
     3
 72
    15
 73
    11
 74
     0
 42
0.00000001
 43
0.00000001
 40
0.0
 40
0.0
 40
0.0
 40
0.0
 40
0.129646995859275
 40
0.2730602436843896
 40
0.4492579632860935
 40
0.6305272489719788
 40
0.8348446260106641
 40
0.9087816907776154
 40
0.9682204046103842
 40
1.0
 40
1.0
 40
1.0
 40
1.0
 10
12.67144652323325
 20
10.80249910686399
 30
0.0
 10
12.68027429570718
 20
10.80245572784225
 30
0.0
 10
12.69886719627496
 20
10.80236436370253
 30
0.0
 10
12.72556274729814
 20
10.80244320706265
 30
0.0
 10
12.75109538488968
 20
10.8029987765762
 30
0.0
 10
12.77502797515104
 20
10.80458159872875
 30
0.0
 10
12.78997848537748
 20
10.80654145459145
 30
0.0
 10
12.80245229642179
 20
10.81007430553485
 30
0.0
 10
12.81043838674892
 20
10.81283220602208
 30
0.0
 10
12.8161099926306
 20
10.81647432949925
 30
0.0
 10
12.81808592642795
 20
10.81774321083952
 30
0.0
  0
SPLINE
  5
169
330
1F
100
AcDbEntity
  8
0
  6
Continuous
 62
     7
370
    15
100
AcDbSpline
210
0.0
220
0.0
230
1.0
 70
     8
 71
     3
 72
    16
 73
    12
 74
     0
 42
0.00000001
 43
0.00000001
 40
0.0
 40
0.0
 40
0.0
 40
0.0
 40
0.0114099714861957
 40
0.0612252017630399
 40
0.1188609215247997
 40
0.1975840669451034
 40
0.3319810935083689
 40
0.5078704574154413
 40
0.6983408846619782
 40
0.8792559828583926
 40
1.0
 40
1.0
 40
1.0
 40
1.0
 10
12.81869267770724
 20
11.04322775982057
 30
0.0
 10
12.81798318382257
 20
11.04374879003908
 30
0.0
 10
12.8141760834901
 20
11.04654460598757
 30
0.0
 10
12.80760519764374
 20
11.04930270547768
 30
0.0
 10
12.79944284493094
 20
11.05228625312094
 30
0.0
 10
12.78947226123468
 20
11.05457019079926
 30
0.0
 10
12.77634798137694
 20
11.05648141987663
 30
0.0
 10
12.75656222707406
 20
11.05805412491062
 30
0.0
 10
12.72915139396441
 20
11.05883376592798
 30
0.0
 10
12.70041601417565
 20
11.05890290784517
 30
0.0
 10
12.67963645683647
 20
11.05881070066833
 30
0.0
 10
12.67131909760552
 20
11.05877379323085
 30
0.0
  0
SPLINE
  5
16A
330
1F
100
AcDbEntity
  8
0
  6
Continuous
 62
     7
370
    15
100
AcDbSpline
210
0.0
220
0.0
230
1.0
 70
     8
 71
     3
 72
    16
 73
    12
 74
     0
 42
0.00000001
 43
0.00000001
 40
0.0
 40
0.0
 40
0.0
 40
0.0
 40
0.0114099119311441
 40
0.061224882194008
 40
0.1188603011221239
 40
0.1975830356415335
 40
0.3319793607110729
 40
0.5078678065513652
 40
0.6983372396239432
 40
0.8792513935212367
 40
1.0
 40
1.0
 40
1.0
 40
1.0
 10
9.088438292506082
 20
12.97171576926311
 30
0.0
 10
9.088341814043044
 20
12.97084081442591
 30
0.0
 10
9.087824116573561
 20
12.96614586084902
 30
0.0
 10
9.088720975272812
 20
12.95907625703461
 30
0.0
 10
9.090218323573
 20
12.95051567841495
 30
0.0
 10
9.09322566739556
 20
12.94073893076567
 30
0.0
 10
9.09813263420753
 20
12.9284173567525
 30
0.0
 10
9.106663509836682
 20
12.91049603681855
 30
0.0
 10
9.11969373336904
 20
12.88636774494312
 30
0.0
 10
9.134001709498374
 20
12.86144732011404
 30
0.0
 10
9.14447152862442
 20
12.84349747986428
 30
0.0
 10
9.148662354392833
 20
12.83631257512505
 30
0.0
  0
SPLINE
  5
16B
330
1F
100
AcDbEntity
  8
0
  6
Continuous
 62
     7
370
    15
100
AcDbSpline
210
0.0
220
0.0
230
1.0
 70
     8
 71
     3
 72
    15
 73
    11
 74
     0
 42
0.00000001
 43
0.00000001
 40
0.0
 40
0.0
 40
0.0
 40
0.0
 40
0.1296417885234547
 40
0.273055873167884
 40
0.4492546208869683
 40
0.630524964282863
 40
0.8348435335175407
 40
0.9087810297089667
 40
0.9682200903680032
 40
0.9999999999999999
 40
0.9999999999999999
 40
0.9999999999999999
 40
0.9999999999999999
 10
9.370537905710187
 20
12.96456222139526
 30
0.0
 10
9.366161789930667
 20
12.97222862984218
 30
0.0
 10
9.356944668438663
 20
12.98837587585272
 30
0.0
 10
9.343528799547796
 20
13.0114551554647
 30
0.0
 10
9.330281340402278
 20
13.03328928945389
 30
0.0
 10
9.316944282178088
 20
13.05322410770633
 30
0.0
 10
9.30777174123344
 20
13.06519170191801
 30
0.0
 10
9.298475298074695
 20
13.07422791363371
 30
0.0
 10
9.29209383422296
 20
13.07976512483834
 30
0.0
 10
9.28610385064604
 20
13.08285582224694
 30
0.0
 10
9.284016991562186
 20
13.08393259480896
 30
0.0
  0
SPLINE
  5
16C
330
1F
100
AcDbEntity
  8
0
  6
Continuous
 62
     7
370
    15
100
AcDbSpline
210
0.0
220
0.0
230
1.0
 70
     8
 71
     3
 72
     9
 73
     5
 74
     0
 42
0.00000001
 43
0.00000001
 40
0.0
 40
0.0
 40
0.0
 40
0.0
 40
0.7014341172085645
 40
1.0
 40
1.0
 40
1.0
 40
1.0
 10
9.370551723204791
 20
8.896569784587841
 30
0.0
 10
9.372059297931843
 20
8.899255209458035
 30
0.0
 10
9.374208572810362
 20
8.903083687150112
 30
0.0
 10
9.376854773108882
 20
8.907224921377297
 30
0.0
 10
9.377644838237051
 20
8.908461352630184
 30
0.0
  0
LINE
  5
16D
330
1F
100
AcDbEntity
  8
0
  6
Continuous
 62
     7
370
    15
100
AcDbLine
 10
9.1551168284
 20
9.0370655082
 30
0.0
 11
9.1483350352
 21
9.0250477352
 31
0.0
  0
SPLINE
  5
16E
330
1F
100
AcDbEntity
  8
0
  6
Continuous
 62
     7
370
    15
100
AcDbSpline
210
0.0
220
0.0
230
1.0
 70
     8
 71
     3
 72
     9
 73
     5
 74
     0
 42
0.00000001
 43
0.00000001
 40
0.0
 40
0.0
 40
0.0
 40
0.0
 40
0.702038737085483
 40
1.0
 40
1.0
 40
1.0
 40
1.0
 10
12.67157195580656
 20
11.05886721807384
 30
0.0
 10
12.66848931401037
 20
11.05883004254764
 30
0.0
 10
12.66409832867957
 20
11.05877708887967
 30
0.0
 10
12.65918775248352
 20
11.05899816022573
 30
0.0
 10
12.65772459099851
 20
11.05906403092319
 30
0.0
  0
LINE
  5
16F
330
1F
100
AcDbEntity
  8
0
  6
Continuous
 62
     7
370
    15
100
AcDbLine
 10
12.6576220122
 20
10.8020470862
 30
0.0
 11
12.6714121642
 21
10.8021827318
 31
0.0
  0
SPLINE
  5
170
330
1F
100
AcDbEntity
  8
0
  6
Continuous
 62
     7
370
    15
100
AcDbSpline
210
0.0
220
0.0
230
1.0
 70
     8
 71
     3
 72
     9
 73
     5
 74
     0
 42
0.00000001
 43
0.00000001
 40
0.0
 40
0.0
 40
0.0
 40
0.0
 40
0.7014341172085307
 40
1.0
 40
1.0
 40
1.0
 40
1.0
 10
9.148456015498937
 20
12.83648335442435
 30
0.0
 10
9.150027874292952
 20
12.83383504397752
 30
0.0
 10
9.152268795792853
 20
12.83005947848697
 30
0.0
 10
9.15453210968736
 20
12.82569718469136
 30
0.0
 10
9.155207857998308
 20
12.82439475259328
 30
0.0
  0
LINE
  5
171
330
1F
100
AcDbEntity
  8
0
  6
Continuous
 62
     7
370
    15
100
AcDbLine
 10
9.3778437595
 20
12.952811935
 30
0.0
 11
9.3708277519
 21
12.9646926847
 31
0.0
  0
LINE
  5
172
330
1F
100
AcDbEntity
  8
0
  6
Continuous
 62
     7
370
    15
100
AcDbLine
 10
9.3774589221
 20
8.9082123276
 30
0.0
 11
10.3190780267
 21
10.3955766488
 31
0.0
  0
LINE
  5
173
330
1F
100
AcDbEntity
  8
0
  6
Continuous
 62
     7
370
    15
100
AcDbLine
 10
10.899127933
 20
10.7304686183
 30
0.0
 11
12.6580327721
 21
10.802252523
 31
0.0
  0
LINE
  5
174
330
1F
100
AcDbEntity
  8
0
  6
Continuous
 62
     7
370
    15
100
AcDbLine
 10
9.1550851541
 20
12.8246802732
 30
0.0
 11
9.9723708886
 21
11.2655320474
 31
0.0
  0
LINE
  5
175
330
1F
100
AcDbEntity
  8
0
  6
Continuous
 62
     7
370
    15
100
AcDbLine
 10
9.9723708886
 20
10.5957481083
 30
0.0
 11
9.1550851541
 21
9.0365998824
 31
0.0
  0
LINE
  5
176
330
1F
100
AcDbEntity
  8
0
  6
Continuous
 62
     7
370
    15
100
AcDbLine
 10
10.3190780267
 20
11.4657035069
 30
0.0
 11
9.3774589221
 21
12.953067828
 31
0.0
  0
LINE
  5
177
330
1F
100
AcDbEntity
  8
0
  6
Continuous
 62
     7
370
    15
100
AcDbLine
 10
12.6580327721
 20
11.0590276327
 30
0.0
 11
10.899127933
 21
11.1308115373
 31
0.0
  0
LINE
  5
178
330
1F
100
AcDbEntity
  8
0
  6
Continuous
 62
     7
370
    15
100
AcDbLine
 10
10.8993756304
 20
11.1309885439
 30
0.0
 11
10.868658445
 21
11.1325394404
 31
0.0
  0
LINE
  5
179
330
1F
100
AcDbEntity
  8
0
  6
Continuous
 62
     7
370
    15
100
AcDbLine
 10
10.3191081074
 20
10.3952746186
 30
0.0
 11
10.3358088417
 21
10.4210995268
 31
0.0
  0
LINE
  5
17A
330
1F
100
AcDbEntity
  8
0
  6
Continuous
 62
     7
370
    15
100
AcDbLine
 10
9.9720942824
 20
11.2656570117
 30
0.0
 11
9.9861089418
 21
11.2382812975
 31
0.0
  0
LINE
  5
17B
330
1F
100
AcDbEntity
  8
0
  6
Continuous
 62
     7
370
    15
100
AcDbLine
 10
10.8688109302
 20
10.728478295
 30
0.0
 11
10.8994346091
 21
10.7301902456
 31
0.0
  0
LINE
  5
17C
330
1F
100
AcDbEntity
  8
0
  6
Continuous
 62
     7
370
    15
100
AcDbLine
 10
10.3359603212
 20
11.4404431867
 30
0.0
 11
10.3191647999
 21
11.4661097596
 31
0.0
  0
LINE
  5
17D
330
1F
100
AcDbEntity
  8
0
  6
Continuous
 62
     7
370
    15
100
AcDbLine
 10
9.9858057194
 20
10.6229985645
 30
0.0
 11
9.9719750776
 21
10.5956189436
 31
0.0
  0
SPLINE
  5
17E
330
1F
100
AcDbEntity
  8
0
  6
Continuous
 62
     7
370
    15
100
AcDbSpline
210
0.0
220
0.0
230
1.0
 70
     8
 71
     3
 72
    23
 73
    19
 74
     0
 42
0.00000001
 43
0.00000001
 40
0.0
 40
0.0
 40
0.0
 40
0.0
 40
0.000336054001564
 40
0.1146465113358183
 40
0.197539001230092
 40
0.2647679218929533
 40
0.3252377956520156
 40
0.3803379885253776
 40
0.4394434479440196
 40
0.4894653882692624
 40
0.5422818541249921
 40
0.5946235681741389
 40
0.649996097116133
 40
0.7079713500497548
 40
0.7703799354523034
 40
0.8398020468123477
 40
0.9262509003410869
 40
1.0
 40
1.0
 40
1.0
 40
1.0
 10
10.34664517730897
 20
10.43785163951158
 30
0.0
 10
10.34667767412678
 20
10.43790108147304
 30
0.0
 10
10.35776412682305
 20
10.45476845507602
 30
0.0
 10
10.37779986102919
 20
10.48236076802418
 30
0.0
 10
10.40847390547612
 20
10.51935697933504
 30
0.0
 10
10.43635671485576
 20
10.5486277523157
 30
0.0
 10
10.46405451330104
 20
10.57403847670408
 30
0.0
 10
10.49367331396957
 20
10.59802454499311
 30
0.0
 10
10.52435100024849
 20
10.61991298261831
 30
0.0
 10
10.55657726354094
 20
10.64031391082661
 30
0.0
 10
10.5887680966354
 20
10.65810334452591
 30
0.0
 10
10.62234049422809
 20
10.67427465848272
 30
0.0
 10
10.65654698339943
 20
10.68850161414136
 30
0.0
 10
10.69165288357737
 20
10.70058571152343
 30
0.0
 10
10.72786752798784
 20
10.71057421871345
 30
0.0
 10
10.76774886961351
 20
10.71873070933287
 30
0.0
 10
10.80805330518977
 20
10.7246042628855
 30
0.0
 10
10.83603560333983
 20
10.72657722288155
 30
0.0
 10
10.84891759873297
 20
10.7274854993013
 30
0.0
  0
SPLINE
  5
17F
330
1F
100
AcDbEntity
  8
0
  6
Continuous
 62
     7
370
    15
100
AcDbSpline
210
0.0
220
0.0
230
1.0
 70
     8
 71
     3
 72
    23
 73
    19
 74
     0
 42
0.00000001
 43
0.00000001
 40
0.0
 40
0.0
 40
0.0
 40
0.0
 40
0.0003360540016407
 40
0.1146465113378214
 40
0.1975390012313284
 40
0.2647679218939262
 40
0.3252377956529271
 40
0.3803379885262945
 40
0.4394434479449101
 40
0.489465388270091
 40
0.5422818541257893
 40
0.5946235681749994
 40
0.6499960971171134
 40
0.7079713500508088
 40
0.7703799354535306
 40
0.8398020468138683
 40
0.9262509003431062
 40
1.0
 40
1.0
 40
1.0
 40
1.0
 10
9.995198529202987
 20
11.22052069924015
 30
0.0
 10
9.995225098788726
 20
11.22046783518964
 30
0.0
 10
10.00428944647603
 20
11.20243299871503
 30
0.0
 10
10.01816722333528
 20
11.17128538743475
 30
0.0
 10
10.03486985995078
 20
11.12622278005128
 30
0.0
 10
10.0462776882505
 20
11.08744017230946
 30
0.0
 10
10.05443512187669
 20
11.05074781303279
 30
0.0
 10
10.06039826601758
 20
11.01310414507968
 30
0.0
 10
10.06401536591064
 20
10.97559227062022
 30
0.0
 10
10.06556995635354
 20
10.93748304383581
 30
0.0
 10
10.06488064130878
 20
10.90071024775743
 30
0.0
 10
10.06209921121157
 20
10.86355004159783
 30
0.0
 10
10.05731687164475
 20
10.82681287517188
 30
0.0
 10
10.05022905687041
 20
10.79036822510404
 30
0.0
 10
10.04077203563757
 20
10.75401116946054
 30
0.0
 10
10.0278950929068
 20
10.71539466916592
 30
0.0
 10
10.0128295217058
 20
10.67755322729566
 30
0.0
 10
10.00054700610811
 20
10.65233336624367
 30
0.0
 10
9.99489259886485
 20
10.64072309277223
 30
0.0
  0
SPLINE
  5
180
330
1F
100
AcDbEntity
  8
0
  6
Continuous
 62
     7
370
    15
100
AcDbSpline
210
0.0
220
0.0
230
1.0
 70
     8
 71
     3
 72
    23
 73
    19
 74
     0
 42
0.00000001
 43
0.00000001
 40
0.0
 40
0.0
 40
0.0
 40
0.0
 40
0.0003360540006878
 40
0.1146465113367892
 40
0.1975390012306168
 40
0.2647679218934277
 40
0.3252377956525792
 40
0.3803379885260706
 40
0.4394434479448233
 40
0.4894653882701389
 40
0.5422818541259683
 40
0.5946235681752903
 40
0.6499960971175058
 40
0.7079713500513427
 40
0.7703799354541866
 40
0.8398020468146419
 40
0.9262509003440066
 40
1.0
 40
1.0
 40
1.0
 40
1.0
 10
10.84873314173636
 20
11.13354789471096
 30
0.0
 10
10.84867407533297
 20
11.13355131679999
 30
0.0
 10
10.82852327494946
 20
11.13471877967135
 30
0.0
 10
10.79460976388408
 20
11.13827407800329
 30
0.0
 10
10.74723308282151
 20
11.14634047407582
 30
0.0
 10
10.7079424451422
 20
11.15585230883715
 30
0.0
 10
10.67208721307071
 20
11.16713394372551
 30
0.0
 10
10.63650526826125
 20
11.18079154338962
 30
0.0
 10
10.60221048208924
 20
11.19641498022393
 30
0.0
 10
10.56842962835391
 20
11.2141232788001
 30
0.0
 10
10.53692811030421
 20
11.23310664117925
 30
0.0
 10
10.50613714280873
 20
11.25409553338209
 30
0.0
 10
10.4767129932042
 20
11.27660574414945
 30
0.0
 10
10.44869490780058
 20
11.30096629683526
 30
0.0
 10
10.42193728462292
 20
11.32733484528877
 30
0.0
 10
10.39493288572792
 20
11.35779485496399
 30
0.0
 10
10.36969402135306
 20
11.38976274328155
 30
0.0
 10
10.35399423880108
 20
11.41300964433735
 30
0.0
 10
10.34676665065166
 20
11.42371164138892
 30
0.0
  0
LINE
  5
181
330
1F
100
AcDbEntity
  8
0
  6
Continuous
 62
     7
370
    15
100
AcDbLine
 10
10.8495178856
 20
10.7273547381
 30
0.0
 11
10.8684434125
 21
10.7289928736
 31
0.0
  0
LINE
  5
182
330
1F
100
AcDbEntity
  8
0
  6
Continuous
 62
     7
370
    15
100
AcDbLine
 10
9.9944792129
 20
10.6402686097
 30
0.0
 11
9.9864351164
 21
10.6230595549
 31
0.0
  0
LINE
  5
183
330
1F
100
AcDbEntity
  8
0
  6
Continuous
 62
     7
370
    15
100
AcDbLine
 10
10.3465797497
 20
11.4242968857
 30
0.0
 11
10.3356967141
 21
11.439870102
 31
0.0
  0
LINE
  5
184
330
1F
100
AcDbEntity
  8
0
  6
Continuous
 62
     7
370
    15
100
AcDbLine
 10
10.3357874406
 20
10.4211728852
 30
0.0
 11
10.346402755
 21
10.4374207653
 31
0.0
  0
LINE
  5
185
330
1F
100
AcDbEntity
  8
0
  6
Continuous
 62
     7
370
    15
100
AcDbLine
 10
9.9861831727
 20
11.2382631522
 30
0.0
 11
9.9949465924
 21
11.2209460802
 31
0.0
  0
LINE
  5
186
330
1F
100
AcDbEntity
  8
0
  6
Continuous
 62
     7
370
    15
100
AcDbLine
 10
10.8686060457
 20
11.1324842065
 30
0.0
 11
10.8492275009
 21
11.1335533879
 31
0.0
  0
ARC
  5
187
330
1F
100
AcDbEntity
  8
0
  6
Continuous
 62
     7
370
    15
100
AcDbCircle
 10
10.0490900003
 20
10.6143788648
 30
0.0
 40
0.0600000000000022
100
AcDbArc
 50
153.9220570182
 51
154.4722764336
  0
LINE
  5
188
330
1F
100
AcDbEntity
  8
0
  6
Continuous
 62
     7
370
    15
100
AcDbLine
 10
9.1238171652
 20
8.8350611448
 30
0.0
 11
9.2185552499
 21
8.7803640861
 31
0.0
  0
ELLIPSE
  5
189
330
1F
100
AcDbEntity
  8
0
  6
Continuous
 62
     7
370
    15
100
AcDbEllipse
 10
9.2436031034
 20
8.8236729201
 30
0.0
 11
-0.04406818127913504
 21
-0.02371093692623383
 31
0.0
210
0.0
220
0.0
230
1.0
 40
0.9991584373
 41
0.5531979130721681
 42
2.58839474051754
  0
LINE
  5
18A
330
1F
100
AcDbEntity
  8
0
  6
Continuous
 62
     7
370
    15
100
AcDbLine
 10
9.2935459557
 20
8.8207129238
 30
0.0
 11
9.3035219096
 21
8.8201141362
 31
0.0
  0
ELLIPSE
  5
18B
330
1F
100
AcDbEntity
  8
0
  6
Continuous
 62
     7
370
    15
100
AcDbEllipse
 10
9.2436031034
 20
8.8236729201
 30
0.0
 11
0.05286698932198952
 21
0.02844514597399517
 31
0.0
210
0.0
220
0.0
230
0.9999999999999999
 40
0.9994386828
 41
3.694790566661961
 42
5.729987394107415
  0
CIRCLE
  5
18C
330
1F
100
AcDbEntity
  8
0
  6
Continuous
 62
     7
370
    15
100
AcDbCircle
 10
9.2128589494
 20
8.8798919217
 30
0.0
 40
0.0799999999999983
  0
ELLIPSE
  5
18D
330
1F
100
AcDbEntity
  8
0
  6
Continuous
 62
     7
370
    15
100
AcDbEllipse
 10
9.1487997889
 20
8.8784076393
 30
0.0
 11
0.001499816913920426
 21
-0.05001963294942513
 31
0.0
210
0.0
220
0.0
230
1.0
 40
0.9991584373
 41
3.694790566661997
 42
5.729987394107416
  0
LINE
  5
18E
330
1F
100
AcDbEntity
  8
0
  6
Continuous
 62
     7
370
    15
100
AcDbLine
 10
9.2234715825
 20
8.9876617744
 30
0.0
 11
9.1212649307
 21
8.9201794199
 31
0.0
  0
ELLIPSE
  5
18F
330
1F
100
AcDbEntity
  8
0
  6
Continuous
 62
     7
370
    15
100
AcDbEllipse
 10
9.2509361653
 20
8.9458435943
 30
0.0
 11
-0.02507610043334907
 21
-0.04343308000626145
 31
0.0
210
0.0
220
0.0
230
1.0
 40
0.9969652206
 41
2.035660801296319
 42
4.247524505883221
  0
LINE
  5
190
330
1F
100
AcDbEntity
  8
0
  6
Continuous
 62
     7
370
    15
100
AcDbLine
 10
9.2935459557
 20
8.8207129238
 30
0.0
 11
9.3008840631
 21
8.9429676579
 31
0.0
  0
LINE
  5
191
330
1F
100
AcDbEntity
  8
0
  6
Continuous
 62
     7
370
    15
100
AcDbLine
 10
9.3008840631
 20
8.9429676579
 30
0.0
 11
9.310860017
 21
8.9423688703
 31
0.0
  0
LINE
  5
192
330
1F
100
AcDbEntity
  8
0
  6
Continuous
 62
     7
370
    15
100
AcDbLine
 10
9.310860017
 20
8.9423688703
 30
0.0
 11
9.3035219096
 21
8.8201141362
 31
0.0
  0
LINE
  5
193
330
1F
100
AcDbEntity
  8
0
  6
Continuous
 62
     7
370
    15
100
AcDbLine
 10
9.2179650403
 20
8.9960018101
 30
0.0
 11
9.2234715825
 21
8.9876617744
 31
0.0
  0
ELLIPSE
  5
194
330
1F
100
AcDbEntity
  8
0
  6
Continuous
 62
     7
370
    15
100
AcDbEllipse
 10
9.2509361653
 20
8.9458435943
 30
0.0
 11
0.03006092653628478
 21
0.05206705208344253
 31
0.0
210
0.0
220
0.0
230
0.9999999999999999
 40
0.9979732316
 41
5.177253454886164
 42
7.38911715947299
  0
LINE
  5
195
330
1F
100
AcDbEntity
  8
0
  6
Continuous
 62
     7
370
    15
100
AcDbLine
 10
9.1157583885
 20
8.9285194556
 30
0.0
 11
9.2179650403
 21
8.9960018101
 31
0.0
  0
LINE
  5
196
330
1F
100
AcDbEntity
  8
0
  6
Continuous
 62
     7
370
    15
100
AcDbLine
 10
9.1157583885
 20
8.9285194556
 30
0.0
 11
9.1212649307
 21
8.9201794199
 31
0.0
  0
CIRCLE
  5
197
330
1F
100
AcDbEntity
  8
0
  6
Continuous
 62
     7
370
    15
100
AcDbCircle
 10
9.2128589494
 20
8.8798919217
 30
0.0
 40
0.0791614755314729
  0
ELLIPSE
  5
198
330
1F
100
AcDbEntity
  8
0
  6
Continuous
 62
     7
370
    15
100
AcDbEllipse
 10
9.1487997889
 20
8.8784076393
 30
0.0
 11
-0.001799275633157294
 21
0.06000672876144009
 31
0.0
210
0.0
220
0.0
230
1.0
 40
0.9994386828
 41
0.5531979130722021
 42
2.588394740517658
  0
ELLIPSE
  5
199
330
1F
100
AcDbEntity
  8
0
  6
Continuous
 62
     7
370
    15
100
AcDbEllipse
 10
12.7981739559
 20
10.8759053586
 30
0.0
 11
0.04256836436521283
 21
0.02630869602319308
 31
0.0
210
0.0
220
0.0
230
0.9999999999999999
 40
0.9991584373
 41
3.694790566661894
 42
5.729987394107418
  0
ELLIPSE
  5
19A
330
1F
100
AcDbEntity
  8
0
  6
Continuous
 62
     7
370
    15
100
AcDbEllipse
 10
12.7981739559
 20
10.8759053586
 30
0.0
 11
0.051067713688834
 21
0.03156158278744314
 31
0.0
210
0.0
220
0.0
230
1.0
 40
0.9994386828
 41
3.694790566662066
 42
5.729987394107493
  0
LINE
  5
19B
330
1F
100
AcDbEntity
  8
0
  6
Continuous
 62
     7
370
    15
100
AcDbLine
 10
12.7757659618
 20
10.8311735817
 30
0.0
 11
12.7712965502
 21
10.8222347584
 31
0.0
  0
LINE
  5
19C
330
1F
100
AcDbEntity
  8
0
  6
Continuous
 62
   144
370
     0
100
AcDbLine
 10
12.8482044332
 20
10.8759430191
 30
0.0
 11
12.8582044332
 21
10.8759430191
 31
0.0
  0
CIRCLE
  5
19D
330
1F
100
AcDbEntity
  8
0
  6
Continuous
 62
     7
370
    15
100
AcDbCircle
 10
12.7648589494
 20
10.9306400778
 30
0.0
 40
0.0800000000000001
  0
LINE
  5
19E
330
1F
100
AcDbEntity
  8
0
  6
Continuous
 62
     7
370
    15
100
AcDbLine
 10
12.6662212026
 20
10.8859459613
 30
0.0
 11
12.7757659618
 21
10.8311735817
 31
0.0
  0
ELLIPSE
  5
19F
330
1F
100
AcDbEntity
  8
0
  6
Continuous
 62
     7
370
    15
100
AcDbEllipse
 10
12.6887045176
 20
10.9306400778
 30
0.0
 11
0.05015220086669991
 21
0.0
 31
0.0
210
0.0
220
0.0
230
1.0
 40
0.9969652206
 41
2.035660801296327
 42
4.247524505883289
  0
LINE
  5
1A0
330
1F
100
AcDbEntity
  8
0
  6
Continuous
 62
     7
370
    15
100
AcDbLine
 10
12.7757659618
 20
11.0301065739
 30
0.0
 11
12.6662212026
 21
10.9753341943
 31
0.0
  0
ELLIPSE
  5
1A1
330
1F
100
AcDbEntity
  8
0
  6
Continuous
 62
     7
370
    15
100
AcDbEllipse
 10
12.7981739559
 20
10.985374797
 30
0.0
 11
0.04256836436521283
 21
-0.02630869602319308
 31
0.0
210
0.0
220
0.0
230
0.9999999999999999
 40
0.9991584373
 41
0.5531979130721898
 42
2.588394740517634
  0
LINE
  5
1A2
330
1F
100
AcDbEntity
  8
0
  6
Continuous
 62
   144
370
     0
100
AcDbLine
 10
12.8482044332
 20
10.8759430191
 30
0.0
 11
12.8482044332
 21
10.9853371366
 31
0.0
  0
CIRCLE
  5
1A3
330
1F
100
AcDbEntity
  8
0
  6
Continuous
 62
     7
370
    15
100
AcDbCircle
 10
12.7648589494
 20
10.9306400778
 30
0.0
 40
0.0791614755314711
  0
LINE
  5
1A4
330
1F
100
AcDbEntity
  8
0
  6
Continuous
 62
     7
370
    15
100
AcDbLine
 10
12.7712965502
 20
10.8222347584
 30
0.0
 11
12.6617517909
 21
10.877007138
 31
0.0
  0
LINE
  5
1A5
330
1F
100
AcDbEntity
  8
0
  6
Continuous
 62
     7
370
    15
100
AcDbLine
 10
12.6617517909
 20
10.877007138
 30
0.0
 11
12.6662212026
 21
10.8859459613
 31
0.0
  0
ELLIPSE
  5
1A6
330
1F
100
AcDbEntity
  8
0
  6
Continuous
 62
     7
370
    15
100
AcDbEllipse
 10
12.6887045176
 20
10.9306400778
 30
0.0
 11
0.06012185307257134
 21
0.0
 31
0.0
210
0.0
220
0.0
230
1.0
 40
0.9979732316
 41
2.035660801296344
 42
4.247524505883256
  0
LINE
  5
1A7
330
1F
100
AcDbEntity
  8
0
  6
Continuous
 62
     7
370
    15
100
AcDbLine
 10
12.6617517909
 20
10.9842730176
 30
0.0
 11
12.6662212026
 21
10.9753341943
 31
0.0
  0
LINE
  5
1A8
330
1F
100
AcDbEntity
  8
0
  6
Continuous
 62
     7
370
    15
100
AcDbLine
 10
12.7712965502
 20
11.0390453972
 30
0.0
 11
12.7757659618
 21
11.0301065739
 31
0.0
  0
ELLIPSE
  5
1A9
330
1F
100
AcDbEntity
  8
0
  6
Continuous
 62
     7
370
    15
100
AcDbEllipse
 10
12.7981739559
 20
10.985374797
 30
0.0
 11
0.05106771368882868
 21
-0.03156158278745202
 31
0.0
210
0.0
220
0.0
230
0.9999999999999999
 40
0.9994386828
 41
0.5531979130722761
 42
2.588394740517711
  0
LINE
  5
1AA
330
1F
100
AcDbEntity
  8
0
  6
Continuous
 62
   144
370
     0
100
AcDbLine
 10
12.8482044332
 20
10.9853371366
 30
0.0
 11
12.8582044332
 21
10.9853371366
 31
0.0
  0
LINE
  5
1AB
330
1F
100
AcDbEntity
  8
0
  6
Continuous
 62
     7
370
    15
100
AcDbLine
 10
12.6617517909
 20
10.9842730176
 30
0.0
 11
12.7712965502
 21
11.0390453972
 31
0.0
  0
CIRCLE
  5
1AC
330
1F
100
AcDbEntity
  8
0
  6
Continuous
 62
     7
370
    15
100
AcDbCircle
 10
9.2128589494
 20
12.981388234
 30
0.0
 40
0.0800000000000008
  0
ELLIPSE
  5
1AD
330
1F
100
AcDbEntity
  8
0
  6
Continuous
 62
     7
370
    15
100
AcDbEllipse
 10
9.2509361653
 20
12.9154365614
 30
0.0
 11
-0.02507610043334907
 21
0.04343308000626322
 31
0.0
210
0.0
220
0.0
230
0.9999999999999999
 40
0.9969652206
 41
2.035660801296329
 42
4.247524505883284
  0
LINE
  5
1AE
330
1F
100
AcDbEntity
  8
0
  6
Continuous
 62
     7
370
    15
100
AcDbLine
 10
9.1212649307
 20
12.9411007357
 30
0.0
 11
9.2234715825
 21
12.8736183812
 31
0.0
  0
ELLIPSE
  5
1AF
330
1F
100
AcDbEntity
  8
0
  6
Continuous
 62
     7
370
    15
100
AcDbEllipse
 10
9.1487997889
 20
12.9828725164
 30
0.0
 11
0.001499816913920427
 21
0.05001963294942158
 31
0.0
210
0.0
220
0.0
230
0.9999999999999999
 40
0.9991584373
 41
0.5531979130721739
 42
2.588394740517672
  0
LINE
  5
1B0
330
1F
100
AcDbEntity
  8
0
  6
Continuous
 62
     7
370
    15
100
AcDbLine
 10
9.2185552499
 20
13.0809160696
 30
0.0
 11
9.1238171652
 21
13.0262190108
 31
0.0
  0
ELLIPSE
  5
1B1
330
1F
100
AcDbEntity
  8
0
  6
Continuous
 62
     7
370
    15
100
AcDbEllipse
 10
9.2436031034
 20
13.0376072355
 30
0.0
 11
-0.04406818127913503
 21
0.02371093692623205
 31
0.0
210
0.0
220
0.0
230
0.9999999999999998
 40
0.9991584373
 41
3.694790566661992
 42
5.729987394107438
  0
LINE
  5
1B2
330
1F
100
AcDbEntity
  8
0
  6
Continuous
 62
     7
370
    15
100
AcDbLine
 10
9.3008840631
 20
12.9183124977
 30
0.0
 11
9.2935459557
 21
13.0405672319
 31
0.0
  0
LINE
  5
1B3
330
1F
100
AcDbEntity
  8
0
  6
Continuous
 62
     7
370
    15
100
AcDbLine
 10
9.2234715825
 20
12.8736183812
 30
0.0
 11
9.2179650403
 21
12.8652783455
 31
0.0
  0
LINE
  5
1B4
330
1F
100
AcDbEntity
  8
0
  6
Continuous
 62
     7
370
    15
100
AcDbLine
 10
9.2179650403
 20
12.8652783455
 30
0.0
 11
9.1157583885
 21
12.9327607001
 31
0.0
  0
LINE
  5
1B5
330
1F
100
AcDbEntity
  8
0
  6
Continuous
 62
     7
370
    15
100
AcDbLine
 10
9.1157583885
 20
12.9327607001
 30
0.0
 11
9.1212649307
 21
12.9411007357
 31
0.0
  0
CIRCLE
  5
1B6
330
1F
100
AcDbEntity
  8
0
  6
Continuous
 62
     7
370
    15
100
AcDbCircle
 10
9.2128589494
 20
12.981388234
 30
0.0
 40
0.0791614755314729
  0
LINE
  5
1B7
330
1F
100
AcDbEntity
  8
0
  6
Continuous
 62
     7
370
    15
100
AcDbLine
 10
9.3008840631
 20
12.9183124977
 30
0.0
 11
9.310860017
 21
12.9189112853
 31
0.0
  0
ELLIPSE
  5
1B8
330
1F
100
AcDbEntity
  8
0
  6
Continuous
 62
     7
370
    15
100
AcDbEllipse
 10
9.2509361653
 20
12.9154365614
 30
0.0
 11
-0.03006092653628656
 21
0.05206705208344253
 31
0.0
210
0.0
220
0.0
230
0.9999999999999998
 40
0.9979732316
 41
2.035660801296336
 42
4.24752450588323
  0
LINE
  5
1B9
330
1F
100
AcDbEntity
  8
0
  6
Continuous
 62
     7
370
    15
100
AcDbLine
 10
9.2935459557
 20
13.0405672319
 30
0.0
 11
9.3035219096
 21
13.0411660195
 31
0.0
  0
LINE
  5
1BA
330
1F
100
AcDbEntity
  8
0
  6
Continuous
 62
     7
370
    15
100
AcDbLine
 10
9.3035219096
 20
13.0411660195
 30
0.0
 11
9.310860017
 21
12.9189112853
 31
0.0
  0
ELLIPSE
  5
1BB
330
1F
100
AcDbEntity
  8
0
  6
Continuous
 62
     7
370
    15
100
AcDbEllipse
 10
9.1487997889
 20
12.9828725164
 30
0.0
 11
0.00179927563315907
 21
0.06000672876144009
 31
0.0
210
0.0
220
0.0
230
1.0
 40
0.9994386828
 41
0.5531979130721935
 42
2.588394740517654
  0
ELLIPSE
  5
1BC
330
1F
100
AcDbEntity
  8
0
  6
Continuous
 62
     7
370
    15
100
AcDbEllipse
 10
9.2436031034
 20
13.0376072355
 30
0.0
 11
0.05286698932198597
 21
-0.02844514597400405
 31
0.0
210
0.0
220
0.0
230
1.0
 40
0.9994386828
 41
0.5531979130722974
 42
2.588394740517775
  0
ARC
  5
1BD
330
1F
100
AcDbEntity
  8
0
  6
Continuous
 62
     7
370
    15
100
AcDbCircle
 10
9.2638032898
 20
8.9681301076
 30
0.0
 40
0.0600738669058934
100
AcDbArc
 50
356.7749052065
 51
123.2250947935
  0
LINE
  5
1BE
330
1F
100
AcDbEntity
  8
0
  6
Continuous
 62
     7
370
    15
100
AcDbLine
 10
9.3237820129
 20
8.9647504237
 30
0.0
 11
9.310860017
 21
8.9423688703
 31
0.0
  0
LINE
  5
1BF
330
1F
100
AcDbEntity
  8
0
  6
Continuous
 62
     7
370
    15
100
AcDbLine
 10
9.2179650403
 20
8.9960018101
 30
0.0
 11
9.2308870362
 21
9.0183833635
 31
0.0
  0
ARC
  5
1C0
330
1F
100
AcDbEntity
  8
0
  6
Continuous
 62
     7
370
    15
100
AcDbCircle
 10
12.6629702686
 20
10.9306400778
 30
0.0
 40
0.0600738669058933
100
AcDbArc
 50
116.7749052065
 51
243.2250947935
  0
LINE
  5
1C1
330
1F
100
AcDbEntity
  8
0
  6
Continuous
 62
     7
370
    15
100
AcDbLine
 10
12.6359077992
 20
10.9842730176
 30
0.0
 11
12.6617517909
 21
10.9842730176
 31
0.0
  0
LINE
  5
1C2
330
1F
100
AcDbEntity
  8
0
  6
Continuous
 62
     7
370
    15
100
AcDbLine
 10
12.6617517909
 20
10.877007138
 30
0.0
 11
12.6359077992
 21
10.877007138
 31
0.0
  0
ARC
  5
1C3
330
1F
100
AcDbEntity
  8
0
  6
Continuous
 62
     7
370
    15
100
AcDbCircle
 10
9.2638032898
 20
12.893150048
 30
0.0
 40
0.0600738669058934
100
AcDbArc
 50
236.7749052065
 51
3.2250947935
  0
LINE
  5
1C4
330
1F
100
AcDbEntity
  8
0
  6
Continuous
 62
     7
370
    15
100
AcDbLine
 10
9.2308870362
 20
12.8428967921
 30
0.0
 11
9.2179650403
 21
12.8652783455
 31
0.0
  0
LINE
  5
1C5
330
1F
100
AcDbEntity
  8
0
  6
Continuous
 62
     7
370
    15
100
AcDbLine
 10
9.310860017
 20
12.9189112853
 30
0.0
 11
9.3237820129
 21
12.8965297319
 31
0.0
  0
LINE
  5
1C6
330
1F
100
AcDbEntity
  8
0
  6
Continuous
 62
     7
370
    15
100
AcDbLine
 10
9.3035219096
 20
8.8201141362
 30
0.0
 11
9.3153342904
 21
8.8264698016
 31
0.0
  0
LINE
  5
1C7
330
1F
100
AcDbEntity
  8
0
  6
Continuous
 62
     7
370
    15
100
AcDbLine
 10
9.2308870362
 20
9.0183833635
 30
0.0
 11
9.1153563658
 21
8.9419271102
 31
0.0
  0
LINE
  5
1C8
330
1F
100
AcDbEntity
  8
0
  6
Continuous
 62
     7
370
    15
100
AcDbLine
 10
9.1153563658
 20
8.9419271102
 30
0.0
 11
9.1157583885
 21
8.9285194556
 31
0.0
  0
LINE
  5
1C9
330
1F
100
AcDbEntity
  8
0
  6
Continuous
 62
     7
370
    15
100
AcDbLine
 10
9.3153342904
 20
8.8264698016
 30
0.0
 11
9.3237820129
 21
8.9647504237
 31
0.0
  0
LINE
  5
1CA
330
1F
100
AcDbEntity
  8
0
  6
Continuous
 62
     7
370
    15
100
AcDbLine
 10
12.6359077992
 20
10.877007138
 30
0.0
 11
12.759886192
 21
10.8151827692
 31
0.0
  0
LINE
  5
1CB
330
1F
100
AcDbEntity
  8
0
  6
Continuous
 62
     7
370
    15
100
AcDbLine
 10
12.759886192
 20
10.8151827692
 30
0.0
 11
12.7712965502
 21
10.8222347584
 31
0.0
  0
LINE
  5
1CC
330
1F
100
AcDbEntity
  8
0
  6
Continuous
 62
     7
370
    15
100
AcDbLine
 10
12.759886192
 20
11.0460973864
 30
0.0
 11
12.6359077992
 21
10.9842730176
 31
0.0
  0
LINE
  5
1CD
330
1F
100
AcDbEntity
  8
0
  6
Continuous
 62
     7
370
    15
100
AcDbLine
 10
12.7712965502
 20
11.0390453972
 30
0.0
 11
12.759886192
 21
11.0460973864
 31
0.0
  0
LINE
  5
1CE
330
1F
100
AcDbEntity
  8
0
  6
Continuous
 62
     7
370
    15
100
AcDbLine
 10
9.3237820129
 20
12.8965297319
 30
0.0
 11
9.3153342904
 21
13.034810354
 31
0.0
  0
LINE
  5
1CF
330
1F
100
AcDbEntity
  8
0
  6
Continuous
 62
     7
370
    15
100
AcDbLine
 10
9.3153342904
 20
13.034810354
 30
0.0
 11
9.3035219096
 21
13.0411660195
 31
0.0
  0
LINE
  5
1D0
330
1F
100
AcDbEntity
  8
0
  6
Continuous
 62
     7
370
    15
100
AcDbLine
 10
9.1153563658
 20
12.9193530454
 30
0.0
 11
9.2308870362
 21
12.8428967921
 31
0.0
  0
LINE
  5
1D1
330
1F
100
AcDbEntity
  8
0
  6
Continuous
 62
     7
370
    15
100
AcDbLine
 10
9.1157583885
 20
12.9327607001
 30
0.0
 11
9.1153563658
 21
12.9193530454
 31
0.0
  0
LINE
  5
1D2
330
1F
100
AcDbEntity
  8
0
  6
Continuous
 62
   144
370
     0
100
AcDbLine
 10
12.8581983414
 20
10.9853371366
 30
0.0
 11
12.8581983414
 21
10.8759430191
 31
0.0
  0
CIRCLE
  5
1D3
330
1F
100
AcDbEntity
  8
0
  6
Continuous
 62
     7
370
    15
100
AcDbCircle
 10
9.2128589494
 20
8.8798919217
 30
0.0
 40
0.0441614755314728
  0
CIRCLE
  5
1D4
330
1F
100
AcDbEntity
  8
0
  6
Continuous
 62
   144
370
     0
100
AcDbCircle
 10
9.2128589494
 20
8.8798919217
 30
0.0
 40
0.0387110664860373
  0
CIRCLE
  5
1D5
330
1F
100
AcDbEntity
  8
0
  6
Continuous
 62
     7
370
    15
100
AcDbCircle
 10
12.7648589494
 20
10.9306400778
 30
0.0
 40
0.044161475531471
  0
CIRCLE
  5
1D6
330
1F
100
AcDbEntity
  8
0
  6
Continuous
 62
   144
370
     0
100
AcDbCircle
 10
12.7648589494
 20
10.9306400778
 30
0.0
 40
0.0387110664860355
  0
CIRCLE
  5
1D7
330
1F
100
AcDbEntity
  8
0
  6
Continuous
 62
     7
370
    15
100
AcDbCircle
 10
9.2128589494
 20
12.981388234
 30
0.0
 40
0.044161475531471
  0
CIRCLE
  5
1D8
330
1F
100
AcDbEntity
  8
0
  6
Continuous
 62
   144
370
     0
100
AcDbCircle
 10
9.2128589494
 20
12.981388234
 30
0.0
 40
0.0387110664860355
  0
SPLINE
  5
1D9
330
1F
100
AcDbEntity
  8
0
  6
Continuous
 62
     7
370
    15
100
AcDbSpline
210
0.0
220
0.0
230
1.0
 70
     8
 71
     3
 72
    11
 73
     7
 74
     0
 42
0.00000001
 43
0.00000001
 40
0.0
 40
0.0
 40
0.0
 40
0.0
 40
0.0005130641833186
 40
0.0005130641833186
 40
0.0005130641833186
 40
0.0005131241833186
 40
0.0005131241833186
 40
0.0005131241833186
 40
0.0005131241833186
 10
9.115284961952351
 20
8.942414009986315
 30
0.0
 10
9.115342791126606
 20
8.942239752072293
 30
0.0
 10
9.115367242527359
 20
8.942077341679722
 30
0.0
 10
9.115356369640734
 20
8.94192716291034
 30
0.0
 10
9.11535636836921
 20
8.941927145347767
 30
0.0
 10
9.115356367096943
 20
8.941927127785192
 30
0.0
 10
9.115356365824715
 20
8.941927110223126
 30
0.0
  0
SPLINE
  5
1DA
330
1F
100
AcDbEntity
  8
0
  6
Continuous
 62
     7
370
    15
100
AcDbSpline
210
0.0
220
0.0
230
1.0
 70
     8
 71
     3
 72
    18
 73
    14
 74
     0
 42
0.00000001
 43
0.00000001
 40
0.0
 40
0.0
 40
0.0
 40
0.0
 40
0.1250000000000007
 40
0.1250000000000007
 40
0.2500000000000013
 40
0.2500000000000013
 40
0.5000000000000001
 40
0.5000000000000001
 40
0.6250000000000001
 40
0.6250000000000001
 40
0.7500000000000001
 40
0.7500000000000001
 40
1.0
 40
1.0
 40
1.0
 40
1.0
 10
9.162998457440253
 20
9.036952382811803
 30
0.0
 10
9.15900059953719
 20
9.030015039430609
 30
0.0
 10
9.15519000361125
 20
9.023421336190172
 30
0.0
 10
9.147992441090881
 20
9.010885438569428
 30
0.0
 10
9.144608228104353
 20
9.004947812207334
 30
0.0
 10
9.135290308123956
 20
8.988349675341283
 30
0.0
 10
9.130128824962732
 20
8.978784887808057
 30
0.0
 10
9.124027377163552
 20
8.966647345718364
 30
0.0
 10
9.122260093622591
 20
8.962956279993193
 30
0.0
 10
9.11933570226777
 20
8.956462303505857
 30
0.0
 10
9.118174768843959
 20
8.953654335305284
 30
0.0
 10
9.115540919757951
 20
8.9465366863867
 30
0.0
 10
9.114921031063282
 20
8.943510650884186
 30
0.0
 10
9.115284961952351
 20
8.942414009986313
 30
0.0
  0
SPLINE
  5
1DB
330
1F
100
AcDbEntity
  8
0
  6
Continuous
 62
     7
370
    15
100
AcDbSpline
210
0.0
220
0.0
230
1.0
 70
     8
 71
     3
 72
     8
 73
     4
 74
     0
 42
0.00000001
 43
0.00000001
 40
0.0
 40
0.0
 40
0.0
 40
0.0
 40
1.0
 40
1.0
 40
1.0
 40
1.0
 10
9.170032781279101
 20
9.04989153899026
 30
0.0
 10
9.167805048409072
 20
9.045532586373058
 30
0.0
 10
9.165457439214606
 20
9.041219368120041
 30
0.0
 10
9.162998457440255
 20
9.036952382811803
 30
0.0
  0
LINE
  5
1DC
330
1F
100
AcDbEntity
  8
0
  6
Continuous
 62
     7
370
    15
100
AcDbLine
 10
9.1700327813
 20
9.049891539
 30
0.0
 11
9.2651185466
 21
9.0777099949
 31
0.0
  0
SPLINE
  5
1DD
330
1F
100
AcDbEntity
  8
0
  6
Continuous
 62
     7
370
    15
100
AcDbSpline
210
0.0
220
0.0
230
1.0
 70
     8
 71
     3
 72
    18
 73
    14
 74
     0
 42
0.00000001
 43
0.00000001
 40
0.0
 40
0.0
 40
0.0
 40
0.0
 40
0.125000000000001
 40
0.125000000000001
 40
0.250000000000002
 40
0.250000000000002
 40
0.500000000000004
 40
0.500000000000004
 40
0.750000000000006
 40
0.750000000000006
 40
0.875000000000003
 40
0.875000000000003
 40
1.0
 40
1.0
 40
1.0
 40
1.0
 10
9.230887036194318
 20
9.018383363536813
 30
0.0
 10
9.231226854053943
 20
9.018866853968186
 30
0.0
 10
9.231760207179164
 20
9.019693647286669
 30
0.0
 10
9.233136367697435
 20
9.021910007720267
 30
0.0
 10
9.23397570461804
 20
9.023293591835493
 30
0.0
 10
9.236886039837554
 20
9.028166419634811
 30
0.0
 10
9.239343307354124
 20
9.032366856463534
 30
0.0
 10
9.245225070697183
 20
9.042560801594103
 30
0.0
 10
9.248573875409797
 20
9.04842307393868
 30
0.0
 10
9.254241394259193
 20
9.058416227725314
 30
0.0
 10
9.25623948170918
 20
9.061949982363199
 30
0.0
 10
9.260486544373615
 20
9.069478569566074
 30
0.0
 10
9.262748228520291
 20
9.073496258926841
 30
0.0
 10
9.26511854659453
 20
9.077709994874828
 30
0.0
  0
ARC
  5
1DE
330
1F
100
AcDbEntity
  8
0
  6
Continuous
 62
     7
370
    15
100
AcDbCircle
 10
9.1482531269
 20
8.8923382374
 30
0.0
 40
0.0599540065378248
100
AcDbArc
 50
123.3595312688
 51
184.7310067771
  0
SPLINE
  5
1DF
330
1F
100
AcDbEntity
  8
0
  6
Continuous
 62
     7
370
    15
100
AcDbSpline
210
0.0
220
0.0
230
1.0
 70
     8
 71
     3
 72
    11
 73
     7
 74
     0
 42
0.00000001
 43
0.00000001
 40
-0.0000000600000001
 40
-0.0000000600000001
 40
-0.0000000600000001
 40
-0.0000000600000001
 40
0.0
 40
0.0
 40
0.0
 40
0.0005130641833185
 40
0.0005130641833185
 40
0.0005130641833185
 40
0.0005130641833185
 10
9.315334290436827
 20
8.826469801616339
 30
0.0
 10
9.315334305009907
 20
8.826469811499155
 30
0.0
 10
9.31533431958341
 20
8.82646982138226
 30
0.0
 10
9.315334334157283
 20
8.826469831264717
 30
0.0
 10
9.315458956343365
 20
8.826554336845438
 30
0.0
 10
9.315611833569545
 20
8.826614366507512
 30
0.0
 10
9.315791659937025
 20
8.826651413930538
 30
0.0
  0
SPLINE
  5
1E0
330
1F
100
AcDbEntity
  8
0
  6
Continuous
 62
     7
370
    15
100
AcDbSpline
210
0.0
220
0.0
230
1.0
 70
     8
 71
     3
 72
    16
 73
    12
 74
     0
 42
0.00000001
 43
0.00000001
 40
0.0
 40
0.0
 40
0.0
 40
0.0
 40
0.1249999999999997
 40
0.1249999999999997
 40
0.2499999999999993
 40
0.2499999999999993
 40
0.4999999999999996
 40
0.4999999999999996
 40
0.7499999999999998
 40
0.7499999999999998
 40
1.0
 40
1.0
 40
1.0
 40
1.0
 10
9.358044627559424
 20
9.024059097015005
 30
0.0
 10
9.355576449460484
 20
9.019892493364894
 30
0.0
 10
9.353232004628847
 20
9.015931951728282
 30
0.0
 10
9.348835588351763
 20
9.008489594241398
 30
0.0
 10
9.346774310862003
 20
9.00499232255334
 30
0.0
 10
9.340953745439748
 20
8.99508753069056
 30
0.0
 10
9.337551271125186
 20
8.989256244740746
 30
0.0
 10
9.33166393750741
 20
8.979065515975773
 30
0.0
 10
9.329254886316107
 20
8.97483724155972
 30
0.0
 10
9.325568452949613
 20
8.96822812412509
 30
0.0
 10
9.324280460044948
 20
8.965824294940914
 30
0.0
 10
9.323782012899857
 20
8.964750423729505
 30
0.0
  0
LINE
  5
1E1
330
1F
100
AcDbEntity
  8
0
  6
Continuous
 62
     7
370
    15
100
AcDbLine
 10
9.3580446276
 20
9.024059097
 30
0.0
 11
9.3814960207
 21
8.9278031808
 31
0.0
  0
SPLINE
  5
1E2
330
1F
100
AcDbEntity
  8
0
  6
Continuous
 62
     7
370
    15
100
AcDbSpline
210
0.0
220
0.0
230
1.0
 70
     8
 71
     3
 72
     8
 73
     4
 74
     0
 42
0.00000001
 43
0.00000001
 40
0.0
 40
0.0
 40
0.0
 40
0.0
 40
1.0
 40
1.0
 40
1.0
 40
1.0
 10
9.373807544692394
 20
8.91524169953916
 30
0.0
 10
9.376273371479723
 20
8.919504732877312
 30
0.0
 10
9.378834923464218
 20
8.923694431202819
 30
0.0
 10
9.381496020727045
 20
8.927803180771274
 30
0.0
  0
SPLINE
  5
1E3
330
1F
100
AcDbEntity
  8
0
  6
Continuous
 62
     7
370
    15
100
AcDbSpline
210
0.0
220
0.0
230
1.0
 70
     8
 71
     3
 72
    18
 73
    14
 74
     0
 42
0.00000001
 43
0.00000001
 40
0.0
 40
0.0
 40
0.0
 40
0.0
 40
0.1249999999999967
 40
0.1249999999999967
 40
0.2499999999999934
 40
0.2499999999999934
 40
0.4999999999999933
 40
0.4999999999999933
 40
0.6249999999999931
 40
0.6249999999999931
 40
0.7499999999999929
 40
0.7499999999999929
 40
1.0
 40
1.0
 40
1.0
 40
1.0
 10
9.315791659937025
 20
8.82665141393054
 30
0.0
 10
9.316357448922387
 20
8.826767976502413
 30
0.0
 10
9.31722650890785
 20
8.827341256513535
 30
0.0
 10
9.319500330607434
 20
8.829427889981998
 30
0.0
 10
9.320908161776739
 20
8.830946173668313
 30
0.0
 10
9.325797604386395
 20
8.836853009677576
 30
0.0
 10
9.329948245132021
 20
8.84259521753577
 30
0.0
 10
9.337414383361114
 20
8.853959853822477
 30
0.0
 10
9.340130397102904
 20
8.858237427569783
 30
0.0
 10
9.345906259241913
 20
8.86758978132947
 30
0.0
 10
9.348962731136742
 20
8.872657271790235
 30
0.0
 10
9.358652476996685
 20
8.888990135434131
 30
0.0
 10
9.36578974172578
 20
8.90138015763321
 30
0.0
 10
9.373807544692394
 20
8.91524169953916
 30
0.0
  0
SPLINE
  5
1E4
330
1F
100
AcDbEntity
  8
0
  6
Continuous
 62
     7
370
    15
100
AcDbSpline
210
0.0
220
0.0
230
1.0
 70
     8
 71
     3
 72
    16
 73
    12
 74
     0
 42
0.00000001
 43
0.00000001
 40
0.0
 40
0.0
 40
0.0
 40
0.0
 40
0.125
 40
0.125
 40
0.25
 40
0.25
 40
0.5
 40
0.5
 40
0.75
 40
0.75
 40
1.0
 40
1.0
 40
1.0
 40
1.0
 10
12.56741367409504
 20
10.98429097568083
 30
0.0
 10
12.57225614775736
 20
10.98423677257459
 30
0.0
 10
12.57685829983888
 20
10.98418669460748
 30
0.0
 10
12.58550177862511
 20
10.98410046516936
 30
0.0
 10
12.58956114349579
 20
10.984063982343
 30
0.0
 10
12.60104922757928
 20
10.98397562075433
 30
0.0
 10
12.60780050650583
 20
10.9839446345371
 30
0.0
 10
12.61956960330826
 20
10.98394141844604
 30
0.0
 10
12.62443592196238
 20
10.98396925612338
 30
0.0
 10
12.63200280224062
 20
10.98408126989595
 30
0.0
 10
12.63472857584158
 20
10.98416774991713
 30
0.0
 10
12.63590779915482
 20
10.98427301762832
 30
0.0
  0
LINE
  5
1E5
330
1F
100
AcDbEntity
  8
0
  6
Continuous
 62
     7
370
    15
100
AcDbLine
 10
12.5674136741
 20
10.9842909757
 30
0.0
 11
12.6390480462
 21
11.052728436
 31
0.0
  0
SPLINE
  5
1E6
330
1F
100
AcDbEntity
  8
0
  6
Continuous
 62
     7
370
    15
100
AcDbSpline
210
0.0
220
0.0
230
1.0
 70
     8
 71
     3
 72
     8
 73
     4
 74
     0
 42
0.00000001
 43
0.00000001
 40
0.0
 40
0.0
 40
0.0
 40
0.0
 40
1.0
 40
1.0
 40
1.0
 40
1.0
 10
12.65377084611635
 20
11.05235076109366
 30
0.0
 10
12.64884603755466
 20
11.05235471306374
 30
0.0
 10
12.64393687637825
 20
11.05247823298952
 30
0.0
 10
12.63904804624285
 20
11.05272843604
 30
0.0
  0
SPLINE
  5
1E7
330
1F
100
AcDbEntity
  8
0
  6
Continuous
 62
     7
370
    15
100
AcDbSpline
210
0.0
220
0.0
230
1.0
 70
     8
 71
     3
 72
    18
 73
    14
 74
     0
 42
0.00000001
 43
0.00000001
 40
0.0
 40
0.0
 40
0.0
 40
0.0
 40
0.1250000000000019
 40
0.1250000000000019
 40
0.2500000000000037
 40
0.2500000000000037
 40
0.5000000000000019
 40
0.5000000000000019
 40
0.625000000000001
 40
0.625000000000001
 40
0.75
 40
0.75
 40
1.0
 40
1.0
 40
1.0
 40
1.0
 10
12.75950022635962
 20
11.04640267387679
 30
0.0
 10
12.75911638571856
 20
11.04683438022536
 30
0.0
 10
12.75818538067272
 20
11.04730036824462
 30
0.0
 10
12.75524139223085
 20
11.0482262388659
 30
0.0
 10
12.7532226044037
 20
11.04868631457961
 30
0.0
 10
12.74566241305886
 20
11.04996727808528
 30
0.0
 10
12.73861419480704
 20
11.05069073448388
 30
0.0
 10
12.72503906196344
 20
11.05147428171509
 30
0.0
 10
12.71997656756081
 20
11.05168763173885
 30
0.0
 10
12.70898926055024
 20
11.05201349820014
 30
0.0
 10
12.70307244913037
 20
11.05212673527664
 30
0.0
 10
12.68408290136824
 20
11.05235186952561
 30
0.0
 10
12.66978419502583
 20
11.05233791099501
 30
0.0
 10
12.65377084611635
 20
11.05235076109366
 30
0.0
  0
SPLINE
  5
1E8
330
1F
100
AcDbEntity
  8
0
  6
Continuous
 62
     7
370
    15
100
AcDbSpline
210
0.0
220
0.0
230
1.0
 70
     8
 71
     3
 72
    11
 73
     7
 74
     0
 42
0.00000001
 43
0.00000001
 40
-0.0000000599999999
 40
-0.0000000599999999
 40
-0.0000000599999999
 40
-0.0000000599999999
 40
0.0
 40
0.0
 40
0.0
 40
0.0005130641833186
 40
0.0005130641833186
 40
0.0005130641833186
 40
0.0005130641833186
 10
12.75988619198746
 20
11.0460973864278
 30
0.0
 10
12.75988617614214
 20
11.04609739410705
 30
0.0
 10
12.75988616029638
 20
11.04609740178652
 30
0.0
 10
12.75988614445098
 20
11.04609740946664
 30
0.0
 10
12.75975064937827
 20
11.0461630826553
 30
0.0
 10
12.75962222355285
 20
11.04626546338579
 30
0.0
 10
12.75950022635962
 20
11.04640267387679
 30
0.0
  0
SPLINE
  5
1E9
330
1F
100
AcDbEntity
  8
0
  6
Continuous
 62
     7
370
    15
100
AcDbSpline
210
0.0
220
0.0
230
1.0
 70
     8
 71
     3
 72
     8
 73
     4
 74
     0
 42
0.00000001
 43
0.00000001
 40
0.0
 40
0.0
 40
0.0
 40
0.0
 40
1.0
 40
1.0
 40
1.0
 40
1.0
 10
12.63904804624285
 20
10.80855171960203
 30
0.0
 10
12.64393687637832
 20
10.80880192264985
 30
0.0
 10
12.64884603755466
 20
10.80892544257829
 30
0.0
 10
12.65377084611635
 20
10.80892939454837
 30
0.0
  0
LINE
  5
1EA
330
1F
100
AcDbEntity
  8
0
  6
Continuous
 62
     7
370
    15
100
AcDbLine
 10
12.6390480462
 20
10.8085517196
 30
0.0
 11
12.5674136741
 21
10.87698918
 31
0.0
  0
SPLINE
  5
1EB
330
1F
100
AcDbEntity
  8
0
  6
Continuous
 62
     7
370
    15
100
AcDbSpline
210
0.0
220
0.0
230
1.0
 70
     8
 71
     3
 72
    18
 73
    14
 74
     0
 42
0.00000001
 43
0.00000001
 40
0.0
 40
0.0
 40
0.0
 40
0.0
 40
0.1249999999999996
 40
0.1249999999999996
 40
0.2499999999999991
 40
0.2499999999999991
 40
0.4999999999999964
 40
0.4999999999999964
 40
0.7499999999999938
 40
0.7499999999999938
 40
0.8749999999999969
 40
0.8749999999999969
 40
1.0
 40
1.0
 40
1.0
 40
1.0
 10
12.63590779915482
 20
10.87700713801371
 30
0.0
 10
12.63531917523011
 20
10.87705968369653
 30
0.0
 10
12.63433647464885
 20
10.8771081843935
 30
0.0
 10
12.63172896995028
 20
10.87719179414521
 30
0.0
 10
12.63011108249792
 20
10.87722688918318
 30
0.0
 10
12.62443592222569
 20
10.87731089951714
 30
0.0
 10
12.61956960346674
 20
10.87733873719603
 30
0.0
 10
12.60780050634735
 20
10.87733552110488
 30
0.0
 10
12.60104922721674
 20
10.87730453488603
 30
0.0
 10
12.58956114274889
 20
10.87721617329272
 30
0.0
 10
12.58550177773675
 20
10.87717969046445
 30
0.0
 10
12.57685829863223
 20
10.87709346102187
 30
0.0
 10
12.5722480355087
 20
10.87704329226726
 30
0.0
 10
12.56741367409504
 20
10.8769891799612
 30
0.0
  0
SPLINE
  5
1EC
330
1F
100
AcDbEntity
  8
0
  6
Continuous
 62
     7
370
    15
100
AcDbSpline
210
0.0
220
0.0
230
1.0
 70
     8
 71
     3
 72
    11
 73
     7
 74
     0
 42
0.00000001
 43
0.00000001
 40
0.0
 40
0.0
 40
0.0
 40
0.0
 40
0.0005130641833186
 40
0.0005130641833186
 40
0.0005130641833186
 40
0.0005131241833186
 40
0.0005131241833186
 40
0.0005131241833186
 40
0.0005131241833186
 10
12.75950022635962
 20
10.81487748176524
 30
0.0
 10
12.75962222355285
 20
10.81501469225623
 30
0.0
 10
12.75975064937827
 20
10.81511707298673
 30
0.0
 10
12.75988614445098
 20
10.81518274617539
 30
0.0
 10
12.75988616029638
 20
10.8151827538555
 30
0.0
 10
12.75988617614214
 20
10.81518276153498
 30
0.0
 10
12.75988619198746
 20
10.81518276921423
 30
0.0
  0
SPLINE
  5
1ED
330
1F
100
AcDbEntity
  8
0
  6
Continuous
 62
     7
370
    15
100
AcDbSpline
210
0.0
220
0.0
230
1.0
 70
     8
 71
     3
 72
    18
 73
    14
 74
     0
 42
0.00000001
 43
0.00000001
 40
0.0
 40
0.0
 40
0.0
 40
0.0
 40
0.1250000000000014
 40
0.1250000000000014
 40
0.2500000000000028
 40
0.2500000000000028
 40
0.5000000000000003
 40
0.5000000000000003
 40
0.625000000000002
 40
0.625000000000002
 40
0.7500000000000038
 40
0.7500000000000038
 40
1.0
 40
1.0
 40
1.0
 40
1.0
 10
12.65377084611635
 20
10.80892939454837
 30
0.0
 10
12.66177769067077
 20
10.80893581973419
 30
0.0
 10
12.66939330314498
 20
10.80893259847899
 30
0.0
 10
12.68384849020397
 20
10.8089672753014
 30
0.0
 10
12.69068273196498
 20
10.80900527406429
 30
0.0
 10
12.70971610013667
 20
10.80923478708386
 30
0.0
 10
12.72058019070286
 20
10.80954720531165
 30
0.0
 10
12.73414233439163
 20
10.81033196756254
 30
0.0
 10
12.73822253284714
 20
10.81064698798297
 30
0.0
 10
12.74530867713417
 20
10.81136137902275
 30
0.0
 10
12.74832091564079
 20
10.81175996528592
 30
0.0
 10
12.7558019049625
 20
10.81303780952699
 30
0.0
 10
12.75873247292777
 20
10.81401398792115
 30
0.0
 10
12.75950022635962
 20
10.81487748176524
 30
0.0
  0
ARC
  5
1EE
330
1F
100
AcDbEntity
  8
0
  6
Continuous
 62
     7
370
    15
100
AcDbCircle
 10
12.786383035
 20
10.8684666364
 30
0.0
 40
0.0599540065378046
100
AcDbArc
 50
243.3595312688
 51
304.7310067772
  0
SPLINE
  5
1EF
330
1F
100
AcDbEntity
  8
0
  6
Continuous
 62
     7
370
    15
100
AcDbSpline
210
0.0
220
0.0
230
1.0
 70
     8
 71
     3
 72
    16
 73
    12
 74
     0
 42
0.00000001
 43
0.00000001
 40
0.0
 40
0.0
 40
0.0
 40
0.0
 40
0.125
 40
0.125
 40
0.25
 40
0.25
 40
0.5
 40
0.5
 40
0.75
 40
0.75
 40
1.0
 40
1.0
 40
1.0
 40
1.0
 10
9.265118546594557
 20
12.78357016076721
 30
0.0
 10
9.262744251035018
 20
12.78779096752722
 30
0.0
 10
9.260486543781294
 20
12.79180158712729
 30
0.0
 10
9.25623948127215
 20
12.7993301740523
 30
0.0
 10
9.254241393891233
 20
12.80286392856671
 30
0.0
 10
9.248573875229996
 20
12.81285708201816
 30
0.0
 10
9.245225070618007
 20
12.81871935418521
 30
0.0
 10
9.239343307433352
 20
12.82891329904124
 30
0.0
 10
9.23688603997053
 20
12.83311373577995
 30
0.0
 10
9.233005593058794
 20
12.83961083944201
 30
0.0
 10
9.2315678123685
 20
12.84192818861125
 30
0.0
 10
9.230887036194346
 20
12.84289679210523
 30
0.0
  0
LINE
  5
1F0
330
1F
100
AcDbEntity
  8
0
  6
Continuous
 62
     7
370
    15
100
AcDbLine
 10
9.2651185466
 20
12.7835701608
 30
0.0
 11
9.1700327813
 21
12.8113886167
 31
0.0
  0
SPLINE
  5
1F1
330
1F
100
AcDbEntity
  8
0
  6
Continuous
 62
     7
370
    15
100
AcDbSpline
210
0.0
220
0.0
230
1.0
 70
     8
 71
     3
 72
     8
 73
     4
 74
     0
 42
0.00000001
 43
0.00000001
 40
0.0
 40
0.0
 40
0.0
 40
0.0
 40
1.0
 40
1.0
 40
1.0
 40
1.0
 10
9.16299845744028
 20
12.82432777283024
 30
0.0
 10
9.165457439214633
 20
12.820060787522
 30
0.0
 10
9.167805048407136
 20
12.81574756926792
 30
0.0
 10
9.170032781279128
 20
12.81138861665179
 30
0.0
  0
SPLINE
  5
1F2
330
1F
100
AcDbEntity
  8
0
  6
Continuous
 62
     7
370
    15
100
AcDbSpline
210
0.0
220
0.0
230
1.0
 70
     8
 71
     3
 72
    18
 73
    14
 74
     0
 42
0.00000001
 43
0.00000001
 40
0.0
 40
0.0
 40
0.0
 40
0.0
 40
0.1250000000000019
 40
0.1250000000000019
 40
0.2500000000000039
 40
0.2500000000000039
 40
0.5000000000000022
 40
0.5000000000000022
 40
0.6250000000000013
 40
0.6250000000000013
 40
0.7500000000000006
 40
0.7500000000000006
 40
1.0
 40
1.0
 40
1.0
 40
1.0
 10
9.11528496195238
 20
12.91886614565573
 30
0.0
 10
9.115103013608072
 20
12.91831787673529
 30
0.0
 10
9.115164958668453
 20
12.9172786087049
 30
0.0
 10
9.115835125410738
 20
12.91426610461516
 30
0.0
 10
9.116446082068585
 20
12.91228774521514
 30
0.0
 10
9.119116830803767
 20
12.9050999457002
 30
0.0
 10
9.122014408309962
 20
12.89863428144341
 30
0.0
 10
9.128123402924473
 20
12.88648609792549
 30
0.0
 10
9.130469883585308
 20
12.88199517415442
 30
0.0
 10
9.13568132845687
 20
12.87231695393344
 30
0.0
 10
9.138541667981912
 20
12.86713622639619
 30
0.0
 10
9.147841469884103
 20
12.85057822850331
 30
0.0
 10
9.15500291149741
 20
12.83820216483484
 30
0.0
 10
9.16299845744028
 20
12.82432777283024
 30
0.0
  0
SPLINE
  5
1F3
330
1F
100
AcDbEntity
  8
0
  6
Continuous
 62
     7
370
    15
100
AcDbSpline
210
0.0
220
0.0
230
1.0
 70
     8
 71
     3
 72
    11
 73
     7
 74
     0
 42
0.00000001
 43
0.00000001
 40
-0.00000006
 40
-0.00000006
 40
-0.00000006
 40
-0.00000006
 40
0.0
 40
0.0
 40
0.0
 40
0.0005130641833186
 40
0.0005130641833186
 40
0.0005130641833186
 40
0.0005130641833186
 10
9.115356365824741
 20
12.91935304541892
 30
0.0
 10
9.115356367096972
 20
12.91935302785685
 30
0.0
 10
9.11535636836924
 20
12.91935301029428
 30
0.0
 10
9.115356369640763
 20
12.91935299273171
 30
0.0
 10
9.115367242527386
 20
12.91920281396232
 30
0.0
 10
9.115342791126634
 20
12.91904040356975
 30
0.0
 10
9.11528496195238
 20
12.91886614565573
 30
0.0
  0
SPLINE
  5
1F4
330
1F
100
AcDbEntity
  8
0
  6
Continuous
 62
     7
370
    15
100
AcDbSpline
210
0.0
220
0.0
230
1.0
 70
     8
 71
     3
 72
     8
 73
     4
 74
     0
 42
0.00000001
 43
0.00000001
 40
0.0
 40
0.0
 40
0.0
 40
0.0
 40
1.0
 40
1.0
 40
1.0
 40
1.0
 10
9.381496020727075
 20
12.93347697487076
 30
0.0
 10
9.378834923462465
 20
12.93758572443812
 30
0.0
 10
9.376273371479753
 20
12.94177542276473
 30
0.0
 10
9.373807544692422
 20
12.94603845610288
 30
0.0
  0
LINE
  5
1F5
330
1F
100
AcDbEntity
  8
0
  6
Continuous
 62
     7
370
    15
100
AcDbLine
 10
9.3814960207
 20
12.9334769749
 30
0.0
 11
9.3580446276
 21
12.8372210586
 31
0.0
  0
SPLINE
  5
1F6
330
1F
100
AcDbEntity
  8
0
  6
Continuous
 62
     7
370
    15
100
AcDbSpline
210
0.0
220
0.0
230
1.0
 70
     8
 71
     3
 72
    18
 73
    14
 74
     0
 42
0.00000001
 43
0.00000001
 40
0.0
 40
0.0
 40
0.0
 40
0.0
 40
0.1250000000000021
 40
0.1250000000000021
 40
0.2500000000000041
 40
0.2500000000000041
 40
0.5000000000000067
 40
0.5000000000000067
 40
0.7500000000000093
 40
0.7500000000000093
 40
0.8750000000000047
 40
0.8750000000000047
 40
1.0
 40
1.0
 40
1.0
 40
1.0
 10
9.323782012899885
 20
12.89652973191254
 30
0.0
 10
9.324030818966236
 20
12.89599369579581
 30
0.0
 10
9.324480166421003
 20
12.89511840178288
 30
0.0
 10
9.325711510601305
 20
12.89281843159758
 30
0.0
 10
9.326490061133061
 20
12.89139975244439
 30
0.0
 10
9.329254886185781
 20
12.8864429143111
 30
0.0
 10
9.33166393742816
 20
12.88221463980349
 30
0.0
 10
9.33755127120449
 20
12.87202391076407
 30
0.0
 10
9.340953745622489
 20
12.86619262463834
 30
0.0
 10
9.346774311240939
 20
12.85628783244502
 30
0.0
 10
9.348835588803096
 20
12.85279056063541
 30
0.0
 10
9.353232005243175
 20
12.84534820287511
 30
0.0
 10
9.355580584220846
 20
12.84138068226884
 30
0.0
 10
9.358044627559451
 20
12.83722105862703
 30
0.0
  0
SPLINE
  5
1F7
330
1F
100
AcDbEntity
  8
0
  6
Continuous
 62
     7
370
    15
100
AcDbSpline
210
0.0
220
0.0
230
1.0
 70
     8
 71
     3
 72
    11
 73
     7
 74
     0
 42
0.00000001
 43
0.00000001
 40
0.0
 40
0.0
 40
0.0
 40
0.0
 40
0.0005130641833185
 40
0.0005130641833185
 40
0.0005130641833185
 40
0.0005131241833185
 40
0.0005131241833185
 40
0.0005131241833185
 40
0.0005131241833185
 10
9.315791659937053
 20
13.0346287417115
 30
0.0
 10
9.315611833569573
 20
13.03466578913453
 30
0.0
 10
9.315458956343393
 20
13.03472581879661
 30
0.0
 10
9.31533433415731
 20
13.03481032437733
 30
0.0
 10
9.31533431958344
 20
13.03481033425978
 30
0.0
 10
9.315334305009937
 20
13.03481034414289
 30
0.0
 10
9.315334290436857
 20
13.0348103540257
 30
0.0
  0
SPLINE
  5
1F8
330
1F
100
AcDbEntity
  8
0
  6
Continuous
 62
     7
370
    15
100
AcDbSpline
210
0.0
220
0.0
230
1.0
 70
     8
 71
     3
 72
    18
 73
    14
 74
     0
 42
0.00000001
 43
0.00000001
 40
0.0
 40
0.0
 40
0.0
 40
0.0
 40
0.1250000000000022
 40
0.1250000000000022
 40
0.2500000000000045
 40
0.2500000000000045
 40
0.5000000000000038
 40
0.5000000000000038
 40
0.6250000000000028
 40
0.6250000000000028
 40
0.7500000000000018
 40
0.7500000000000018
 40
1.0
 40
1.0
 40
1.0
 40
1.0
 10
9.373807544692422
 20
12.94603845610288
 30
0.0
 10
9.369798558041065
 20
12.95296937429825
 30
0.0
 10
9.3659935414928
 20
12.95956629879389
 30
0.0
 10
9.35873591695418
 20
12.97206751959223
 30
0.0
 10
9.355285888179688
 20
12.97796714719143
 30
0.0
 10
9.345570439988396
 20
12.99433577103791
 30
0.0
 10
9.339867832583433
 20
13.00358814034335
 30
0.0
 10
9.332407136693847
 20
13.01494092018215
 30
0.0
 10
9.330094221779293
 20
13.01831696548689
 30
0.0
 10
9.32593246884709
 20
13.02409655093444
 30
0.0
 10
9.32408116376428
 20
13.02650593287185
 30
0.0
 10
9.319234023528573
 20
13.03234573754936
 30
0.0
 10
9.316923344257976
 20
13.03439559465772
 30
0.0
 10
9.315791659937055
 20
13.0346287417115
 30
0.0
  0
ARC
  5
1F9
330
1F
100
AcDbEntity
  8
0
  6
Continuous
 62
     7
370
    15
100
AcDbCircle
 10
9.2559466727
 20
13.0311194044
 30
0.0
 40
0.0599477935487354
100
AcDbArc
 50
3.3560073973
 51
64.7345306486
  0
ARC
  5
1FA
330
1F
100
AcDbEntity
  8
0
  6
Continuous
 62
     7
370
    15
100
AcDbCircle
 10
9.2829149615
 20
9.001232494
 30
0.0
 40
0.0785208285886464
100
AcDbArc
 50
16.9003247909
 51
103.0996752091
  0
ARC
  5
1FB
330
1F
100
AcDbEntity
  8
0
  6
Continuous
 62
     7
370
    15
100
AcDbCircle
 10
12.6247469252
 20
10.9306400778
 30
0.0
 40
0.0785208285886406
100
AcDbArc
 50
136.9003247909
 51
223.0996752091
  0
ARC
  5
1FC
330
1F
100
AcDbEntity
  8
0
  6
Continuous
 62
     7
370
    15
100
AcDbCircle
 10
9.2829149615
 20
12.8600476616
 30
0.0
 40
0.0785208285886447
100
AcDbArc
 50
256.9003247909
 51
343.0996752091
  0
LINE
  5
1FD
330
1F
100
AcDbEntity
  8
0
  6
Continuous
 62
     7
370
    15
100
AcDbLine
 10
9.2651185466
 20
9.0777099949
 30
0.0
 11
10.1474523781
 21
10.6059570202
 31
0.0
  0
ARC
  5
1FE
330
1F
100
AcDbEntity
  8
0
  6
Continuous
 62
     7
370
    15
100
AcDbCircle
 10
10.165248793
 20
10.5294795193
 30
0.0
 40
0.0785208285877866
100
AcDbArc
 50
16.9003247903
 51
103.0996752096
  0
LINE
  5
1FF
330
1F
100
AcDbEntity
  8
0
  6
Continuous
 62
     7
370
    15
100
AcDbLine
 10
10.240378459
 20
10.5523061223
 30
0.0
 11
9.3580446276
 21
9.024059097
 31
0.0
  0
LINE
  5
200
330
1F
100
AcDbEntity
  8
0
  6
Continuous
 62
     7
370
    15
100
AcDbLine
 10
10.8027460112
 20
10.9842909757
 30
0.0
 11
12.5674136741
 21
10.9842909757
 31
0.0
  0
LINE
  5
201
330
1F
100
AcDbEntity
  8
0
  6
Continuous
 62
     7
370
    15
100
AcDbLine
 10
12.5674136741
 20
10.87698918
 30
0.0
 11
10.8027460112
 21
10.87698918
 31
0.0
  0
ARC
  5
202
330
1F
100
AcDbEntity
  8
0
  6
Continuous
 62
     7
370
    15
100
AcDbCircle
 10
10.8600792623
 20
10.9306400778
 30
0.0
 40
0.0785208285937615
100
AcDbArc
 50
136.9003247944
 51
223.0996752055
  0
LINE
  5
203
330
1F
100
AcDbEntity
  8
0
  6
Continuous
 62
     7
370
    15
100
AcDbLine
 10
9.3580446276
 20
12.8372210586
 30
0.0
 11
10.240378459
 21
11.3089740333
 31
0.0
  0
ARC
  5
204
330
1F
100
AcDbEntity
  8
0
  6
Continuous
 62
     7
370
    15
100
AcDbCircle
 10
10.165248793
 20
11.3318006363
 30
0.0
 40
0.0785208285877794
100
AcDbArc
 50
256.9003247903
 51
343.0996752096
  0
LINE
  5
205
330
1F
100
AcDbEntity
  8
0
  6
Continuous
 62
     7
370
    15
100
AcDbLine
 10
10.1474523781
 20
11.2553231354
 30
0.0
 11
9.2651185466
 21
12.7835701608
 31
0.0
  0
LINE
  5
206
330
1F
100
AcDbEntity
  8
0
  6
Continuous
 62
     7
370
    15
100
AcDbLine
 10
10.240378459
 20
10.5523061223
 30
0.0
 11
10.3231151253
 21
10.4151675019
 31
0.0
  0
LINE
  5
207
330
1F
100
AcDbEntity
  8
0
  6
Continuous
 62
     7
370
    15
100
AcDbLine
 10
9.3814960207
 20
8.9278031808
 30
0.0
 11
10.3231151253
 21
10.4151675019
 31
0.0
  0
LINE
  5
208
330
1F
100
AcDbEntity
  8
0
  6
Continuous
 62
     7
370
    15
100
AcDbLine
 10
10.8801432071
 20
10.7367678149
 30
0.0
 11
12.6390480462
 21
10.8085517196
 31
0.0
  0
LINE
  5
209
330
1F
100
AcDbEntity
  8
0
  6
Continuous
 62
     7
370
    15
100
AcDbLine
 10
10.8801432071
 20
10.7367678149
 30
0.0
 11
10.8027460112
 21
10.87698918
 31
0.0
  0
LINE
  5
20A
330
1F
100
AcDbEntity
  8
0
  6
Continuous
 62
     7
370
    15
100
AcDbLine
 10
9.9873185158
 20
10.6090397648
 30
0.0
 11
9.1700327813
 21
9.049891539
 31
0.0
  0
LINE
  5
20B
330
1F
100
AcDbEntity
  8
0
  6
Continuous
 62
     7
370
    15
100
AcDbLine
 10
9.9873185158
 20
10.6090397648
 30
0.0
 11
10.1474523781
 21
10.6059570202
 31
0.0
  0
LINE
  5
20C
330
1F
100
AcDbEntity
  8
0
  6
Continuous
 62
     7
370
    15
100
AcDbLine
 10
10.1474523781
 20
11.2553231354
 30
0.0
 11
9.9873185158
 21
11.2522403908
 31
0.0
  0
LINE
  5
20D
330
1F
100
AcDbEntity
  8
0
  6
Continuous
 62
     7
370
    15
100
AcDbLine
 10
9.1700327813
 20
12.8113886167
 30
0.0
 11
9.9873185158
 21
11.2522403908
 31
0.0
  0
LINE
  5
20E
330
1F
100
AcDbEntity
  8
0
  6
Continuous
 62
     7
370
    15
100
AcDbLine
 10
10.3231151253
 20
11.4461126537
 30
0.0
 11
9.3814960207
 21
12.9334769749
 31
0.0
  0
LINE
  5
20F
330
1F
100
AcDbEntity
  8
0
  6
Continuous
 62
     7
370
    15
100
AcDbLine
 10
10.3231151253
 20
11.4461126537
 30
0.0
 11
10.240378459
 21
11.3089740333
 31
0.0
  0
LINE
  5
210
330
1F
100
AcDbEntity
  8
0
  6
Continuous
 62
     7
370
    15
100
AcDbLine
 10
10.8027460112
 20
10.9842909757
 30
0.0
 11
10.8801432071
 21
11.1245123407
 31
0.0
  0
LINE
  5
211
330
1F
100
AcDbEntity
  8
0
  6
Continuous
 62
     7
370
    15
100
AcDbLine
 10
12.6390480462
 20
11.052728436
 30
0.0
 11
10.8801432071
 21
11.1245123407
 31
0.0
  0
SPLINE
  5
212
330
1F
100
AcDbEntity
  8
0
  6
Continuous
 62
     7
370
    15
100
AcDbSpline
210
0.0
220
0.0
230
1.0
 70
     8
 71
     3
 72
    40
 73
    36
 74
     0
 42
0.00000001
 43
0.00000001
 40
0.0
 40
0.0
 40
0.0
 40
0.0
 40
0.0625
 40
0.0625
 40
0.125
 40
0.125
 40
0.1875000000000001
 40
0.1875000000000001
 40
0.2500000000000001
 40
0.2500000000000001
 40
0.3125000000000002
 40
0.3125000000000002
 40
0.3750000000000002
 40
0.3750000000000002
 40
0.4375000000000002
 40
0.4375000000000002
 40
0.5000000000000003
 40
0.5000000000000003
 40
0.5625000000000004
 40
0.5625000000000004
 40
0.6250000000000006
 40
0.6250000000000006
 40
0.6875000000000006
 40
0.6875000000000006
 40
0.7500000000000004
 40
0.7500000000000004
 40
0.8125000000000004
 40
0.8125000000000004
 40
0.8437500000000004
 40
0.8437500000000004
 40
0.8750000000000004
 40
0.8750000000000004
 40
0.9375000000000002
 40
0.9375000000000002
 40
1.0
 40
1.0
 40
1.0
 40
1.0
 10
10.21469038177263
 20
10.61511486311854
 30
0.0
 10
10.22068466482265
 20
10.62524584912833
 30
0.0
 10
10.22714267846697
 20
10.63533769980511
 30
0.0
 10
10.24156537575718
 20
10.65497892412481
 30
0.0
 10
10.24951247543627
 20
10.66454087743267
 30
0.0
 10
10.26701631506508
 20
10.68304242291077
 30
0.0
 10
10.27660088497072
 20
10.69201146756669
 30
0.0
 10
10.29723025358712
 20
10.70926065047364
 30
0.0
 10
10.3080849649488
 20
10.7173923460042
 30
0.0
 10
10.33065862178018
 20
10.7329427923568
 30
0.0
 10
10.34237790064623
 20
10.7403614704399
 30
0.0
 10
10.36643077393171
 20
10.75482358100806
 30
0.0
 10
10.37879795189508
 20
10.76188886946867
 30
0.0
 10
10.40370646152503
 20
10.7759326757692
 30
0.0
 10
10.41618841339938
 20
10.78289052492995
 30
0.0
 10
10.44104831945168
 20
10.79695698487153
 30
0.0
 10
10.45342085401503
 20
10.80407504724489
 30
0.0
 10
10.47813110943348
 20
10.81834153676413
 30
0.0
 10
10.49046899192163
 20
10.8254896820511
 30
0.0
 10
10.51503033489773
 20
10.83995510384562
 30
0.0
 10
10.52725931787993
 20
10.84726274778967
 30
0.0
 10
10.5517713805743
 20
10.86175259475234
 30
0.0
 10
10.56411057164842
 20
10.8689556509472
 30
0.0
 10
10.58873961718897
 20
10.88260550155885
 30
0.0
 10
10.60104354638426
 20
10.88905825757744
 30
0.0
 10
10.62578846453362
 20
10.90083647928521
 30
0.0
 10
10.6382295638313
 20
10.90616229449314
 30
0.0
 10
10.65708158984679
 20
10.91307441014419
 30
0.0
 10
10.66342094802648
 20
10.91520601802635
 30
0.0
 10
10.67600490875103
 20
10.91903086051628
 30
0.0
 10
10.68225828876293
 20
10.92072889566203
 30
0.0
 10
10.70090679307788
 20
10.92518378330755
 30
0.0
 10
10.71319223468809
 20
10.9272919509047
 30
0.0
 10
10.73745114024844
 20
10.92996788726681
 30
0.0
 10
10.74942645471083
 20
10.93051438227392
 30
0.0
 10
10.76119608470504
 20
10.93064007782178
 30
0.0
  0
SPLINE
  5
213
330
1F
100
AcDbEntity
  8
0
  6
Continuous
 62
     7
370
    15
100
AcDbSpline
210
0.0
220
0.0
230
1.0
 70
     8
 71
     3
 72
    40
 73
    36
 74
     0
 42
0.00000001
 43
0.00000001
 40
0.0
 40
0.0
 40
0.0
 40
0.0
 40
0.0625000000000001
 40
0.0625000000000001
 40
0.1250000000000001
 40
0.1250000000000001
 40
0.1875000000000002
 40
0.1875000000000002
 40
0.2500000000000002
 40
0.2500000000000002
 40
0.3125000000000002
 40
0.3125000000000002
 40
0.3750000000000002
 40
0.3750000000000002
 40
0.4375000000000002
 40
0.4375000000000002
 40
0.5000000000000001
 40
0.5000000000000001
 40
0.5625
 40
0.5625
 40
0.625
 40
0.625
 40
0.6874999999999999
 40
0.6874999999999999
 40
0.7499999999999999
 40
0.7499999999999999
 40
0.8124999999999998
 40
0.8124999999999998
 40
0.8437499999999999
 40
0.8437499999999999
 40
0.8749999999999999
 40
0.8749999999999999
 40
0.9374999999999999
 40
0.9374999999999999
 40
1.0
 40
1.0
 40
1.0
 40
1.0
 10
10.21469038177115
 20
11.24616529252299
 30
0.0
 10
10.22046693149601
 20
11.23590859811931
 30
0.0
 10
10.22597772373134
 20
11.22526986890659
 30
0.0
 10
10.23577617430851
 20
11.20295883450233
 30
0.0
 10
10.24008351894336
 20
11.19129546763991
 30
0.0
 10
10.24735440752226
 20
11.16688592511855
 30
0.0
 10
10.25032954308913
 20
11.15410092176798
 30
0.0
 10
10.25495308937288
 20
11.12761077302865
 30
0.0
 10
10.25656798859734
 20
11.1141444694734
 30
0.0
 10
10.25874824176319
 20
11.08681988602481
 30
0.0
 10
10.25931336601263
 20
11.07296135377123
 30
0.0
 10
10.25981148451425
 20
11.04489989918792
 30
0.0
 10
10.25974661482452
 20
11.03065696466822
 30
0.0
 10
10.25945465303163
 20
11.00206365940799
 30
0.0
 10
10.25923935122336
 20
10.98777504741562
 30
0.0
 10
10.25899130984794
 20
10.95921250726783
 30
0.0
 10
10.25896946540731
 20
10.94493854684008
 30
0.0
 10
10.25896948004458
 20
10.91640559315408
 30
0.0
 10
10.25899101420896
 20
10.90214660084694
 30
0.0
 10
10.25923776547142
 20
10.87364314298133
 30
0.0
 10
10.25945187927768
 20
10.85939871108427
 30
0.0
 10
10.25974442349712
 20
10.83092571861046
 30
0.0
 10
10.25981285760969
 20
10.81663813758071
 30
0.0
 10
10.25931945222696
 20
10.78848383316579
 30
0.0
 10
10.25875573826584
 20
10.77460193990699
 30
0.0
 10
10.25658351840148
 20
10.74728310132118
 30
0.0
 10
10.25497526001858
 20
10.73384588567442
 30
0.0
 10
10.25153531475853
 20
10.71406349440666
 30
0.0
 10
10.25021166224554
 20
10.70750764523827
 30
0.0
 10
10.24723209264501
 20
10.69469719432565
 30
0.0
 10
10.2455759442118
 20
10.68843259080296
 30
0.0
 10
10.24010973792636
 20
10.6700550685009
 30
0.0
 10
10.23579274381582
 20
10.65836148017118
 30
0.0
 10
10.22598071990414
 20
10.63601468350688
 30
0.0
 10
10.22046634123215
 20
10.62537050946059
 30
0.0
 10
10.21469038177263
 20
10.61511486311854
 30
0.0
  0
SPLINE
  5
214
330
1F
100
AcDbEntity
  8
0
  6
Continuous
 62
     7
370
    15
100
AcDbSpline
210
0.0
220
0.0
230
1.0
 70
     8
 71
     3
 72
    40
 73
    36
 74
     0
 42
0.00000001
 43
0.00000001
 40
0.0
 40
0.0
 40
0.0
 40
0.0
 40
0.0625
 40
0.0625
 40
0.1249999999999999
 40
0.1249999999999999
 40
0.1874999999999999
 40
0.1874999999999999
 40
0.2499999999999999
 40
0.2499999999999999
 40
0.3124999999999999
 40
0.3124999999999999
 40
0.3749999999999998
 40
0.3749999999999998
 40
0.4374999999999998
 40
0.4374999999999998
 40
0.4999999999999998
 40
0.4999999999999998
 40
0.5624999999999998
 40
0.5624999999999998
 40
0.6249999999999998
 40
0.6249999999999998
 40
0.6874999999999997
 40
0.6874999999999997
 40
0.7499999999999997
 40
0.7499999999999997
 40
0.8124999999999997
 40
0.8124999999999997
 40
0.8437500000000001
 40
0.8437500000000001
 40
0.8750000000000004
 40
0.8750000000000004
 40
0.9375000000000002
 40
0.9375000000000002
 40
1.0
 40
1.0
 40
1.0
 40
1.0
 10
10.76119608470534
 20
10.93064007782178
 30
0.0
 10
10.74942525193048
 20
10.93076578621566
 30
0.0
 10
10.73745644605073
 20
10.93131266475125
 30
0.0
 10
10.71323529818335
 20
10.93398247483582
 30
0.0
 10
10.7009808538694
 20
10.93608388839039
 30
0.0
 10
10.67620612566171
 20
10.94199188543365
 30
0.0
 10
10.66364642018921
 20
10.94580784412831
 30
0.0
 10
10.63839350528904
 20
10.95504880996068
 30
0.0
 10
10.6259238947029
 20
10.96038341798536
 30
0.0
 10
10.60116998470567
 20
10.97215755508135
 30
0.0
 10
10.58888558159018
 20
10.97859740925183
 30
0.0
 10
10.56433458980308
 20
10.99219675326697
 30
0.0
 10
10.55203228152945
 20
10.99937439932606
 30
0.0
 10
10.52741573369238
 20
11.01392389828576
 30
0.0
 10
10.5151490836263
 20
11.02125466111738
 30
0.0
 10
10.49053721894941
 20
11.03575074132358
 30
0.0
 10
10.47818652882668
 20
11.04290663937797
 30
0.0
 10
10.45347625877097
 20
11.05717310354472
 30
0.0
 10
10.44111684211843
 20
11.06428395056489
 30
0.0
 10
10.41630874787988
 20
11.07832198663599
 30
0.0
 10
10.40386565109143
 20
11.085258774589
 30
0.0
 10
10.37906104417763
 20
11.09924192010014
 30
0.0
 10
10.36665341899094
 20
11.10632644493504
 30
0.0
 10
10.34251777883311
 20
11.1208308987383
 30
0.0
 10
10.33077756359893
 20
11.1282600359785
 30
0.0
 10
10.3082048653139
 20
11.14380065285653
 30
0.0
 10
10.29737202439912
 20
11.15191205329536
 30
0.0
 10
10.28195994364367
 20
11.16478232891206
 30
0.0
 10
10.27694423797696
 20
11.16920657019829
 30
0.0
 10
10.26733984685295
 20
11.178192178621
 30
0.0
 10
10.26274261527426
 20
11.18275874699794
 30
0.0
 10
10.24956031724478
 20
11.19668138165449
 30
0.0
 10
10.24159186974511
 20
11.20626680238706
 30
0.0
 10
10.22714498809645
 20
11.22593766268926
 30
0.0
 10
10.22068405230605
 20
11.23603534172844
 30
0.0
 10
10.21469038177136
 20
11.24616529252263
 30
0.0
  0
CIRCLE
  5
215
330
1F
100
AcDbEntity
  8
0
  6
Continuous
 62
     7
370
    15
100
AcDbCircle
 10
10.3968589494
 20
10.9306400778
 30
0.0
 40
0.1318346602170912
  0
SPLINE
  5
216
330
1F
100
AcDbEntity
  8
0
  6
Continuous
 62
     7
370
    15
100
AcDbSpline
210
0.0
220
0.0
230
1.0
 70
     8
 71
     3
 72
    40
 73
    36
 74
     0
 42
0.00000001
 43
0.00000001
 40
0.0
 40
0.0
 40
0.0
 40
0.0
 40
0.0625
 40
0.0625
 40
0.125
 40
0.125
 40
0.1875
 40
0.1875
 40
0.25
 40
0.25
 40
0.3125
 40
0.3125
 40
0.375
 40
0.375
 40
0.4375
 40
0.4375
 40
0.5
 40
0.5
 40
0.5625
 40
0.5625
 40
0.625
 40
0.625
 40
0.6875
 40
0.6875
 40
0.75
 40
0.75
 40
0.8125
 40
0.8125
 40
0.84375
 40
0.84375
 40
0.875
 40
0.875
 40
0.9375
 40
0.9375
 40
1.0
 40
1.0
 40
1.0
 40
1.0
 10
10.78118612578731
 20
10.87671370760252
 30
0.0
 10
10.76995155445277
 20
10.87632060911392
 30
0.0
 10
10.75872201994811
 20
10.87535194448637
 30
0.0
 10
10.73620016366218
 20
10.871627526572
 30
0.0
 10
10.72490888667861
 20
10.86889154915628
 30
0.0
 10
10.70208246357594
 20
10.86165771606323
 30
0.0
 10
10.69046588019209
 20
10.85712740811401
 30
0.0
 10
10.6673796535578
 20
10.8468004971212
 30
0.0
 10
10.65585575148021
 20
10.84099866111345
 30
0.0
 10
10.63265223216876
 20
10.82846909620909
 30
0.0
 10
10.6209736084487
 20
10.82174029725715
 30
0.0
 10
10.59731546180176
 20
10.80771194506981
 30
0.0
 10
10.58537846790677
 20
10.80044052234303
 30
0.0
 10
10.56134879603638
 20
10.78584224829653
 30
0.0
 10
10.54931084501089
 20
10.77855592371039
 30
0.0
 10
10.52515138122518
 20
10.76421005221659
 30
0.0
 10
10.51301704152545
 20
10.75714960357826
 30
0.0
 10
10.48871669513906
 20
10.74312038616131
 30
0.0
 10
10.47654987462937
 20
10.73615300540518
 30
0.0
 10
10.45210793408855
 20
10.72244137317632
 30
0.0
 10
10.4398359161328
 20
10.7156918544777
 30
0.0
 10
10.41528771163755
 20
10.7022406601034
 30
0.0
 10
10.40300080805635
 20
10.6955260572908
 30
0.0
 10
10.37913265445192
 20
10.68211266938979
 30
0.0
 10
10.36749411342617
 20
10.6753805754947
 30
0.0
 10
10.34504378675761
 20
10.66155457914415
 30
0.0
 10
10.33423158993048
 20
10.65446216998812
 30
0.0
 10
10.31879606849751
 20
10.64328713776639
 30
0.0
 10
10.31376836973708
 20
10.63946024305424
 30
0.0
 10
10.30414818878631
 20
10.63169910527945
 30
0.0
 10
10.29953811311077
 20
10.62775305083967
 30
0.0
 10
10.28631073111045
 20
10.61566551634575
 30
0.0
 10
10.27830414009749
 20
10.60726584015072
 30
0.0
 10
10.26382078575554
 20
10.58962988531239
 30
0.0
 10
10.25736186249318
 20
10.58038415140727
 30
0.0
 10
10.25139696777437
 20
10.57083979460606
 30
0.0
  0
ARC
  5
217
330
1F
100
AcDbEntity
  8
0
  6
Continuous
 62
   144
370
     0
100
AcDbCircle
 10
10.8334854549
 20
10.9267688717
 30
0.0
 40
0.0723929504724266
100
AcDbArc
 50
176.9346515503
 51
223.7439673579
  0
ARC
  5
218
330
1F
100
AcDbEntity
  8
0
  6
Continuous
 62
   144
370
     0
100
AcDbCircle
 10
10.1818982595
 20
10.5505748291
 30
0.0
 40
0.0723929504713658
100
AcDbArc
 50
16.2560326392
 51
63.0653484488
  0
SPLINE
  5
219
330
1F
100
AcDbEntity
  8
0
  6
Continuous
 62
     7
370
    15
100
AcDbSpline
210
0.0
220
0.0
230
1.0
 70
     8
 71
     3
 72
    40
 73
    36
 74
     0
 42
0.00000001
 43
0.00000001
 40
0.0
 40
0.0
 40
0.0
 40
0.0
 40
0.0625
 40
0.0625
 40
0.1250000000000001
 40
0.1250000000000001
 40
0.1875000000000001
 40
0.1875000000000001
 40
0.2500000000000002
 40
0.2500000000000002
 40
0.3125000000000002
 40
0.3125000000000002
 40
0.3750000000000002
 40
0.3750000000000002
 40
0.4375000000000002
 40
0.4375000000000002
 40
0.5000000000000002
 40
0.5000000000000002
 40
0.5625000000000002
 40
0.5625000000000002
 40
0.6250000000000003
 40
0.6250000000000003
 40
0.6875000000000003
 40
0.6875000000000003
 40
0.7500000000000003
 40
0.7500000000000003
 40
0.8125000000000004
 40
0.8125000000000004
 40
0.8437500000000003
 40
0.8437500000000003
 40
0.8750000000000002
 40
0.8750000000000002
 40
0.9375000000000002
 40
0.9375000000000002
 40
1.0
 40
1.0
 40
1.0
 40
1.0
 10
10.15799375468775
 20
10.62476616482824
 30
0.0
 10
10.16327060707771
 20
10.63469213824889
 30
0.0
 10
10.16804648615481
 20
10.64490153271633
 30
0.0
 10
10.17608197376963
 20
10.66626824135752
 30
0.0
 10
10.17935818631522
 20
10.67741476277432
 30
0.0
 10
10.18450671464125
 20
10.70079994160528
 30
0.0
 10
10.18639164456218
 20
10.71312535189549
 30
0.0
 10
10.18899139061694
 20
10.73828206613476
 30
0.0
 10
10.18972880428443
 20
10.75116297608858
 30
0.0
 10
10.19047964243462
 20
10.77752259572173
 30
0.0
 10
10.1904916434653
 20
10.79100098002053
 30
0.0
 10
10.1901718074213
 20
10.81850371211696
 30
0.0
 10
10.18984306756574
 20
10.83247716343824
 30
0.0
 10
10.18921542732526
 20
10.86058660674589
 30
0.0
 10
10.18892426064619
 20
10.87465494043655
 30
0.0
 10
10.18858010338599
 20
10.90275058556371
 30
0.0
 10
10.18853274535295
 20
10.916789456321
 30
0.0
 10
10.18853325986785
 20
10.94484878232088
 30
0.0
 10
10.18858274139005
 20
10.95886924834364
 30
0.0
 10
10.18892908982293
 20
10.98689240588426
 30
0.0
 10
10.18921984414448
 20
11.00089504453897
 30
0.0
 10
10.18984487035272
 20
11.02888001043635
 30
0.0
 10
10.19017330553128
 20
11.04287808247781
 30
0.0
 10
10.19049104766039
 20
11.07025520379119
 30
0.0
 10
10.19048015383946
 20
11.08370052293003
 30
0.0
 10
10.18973165310151
 20
11.11005607432355
 30
0.0
 10
10.18899554501191
 20
11.12296591602459
 30
0.0
 10
10.18703544393624
 20
11.1419209858171
 30
0.0
 10
10.18623510527812
 20
11.14818854802227
 30
0.0
 10
10.18432385327825
 20
11.16040043800203
 30
0.0
 10
10.18321150772645
 20
11.16636590787029
 30
0.0
 10
10.17935708678572
 20
11.18386492395508
 30
0.0
 10
10.17608604932372
 20
11.19499867326753
 30
0.0
 10
10.16805454158467
 20
11.21635960347882
 30
0.0
 10
10.16327696277743
 20
11.22657606205752
 30
0.0
 10
10.1579937546842
 20
11.23651399081551
 30
0.0
  0
ARC
  5
21A
330
1F
100
AcDbEntity
  8
0
  6
Continuous
 62
   144
370
     0
100
AcDbCircle
 10
10.1751931338
 20
11.3068341205
 30
0.0
 40
0.0723929504741862
100
AcDbArc
 50
256.2560326395
 51
303.0653484474
  0
ARC
  5
21B
330
1F
100
AcDbEntity
  8
0
  6
Continuous
 62
   144
370
     0
100
AcDbCircle
 10
10.1751931338
 20
10.5544460352
 30
0.0
 40
0.0723929504721429
100
AcDbArc
 50
56.9346515501
 51
103.7439673579
  0
SPLINE
  5
21C
330
1F
100
AcDbEntity
  8
0
  6
Continuous
 62
     7
370
    15
100
AcDbSpline
210
0.0
220
0.0
230
1.0
 70
     8
 71
     3
 72
    40
 73
    36
 74
     0
 42
0.00000001
 43
0.00000001
 40
0.0
 40
0.0
 40
0.0
 40
0.0
 40
0.0625
 40
0.0625
 40
0.1249999999999999
 40
0.1249999999999999
 40
0.1874999999999999
 40
0.1874999999999999
 40
0.2499999999999999
 40
0.2499999999999999
 40
0.3124999999999999
 40
0.3124999999999999
 40
0.3749999999999998
 40
0.3749999999999998
 40
0.4374999999999998
 40
0.4374999999999998
 40
0.4999999999999998
 40
0.4999999999999998
 40
0.5624999999999998
 40
0.5624999999999998
 40
0.6249999999999998
 40
0.6249999999999998
 40
0.6874999999999997
 40
0.6874999999999997
 40
0.7499999999999997
 40
0.7499999999999997
 40
0.8124999999999997
 40
0.8124999999999997
 40
0.8437499999999997
 40
0.8437499999999997
 40
0.8749999999999996
 40
0.8749999999999996
 40
0.9374999999999998
 40
0.9374999999999998
 40
1.0
 40
1.0
 40
1.0
 40
1.0
 10
10.25139696777399
 20
11.29044036103219
 30
0.0
 10
10.25735468671859
 20
11.28090748610014
 30
0.0
 10
10.2638083421461
 20
11.27166675626024
 30
0.0
 10
10.27829471081724
 20
11.25402446553342
 30
0.0
 10
10.28630977525523
 20
11.24561392153234
 30
0.0
 10
10.3039876700319
 20
11.22946257579441
 30
0.0
 10
10.31371932349483
 20
11.22166747345343
 30
0.0
 10
10.33420580407441
 20
11.20683767020699
 30
0.0
 10
10.34499229248454
 20
11.19975859626093
 30
0.0
 10
10.36744497364587
 20
11.18592854153216
 30
0.0
 10
10.37911159633527
 20
11.17917895618531
 30
0.0
 10
10.40308957902627
 20
11.16570457627625
 30
0.0
 10
10.41535531277683
 20
11.15900254768175
 30
0.0
 10
10.44001262488774
 20
11.14549137842062
 30
0.0
 10
10.4523417425923
 20
11.13870936931609
 30
0.0
 10
10.47684536363825
 20
11.12495959568274
 30
0.0
 10
10.48902706137103
 20
11.11798117356377
 30
0.0
 10
10.51332689324255
 20
11.10395106498085
 30
0.0
 10
10.52544423223007
 20
11.09689797971422
 30
0.0
 10
10.54953982433806
 20
11.08258645440248
 30
0.0
 10
10.56152108797228
 20
11.07533333444639
 30
0.0
 10
10.58544426625934
 20
11.06079956292333
 30
0.0
 10
10.59740273466198
 20
11.05351609369447
 30
0.0
 10
10.6209531461373
 20
11.03955236028212
 30
0.0
 10
10.63260258098399
 20
11.03283913503837
 30
0.0
 10
10.65580140839051
 20
11.02030957999543
 30
0.0
 10
10.66734971330725
 20
11.01449214745045
 30
0.0
 10
10.68474533581591
 20
11.00671210987972
 30
0.0
 10
10.69057337323445
 20
11.0042714423867
 30
0.0
 10
10.70210480618508
 20
10.99982069018175
 30
0.0
 10
10.70782722741241
 20
10.99780127475328
 30
0.0
 10
10.72490903035344
 20
10.99238979316245
 30
0.0
 10
10.73618665882838
 20
10.98965572004507
 30
0.0
 10
10.75870152090936
 20
10.98593074467216
 30
0.0
 10
10.76993802297852
 20
10.98496001999849
 30
0.0
 10
10.78118612579056
 20
10.98456644804171
 30
0.0
  0
ARC
  5
21D
330
1F
100
AcDbEntity
  8
0
  6
Continuous
 62
   144
370
     0
100
AcDbCircle
 10
10.8334854549
 20
10.9345112839
 30
0.0
 40
0.0723929504759146
100
AcDbArc
 50
136.2560326398
 51
183.0653484466
  0
ARC
  5
21E
330
1F
100
AcDbEntity
  8
0
  6
Continuous
 62
   144
370
     0
100
AcDbCircle
 10
10.1818982595
 20
11.3107053266
 30
0.0
 40
0.0723929504721705
100
AcDbArc
 50
296.9346515501
 51
343.7439673579
  0
SPLINE
  5
21F
330
1F
100
AcDbEntity
  8
0
  6
Continuous
 62
     7
370
    15
100
AcDbSpline
210
0.0
220
0.0
230
1.0
 70
     8
 71
     3
 72
     8
 73
     4
 74
     0
 42
0.00000001
 43
0.00000001
 40
0.0
 40
0.0
 40
0.0
 40
0.0
 40
1.0
 40
1.0
 40
1.0
 40
1.0
 10
10.80274601118118
 20
10.8769891799615
 30
0.0
 10
10.79556022582407
 20
10.87698917529091
 30
0.0
 10
10.78849764371189
 20
10.87687960791303
 30
0.0
 10
10.78118612578736
 20
10.87671370760252
 30
0.0
  0
SPLINE
  5
220
330
1F
100
AcDbEntity
  8
0
  6
Continuous
 62
     7
370
    15
100
AcDbSpline
210
0.0
220
0.0
230
1.0
 70
     8
 71
     3
 72
    10
 73
     6
 74
     0
 42
0.00000001
 43
0.00000001
 40
0.0
 40
0.0
 40
0.0
 40
0.0
 40
0.5
 40
0.5
 40
1.0
 40
1.0
 40
1.0
 40
1.0
 10
10.7811861257905
 20
10.98456644804171
 30
0.0
 10
10.78484188560901
 20
10.98448349786678
 30
0.0
 10
10.78843629343516
 20
10.98441420522115
 30
0.0
 10
10.79559193072819
 20
10.98431787288477
 30
0.0
 10
10.79917221104006
 20
10.98429097799744
 30
0.0
 10
10.80274601118152
 20
10.98429097568111
 30
0.0
  0
ARC
  5
221
330
1F
100
AcDbEntity
  8
0
  6
Continuous
 62
   144
370
     0
100
AcDbCircle
 10
10.8440604751
 20
10.9306400778
 30
0.0
 40
0.0828325853786725
100
AcDbArc
 50
139.3808119494
 51
220.6191880473
  0
SPLINE
  5
222
330
1F
100
AcDbEntity
  8
0
  6
Continuous
 62
     7
370
    15
100
AcDbSpline
210
0.0
220
0.0
230
1.0
 70
     8
 71
     3
 72
     8
 73
     4
 74
     0
 42
0.00000001
 43
0.00000001
 40
0.0
 40
0.0
 40
0.0
 40
0.0
 40
1.0
 40
1.0
 40
1.0
 40
1.0
 10
10.14745237805173
 20
10.60595702019499
 30
0.0
 10
10.15104694673939
 20
10.61218300513633
 30
0.0
 10
10.15448857938015
 20
10.61836387527856
 30
0.0
 10
10.15799375468775
 20
10.62476616482824
 30
0.0
  0
SPLINE
  5
223
330
1F
100
AcDbEntity
  8
0
  6
Continuous
 62
     7
370
    15
100
AcDbSpline
210
0.0
220
0.0
230
1.0
 70
     8
 71
     3
 72
     8
 73
     4
 74
     0
 42
0.00000001
 43
0.00000001
 40
0.0
 40
0.0
 40
0.0
 40
0.0
 40
1.0
 40
1.0
 40
1.0
 40
1.0
 10
10.25139696777467
 20
10.57083979460656
 30
0.0
 10
10.24760500954251
 20
10.56460307815984
 30
0.0
 10
10.24396239841273
 20
10.55851367815084
 30
0.0
 10
10.24037845901644
 20
10.55230612233489
 30
0.0
  0
ARC
  5
224
330
1F
100
AcDbEntity
  8
0
  6
Continuous
 62
   144
370
     0
100
AcDbCircle
 10
10.1732581866
 20
10.543352196
 30
0.0
 40
0.0828325853783446
100
AcDbArc
 50
19.3808119495
 51
100.6191880479
  0
SPLINE
  5
225
330
1F
100
AcDbEntity
  8
0
  6
Continuous
 62
     7
370
    15
100
AcDbSpline
210
0.0
220
0.0
230
1.0
 70
     8
 71
     3
 72
     8
 73
     4
 74
     0
 42
0.00000001
 43
0.00000001
 40
0.0
 40
0.0
 40
0.0
 40
0.0
 40
1.0
 40
1.0
 40
1.0
 40
1.0
 10
10.2403784590161
 20
11.30897403330655
 30
0.0
 10
10.24397135573846
 20
11.30275096296974
 30
0.0
 10
10.24759753492831
 20
11.29668937113985
 30
0.0
 10
10.25139696777399
 20
11.29044036103219
 30
0.0
  0
SPLINE
  5
226
330
1F
100
AcDbEntity
  8
0
  6
Continuous
 62
     7
370
    15
100
AcDbSpline
210
0.0
220
0.0
230
1.0
 70
     8
 71
     3
 72
    10
 73
     6
 74
     0
 42
0.00000001
 43
0.00000001
 40
0.0
 40
0.0
 40
0.0
 40
0.0
 40
0.5000000000000013
 40
0.5000000000000013
 40
1.0
 40
1.0
 40
1.0
 40
1.0
 10
10.15799375468439
 20
11.23651399081516
 30
0.0
 10
10.15623771173385
 20
11.23972144677565
 30
0.0
 10
10.15450051701216
 20
11.24286894158751
 30
0.0
 10
10.15100612461611
 20
11.24911407143182
 30
0.0
 10
10.1492392761102
 20
11.25222813258043
 30
0.0
 10
10.14745237805106
 20
11.25532313544703
 30
0.0
  0
ARC
  5
227
330
1F
100
AcDbEntity
  8
0
  6
Continuous
 62
   144
370
     0
100
AcDbCircle
 10
10.1732581866
 20
11.3179279596
 30
0.0
 40
0.0828325853781437
100
AcDbArc
 50
259.3808119491
 51
340.6191880477
  0
SPLINE
  5
228
330
1F
100
AcDbEntity
  8
0
  6
Continuous
 62
     7
370
    15
100
AcDbSpline
210
0.0
220
0.0
230
1.0
 70
     8
 71
     3
 72
     8
 73
     4
 74
     0
 42
0.00000001
 43
0.00000001
 40
0.0
 40
0.0
 40
0.0
 40
0.0
 40
1.0
 40
1.0
 40
1.0
 40
1.0
 10
10.84921805346539
 20
10.73516567940336
 30
0.0
 10
10.85945246029342
 20
10.73585378586323
 30
0.0
 10
10.86975982691372
 20
10.73634405146138
 30
0.0
 10
10.88014320713284
 20
10.73676781490811
 30
0.0
  0
SPLINE
  5
229
330
1F
100
AcDbEntity
  8
0
  6
Continuous
 62
     7
370
    15
100
AcDbSpline
210
0.0
220
0.0
230
1.0
 70
     8
 71
     3
 72
     8
 73
     4
 74
     0
 42
0.00000001
 43
0.00000001
 40
0.0
 40
0.0
 40
0.0
 40
0.0
 40
1.0
 40
1.0
 40
1.0
 40
1.0
 10
10.82975082482446
 20
10.73358974778202
 30
0.0
 10
10.83619508597471
 20
10.73421030751089
 30
0.0
 10
10.84268974467893
 20
10.73472675103913
 30
0.0
 10
10.84921805346539
 20
10.73516567940336
 30
0.0
  0
SPLINE
  5
22A
330
1F
100
AcDbEntity
  8
0
  6
Continuous
 62
     7
370
    15
100
AcDbSpline
210
0.0
220
0.0
230
1.0
 70
     8
 71
     3
 72
    34
 73
    30
 74
     0
 42
0.00000001
 43
0.00000001
 40
0.0
 40
0.0
 40
0.0
 40
0.0
 40
0.1249999999999989
 40
0.1249999999999989
 40
0.1874999999999987
 40
0.1874999999999987
 40
0.2499999999999985
 40
0.2499999999999985
 40
0.3749999999999981
 40
0.3749999999999981
 40
0.4062499999999982
 40
0.4062499999999982
 40
0.4374999999999982
 40
0.4374999999999982
 40
0.4999999999999987
 40
0.4999999999999987
 40
0.562499999999999
 40
0.562499999999999
 40
0.5937499999999991
 40
0.5937499999999991
 40
0.6249999999999991
 40
0.6249999999999991
 40
0.7500000000000001
 40
0.7500000000000001
 40
0.8125000000000003
 40
0.8125000000000003
 40
0.8750000000000004
 40
0.8750000000000004
 40
1.0
 40
1.0
 40
1.0
 40
1.0
 10
10.35106360341961
 20
10.45721955171131
 30
0.0
 10
10.3631676997887
 20
10.47455902923246
 30
0.0
 10
10.37590522192808
 20
10.49117952361485
 30
0.0
 10
10.39658813876479
 20
10.51527443459414
 30
0.0
 10
10.40374948406828
 20
10.52316557182067
 30
0.0
 10
10.41880954875418
 20
10.53877293527151
 30
0.0
 10
10.42673384666764
 20
10.54651280773176
 30
0.0
 10
10.45188205766138
 20
10.56960191586614
 30
0.0
 10
10.47037048373309
 20
10.58477936258328
 30
0.0
 10
10.49707363691052
 20
10.60432904365043
 30
0.0
 10
10.50259177560532
 20
10.60826102403496
 30
0.0
 10
10.5137658837472
 20
10.61600582579898
 30
0.0
 10
10.51945015550152
 20
10.61983982162014
 30
0.0
 10
10.53680790205232
 20
10.63121848146223
 30
0.0
 10
10.5487739276238
 20
10.63864153753232
 30
0.0
 10
10.57376545064611
 20
10.65307079292102
 30
0.0
 10
10.58623190536528
 20
10.65975141151391
 30
0.0
 10
10.60476918949932
 20
10.66909502119277
 30
0.0
 10
10.61092919229023
 20
10.67209900049988
 30
0.0
 10
10.62321117678641
 20
10.67789711047119
 30
0.0
 10
10.62935861691312
 20
10.68070225252646
 30
0.0
 10
10.65970135724881
 20
10.69407843392523
 30
0.0
 10
10.68206236571933
 20
10.70248397423797
 30
0.0
 10
10.7145516831954
 20
10.71269355607751
 30
0.0
 10
10.72522389047953
 20
10.71568965788965
 30
0.0
 10
10.74628272682626
 20
10.72093234025169
 30
0.0
 10
10.75670166073077
 20
10.72318979633653
 30
0.0
 10
10.78791935743924
 20
10.72905643403051
 30
0.0
 10
10.80868348335869
 20
10.73177712923225
 30
0.0
 10
10.82975082482415
 20
10.73358974778199
 30
0.0
  0
SPLINE
  5
22B
330
1F
100
AcDbEntity
  8
0
  6
Continuous
 62
     7
370
    15
100
AcDbSpline
210
0.0
220
0.0
230
1.0
 70
     8
 71
     3
 72
     8
 73
     4
 74
     0
 42
0.00000001
 43
0.00000001
 40
0.0
 40
0.0
 40
0.0
 40
0.0
 40
1.0
 40
1.0
 40
1.0
 40
1.0
 10
10.33996519221014
 20
10.44114840287719
 30
0.0
 10
10.34360946973992
 20
10.44658261998246
 30
0.0
 10
10.34730405233045
 20
10.45194893767876
 30
0.0
 10
10.35106360341961
 20
10.45721955171132
 30
0.0
  0
SPLINE
  5
22C
330
1F
100
AcDbEntity
  8
0
  6
Continuous
 62
     7
370
    15
100
AcDbSpline
210
0.0
220
0.0
230
1.0
 70
     8
 71
     3
 72
     8
 73
     4
 74
     0
 42
0.00000001
 43
0.00000001
 40
0.0
 40
0.0
 40
0.0
 40
0.0
 40
1.0
 40
1.0
 40
1.0
 40
1.0
 10
10.32311512532941
 20
10.41516750193355
 30
0.0
 10
10.32867380534874
 20
10.42394789125831
 30
0.0
 10
10.33425207112147
 20
10.43262919980022
 30
0.0
 10
10.33996519221014
 20
10.44114840287719
 30
0.0
  0
SPLINE
  5
22D
330
1F
100
AcDbEntity
  8
0
  6
Continuous
 62
     7
370
    15
100
AcDbSpline
210
0.0
220
0.0
230
1.0
 70
     8
 71
     3
 72
     8
 73
     4
 74
     0
 42
0.00000001
 43
0.00000001
 40
0.0
 40
0.0
 40
0.0
 40
0.0
 40
1.0
 40
1.0
 40
1.0
 40
1.0
 10
10.33996519221097
 20
11.42013175276949
 30
0.0
 10
10.33425207112221
 20
11.42865095584528
 30
0.0
 10
10.32867380534945
 20
11.43733226438553
 30
0.0
 10
10.32311512532984
 20
11.44611265370907
 30
0.0
  0
SPLINE
  5
22E
330
1F
100
AcDbEntity
  8
0
  6
Continuous
 62
     7
370
    15
100
AcDbSpline
210
0.0
220
0.0
230
1.0
 70
     8
 71
     3
 72
     8
 73
     4
 74
     0
 42
0.00000001
 43
0.00000001
 40
0.0
 40
0.0
 40
0.0
 40
0.0
 40
1.0
 40
1.0
 40
1.0
 40
1.0
 10
10.35106360335059
 20
11.40406060403521
 30
0.0
 10
10.34730405228555
 20
11.40933121803571
 30
0.0
 10
10.34360946971821
 20
11.41469753569856
 30
0.0
 10
10.33996519221097
 20
11.42013175276949
 30
0.0
  0
SPLINE
  5
22F
330
1F
100
AcDbEntity
  8
0
  6
Continuous
 62
     7
370
    15
100
AcDbSpline
210
0.0
220
0.0
230
1.0
 70
     8
 71
     3
 72
    34
 73
    30
 74
     0
 42
0.00000001
 43
0.00000001
 40
0.0
 40
0.0
 40
0.0
 40
0.0
 40
0.1249999999999994
 40
0.1249999999999994
 40
0.1874999999999989
 40
0.1874999999999989
 40
0.2499999999999985
 40
0.2499999999999985
 40
0.374999999999998
 40
0.374999999999998
 40
0.4062499999999981
 40
0.4062499999999981
 40
0.4374999999999982
 40
0.4374999999999982
 40
0.4999999999999984
 40
0.4999999999999984
 40
0.5624999999999987
 40
0.5624999999999987
 40
0.5937499999999989
 40
0.5937499999999989
 40
0.624999999999999
 40
0.624999999999999
 40
0.7499999999999997
 40
0.7499999999999997
 40
0.8124999999999997
 40
0.8124999999999997
 40
0.8749999999999996
 40
0.8749999999999996
 40
1.0
 40
1.0
 40
1.0
 40
1.0
 10
10.8297508246978
 20
11.12769040786768
 30
0.0
 10
10.80868234849166
 20
11.12950312405261
 30
0.0
 10
10.78791981706343
 20
11.1322238946154
 30
0.0
 10
10.75671155363516
 20
11.13808837053073
 30
0.0
 10
10.74629695568052
 20
11.14034470887558
 30
0.0
 10
10.7252505501031
 20
11.14558342575079
 30
0.0
 10
10.71458547497376
 20
11.14857613282089
 30
0.0
 10
10.68201561528187
 20
11.15881056833402
 30
0.0
 10
10.65962734782443
 20
11.16723329162955
 30
0.0
 10
10.62934525079575
 20
11.18058406010877
 30
0.0
 10
10.62318098654817
 20
11.1833969182078
 30
0.0
 10
10.61088673740234
 20
11.18920157884129
 30
0.0
 10
10.60472426374607
 20
11.19220730467196
 30
0.0
 10
10.58619118198644
 20
11.20155022421634
 30
0.0
 10
10.57377961407033
 20
11.20820157830853
 30
0.0
 10
10.54878775083494
 20
11.22263024443073
 30
0.0
 10
10.53676893806095
 20
11.2300862016162
 30
0.0
 10
10.51940849264903
 20
11.24146815575399
 30
0.0
 10
10.5137269688612
 20
11.24530088500473
 30
0.0
 10
10.50256466608405
 20
11.25303834060163
 30
0.0
 10
10.49706162173963
 20
11.25695960889196
 30
0.0
 10
10.47030613867488
 20
11.27654910214368
 30
0.0
 10
10.45184622299629
 20
11.29171153337698
 30
0.0
 10
10.42675980702326
 20
11.31474331674304
 30
0.0
 10
10.41882900309957
 20
11.32248766845946
 30
0.0
 10
10.40375928881674
 20
11.3381038145288
 30
0.0
 10
10.3965948075471
 20
11.34599814792802
 30
0.0
 10
10.37590530191511
 20
11.37010014747812
 30
0.0
 10
10.36316704779449
 20
11.38672206041119
 30
0.0
 10
10.35106360335034
 20
11.40406060403556
 30
0.0
  0
SPLINE
  5
230
330
1F
100
AcDbEntity
  8
0
  6
Continuous
 62
     7
370
    15
100
AcDbSpline
210
0.0
220
0.0
230
1.0
 70
     8
 71
     3
 72
     8
 73
     4
 74
     0
 42
0.00000001
 43
0.00000001
 40
0.0
 40
0.0
 40
0.0
 40
0.0
 40
1.0
 40
1.0
 40
1.0
 40
1.0
 10
10.84921805346178
 20
11.12611447623561
 30
0.0
 10
10.84268974463375
 20
11.12655340460222
 30
0.0
 10
10.83619508588841
 20
11.12706984813389
 30
0.0
 10
10.82975082469781
 20
11.12769040786769
 30
0.0
  0
SPLINE
  5
231
330
1F
100
AcDbEntity
  8
0
  6
Continuous
 62
     7
370
    15
100
AcDbSpline
210
0.0
220
0.0
230
1.0
 70
     8
 71
     3
 72
     8
 73
     4
 74
     0
 42
0.00000001
 43
0.00000001
 40
0.0
 40
0.0
 40
0.0
 40
0.0
 40
1.0
 40
1.0
 40
1.0
 40
1.0
 10
10.88014320713255
 20
11.12451234073326
 30
0.0
 10
10.86975982691252
 20
11.12493610417912
 30
0.0
 10
10.85945246029076
 20
11.12542636977641
 30
0.0
 10
10.84921805346178
 20
11.12611447623561
 30
0.0
  0
SPLINE
  5
232
330
1F
100
AcDbEntity
  8
0
  6
Continuous
 62
     7
370
    15
100
AcDbSpline
210
0.0
220
0.0
230
1.0
 70
     8
 71
     3
 72
     8
 73
     4
 74
     0
 42
0.00000001
 43
0.00000001
 40
0.0
 40
0.0
 40
0.0
 40
0.0
 40
1.0
 40
1.0
 40
1.0
 40
1.0
 10
10.00139360257265
 20
10.63662280129018
 30
0.0
 10
9.996872316833391
 20
10.62741549175452
 30
0.0
 10
9.992143215985825
 20
10.61824391761612
 30
0.0
 10
9.987318515786333
 20
10.60903976484586
 30
0.0
  0
SPLINE
  5
233
330
1F
100
AcDbEntity
  8
0
  6
Continuous
 62
     7
370
    15
100
AcDbSpline
210
0.0
220
0.0
230
1.0
 70
     8
 71
     3
 72
     8
 73
     4
 74
     0
 42
0.00000001
 43
0.00000001
 40
0.0
 40
0.0
 40
0.0
 40
0.0
 40
1.0
 40
1.0
 40
1.0
 40
1.0
 10
10.00976242007443
 20
10.65426988164524
 30
0.0
 10
10.00707770998907
 20
10.64837870791605
 30
0.0
 10
10.00427763385202
 20
10.64249594672514
 30
0.0
 10
10.00139360257265
 20
10.63662280129018
 30
0.0
  0
SPLINE
  5
234
330
1F
100
AcDbEntity
  8
0
  6
Continuous
 62
     7
370
    15
100
AcDbSpline
210
0.0
220
0.0
230
1.0
 70
     8
 71
     3
 72
    34
 73
    30
 74
     0
 42
0.00000001
 43
0.00000001
 40
0.0
 40
0.0
 40
0.0
 40
0.0
 40
0.1250000000000009
 40
0.1250000000000009
 40
0.1875000000000014
 40
0.1875000000000014
 40
0.2500000000000019
 40
0.2500000000000019
 40
0.3750000000000021
 40
0.3750000000000021
 40
0.4062500000000021
 40
0.4062500000000021
 40
0.4375000000000019
 40
0.4375000000000019
 40
0.5000000000000018
 40
0.5000000000000018
 40
0.5625000000000017
 40
0.5625000000000017
 40
0.5937500000000017
 40
0.5937500000000017
 40
0.6250000000000017
 40
0.6250000000000017
 40
0.7500000000000014
 40
0.7500000000000014
 40
0.8125000000000014
 40
0.8125000000000014
 40
0.8750000000000013
 40
0.8750000000000013
 40
1.0
 40
1.0
 40
1.0
 40
1.0
 10
10.0097624201309
 20
11.20701027388371
 30
0.0
 10
10.01872679996799
 20
11.18785808017768
 30
0.0
 10
10.02675180925688
 20
11.16851681523254
 30
0.0
 10
10.03727715584849
 20
11.13855742833797
 30
0.0
 10
10.04053040849965
 20
11.12840995276663
 30
0.0
 10
10.04651674939121
 20
11.1075638724406
 30
0.0
 10
10.0492575266071
 20
11.09683129291028
 30
0.0
 10
10.05667917530531
 20
11.06350774926281
 30
0.0
 10
10.06057901669106
 20
11.03990757925017
 30
0.0
 10
10.06415796054237
 20
11.00700712970383
 30
0.0
 10
10.06480408609516
 20
11.00026229122027
 30
0.0
 10
10.06592422709913
 20
10.98671282882277
 30
0.0
 10
10.06640242900109
 20
10.97987310717094
 30
0.0
 10
10.06757776420996
 20
10.95915152778447
 30
0.0
 10
10.06802330655463
 20
10.94507711762222
 30
0.0
 10
10.06802364676777
 20
10.91621919611134
 30
0.0
 10
10.06757600482263
 20
10.90208262033296
 30
0.0
 10
10.06639916610055
 20
10.88135705651631
 30
0.0
 10
10.06592068709749
 20
10.87452034795846
 30
0.0
 10
10.0648010053785
 20
10.86098478239024
 30
0.0
 10
10.06415660959623
 20
10.85425837204465
 30
0.0
 10
10.06056935232536
 20
10.82129269739414
 30
0.0
 10
10.05666825953347
 20
10.79772472584809
 30
0.0
 10
10.0492653580305
 20
10.76448336064247
 30
0.0
 10
10.04652395467008
 20
10.7537429071139
 30
0.0
 10
10.04053483260623
 20
10.7328840786825
 30
0.0
 10
10.03728037997137
 20
10.72273228919843
 30
0.0
 10
10.02675218889495
 20
10.6927636519543
 30
0.0
 10
10.0187263170959
 20
10.67342104381983
 30
0.0
 10
10.00976242007464
 20
10.65426988164569
 30
0.0
  0
SPLINE
  5
235
330
1F
100
AcDbEntity
  8
0
  6
Continuous
 62
     7
370
    15
100
AcDbSpline
210
0.0
220
0.0
230
1.0
 70
     8
 71
     3
 72
     8
 73
     4
 74
     0
 42
0.00000001
 43
0.00000001
 40
0.0
 40
0.0
 40
0.0
 40
0.0
 40
1.0
 40
1.0
 40
1.0
 40
1.0
 10
10.0013936025771
 20
11.22465735435023
 30
0.0
 10
10.00427763387512
 20
11.21878420887823
 30
0.0
 10
10.00707771002968
 20
11.21290144765016
 30
0.0
 10
10.0097624201309
 20
11.20701027388371
 30
0.0
  0
SPLINE
  5
236
330
1F
100
AcDbEntity
  8
0
  6
Continuous
 62
     7
370
    15
100
AcDbSpline
210
0.0
220
0.0
230
1.0
 70
     8
 71
     3
 72
     8
 73
     4
 74
     0
 42
0.00000001
 43
0.00000001
 40
0.0
 40
0.0
 40
0.0
 40
0.0
 40
1.0
 40
1.0
 40
1.0
 40
1.0
 10
9.987318515787054
 20
11.25224039079623
 30
0.0
 10
9.992143215987753
 20
11.2430362380256
 30
0.0
 10
9.996872316836775
 20
11.2338646638864
 30
0.0
 10
10.0013936025771
 20
11.22465735435023
 30
0.0
  0
CIRCLE
  5
237
330
1F
100
AcDbEntity
  8
0
  6
Continuous
 62
     7
370
    15
100
AcDbCircle
 10
10.3968589494
 20
10.9306400778
 30
0.0
 40
0.1300000000000008
  0
CIRCLE
  5
238
330
1F
100
AcDbEntity
  8
0
  6
Continuous
 62
     7
370
    15
100
AcDbCircle
 10
10.3968589494
 20
10.9306400778
 30
0.0
 40
0.0899999999999999
  0
ARC
  5
239
330
1F
100
AcDbEntity
  8
0
  6
Continuous
 62
   144
370
     0
100
AcDbCircle
 10
10.8472464397
 20
10.7566220466
 30
0.0
 40
0.0289237502177878
100
AcDbArc
 50
232.7792533569
 51
273.22021659
  0
ARC
  5
23A
330
1F
100
AcDbEntity
  8
0
  6
Continuous
 62
   144
370
     0
100
AcDbCircle
 10
10.3223461766
 20
10.4535856515
 30
0.0
 40
0.028946430376091
100
AcDbArc
 50
327.0851077731
 51
7.2118720914
  0
ARC
  5
23B
330
1F
100
AcDbEntity
  8
0
  6
Continuous
 62
   144
370
     0
100
AcDbCircle
 10
10.0209740836
 20
11.2336972451
 30
0.0
 40
0.0289464303760571
100
AcDbArc
 50
207.085107773
 51
247.2118720913
  0
ARC
  5
23C
330
1F
100
AcDbEntity
  8
0
  6
Continuous
 62
   144
370
     0
100
AcDbCircle
 10
10.3223692401
 20
11.4076961016
 30
0.0
 40
0.0289237502177899
100
AcDbArc
 50
352.7792533569
 51
33.22021659
  0
ARC
  5
23D
330
1F
100
AcDbEntity
  8
0
  6
Continuous
 62
   144
370
     0
100
AcDbCircle
 10
10.847256588
 20
11.1046373369
 30
0.0
 40
0.0289464303760633
100
AcDbArc
 50
87.085107773
 51
127.2118720913
  0
LWPOLYLINE
  5
23E
330
1F
100
AcDbEntity
  8
0
  6
Continuous
 62
   144
370
     0
100
AcDbPolyline
 90
        3
 70
   128
 43
0.0
 10
10.8297508248
 20
10.7335897478
 10
10.839474954
 20
10.7288320942
 10
10.8494240959
 20
10.7277856144
  0
LWPOLYLINE
  5
23F
330
1F
100
AcDbEntity
  8
0
  6
Continuous
 62
   144
370
     0
100
AcDbPolyline
 90
        3
 70
   128
 43
0.0
 10
10.3510636034
 20
11.404060604
 10
10.3503217877
 20
11.4148607737
 10
10.3462534948
 20
11.4240002233
  0
LWPOLYLINE
  5
240
330
1F
100
AcDbEntity
  8
0
  6
Continuous
 62
   144
370
     0
100
AcDbPolyline
 90
        3
 70
   128
 43
0.0
 10
10.3463755482
 20
10.437457642
 10
10.3503217877
 20
10.446419382
 10
10.3510636034
 20
10.4572195517
  0
LWPOLYLINE
  5
241
330
1F
100
AcDbEntity
  8
0
  6
Continuous
 62
   144
370
     0
100
AcDbPolyline
 90
        3
 70
   128
 43
0.0
 10
9.9949921319
 20
11.2209512036
 10
10.0007801067
 20
11.2130527899
 10
10.0097624201
 20
11.2070102739
  0
LWPOLYLINE
  5
242
330
1F
100
AcDbEntity
  8
0
  6
Continuous
 62
   144
370
     0
100
AcDbPolyline
 90
        3
 70
   128
 43
0.0
 10
10.8492091681
 20
11.1335113878
 10
10.8394749538
 20
11.1324480615
 10
10.8297508247
 20
11.1276904079
  0
CIRCLE
  5
243
330
1F
100
AcDbEntity
  8
0
  6
Continuous
 62
     7
370
    15
100
AcDbCircle
 10
10.3968589494
 20
10.9306400778
 30
0.0
 40
2.589999999999997
  0
CIRCLE
  5
244
330
1F
100
AcDbEntity
  8
0
  6
Continuous
 62
     7
370
    15
100
AcDbCircle
 10
10.3968589494
 20
10.9306400778
 30
0.0
 40
2.529410345648881
  0
ARC
  5
245
330
1F
100
AcDbEntity
  8
0
  6
Continuous
 62
   144
370
     0
100
AcDbCircle
 10
10.3968589494
 20
10.9306400778
 30
0.0
 40
0.3499999999999988
100
AcDbArc
 50
286.2935028337
 51
314.4427815546
  0
ARC
  5
246
330
1F
100
AcDbEntity
  8
0
  6
Continuous
 62
   144
370
     0
100
AcDbCircle
 10
10.3968589494
 20
10.9306400778
 30
0.0
 40
0.3500000000000012
100
AcDbArc
 50
45.9926881657
 51
73.5263023683
  0
ARC
  5
247
330
1F
100
AcDbEntity
  8
0
  6
Continuous
 62
   144
370
     0
100
AcDbCircle
 10
10.3968589494
 20
10.9306400778
 30
0.0
 40
0.3500000000000008
100
AcDbArc
 50
165.6009525046
 51
194.4400046903
  0
ARC
  5
248
330
1F
100
AcDbEntity
  8
0
  6
Continuous
 62
   144
370
     0
100
AcDbCircle
 10
10.3968589494
 20
10.9306400778
 30
0.0
 40
0.6012461167317006
100
AcDbArc
 50
259.1761643043
 51
340.8238356958
  0
ARC
  5
249
330
1F
100
AcDbEntity
  8
0
  6
Continuous
 62
   144
370
     0
100
AcDbCircle
 10
10.3968589494
 20
10.9306400778
 30
0.0
 40
0.6012461167317007
100
AcDbArc
 50
19.1761643043
 51
100.8238356957
  0
ARC
  5
24A
330
1F
100
AcDbEntity
  8
0
  6
Continuous
 62
   144
370
     0
100
AcDbCircle
 10
10.3968589494
 20
10.9306400778
 30
0.0
 40
0.6012461167317017
100
AcDbArc
 50
139.1761643043
 51
220.8238356957
  0
LINE
  5
24B
330
1F
100
AcDbEntity
  8
0
  6
Continuous
 62
     8
370
    15
100
AcDbLine
 10
9.2185552499
 20
8.7803640861
 30
0.0
 11
9.2135552499
 21
8.771703832
 31
0.0
  0
LINE
  5
24C
330
1F
100
AcDbEntity
  8
0
  6
Continuous
 62
     8
370
    15
100
AcDbLine
 10
9.1188171652
 20
8.8264008908
 30
0.0
 11
9.1238171652
 21
8.8350611448
 31
0.0
  0
LINE
  5
24D
330
1F
100
AcDbEntity
  8
0
  6
Continuous
 62
     8
370
    15
100
AcDbLine
 10
9.2135552499
 20
13.0895763236
 30
0.0
 11
9.2185552499
 21
13.0809160696
 31
0.0
  0
LINE
  5
24E
330
1F
100
AcDbEntity
  8
0
  6
Continuous
 62
     8
370
    15
100
AcDbLine
 10
9.1188171652
 20
13.0348792649
 30
0.0
 11
9.1238171652
 21
13.0262190108
 31
0.0
  0
ARC
  5
24F
330
1F
100
AcDbEntity
  8
0
  6
Continuous
 62
     8
370
    15
100
AcDbCircle
 10
9.2554997616
 20
8.8300044819
 30
0.0
 40
0.0599388422547241
100
AcDbArc
 50
298.2909746132
 51
356.6192234709
  0
ARC
  5
250
330
1F
100
AcDbEntity
  8
0
  6
Continuous
 62
     8
370
    15
100
AcDbCircle
 10
9.1483347532
 20
8.8918762284
 30
0.0
 40
0.059938842254711
100
AcDbArc
 50
123.3807765294
 51
181.709025387
  0
ARC
  5
251
330
1F
100
AcDbEntity
  8
0
  6
Continuous
 62
     8
370
    15
100
AcDbCircle
 10
12.7867423335
 20
10.8687683314
 30
0.0
 40
0.0599388422547216
100
AcDbArc
 50
243.3807765292
 51
301.7090253869
  0
ARC
  5
252
330
1F
100
AcDbEntity
  8
0
  6
Continuous
 62
     8
370
    15
100
AcDbCircle
 10
12.7867423335
 20
10.9925118242
 30
0.0
 40
0.0599388422547121
100
AcDbArc
 50
58.2909746131
 51
116.6192234708
  0
ARC
  5
253
330
1F
100
AcDbEntity
  8
0
  6
Continuous
 62
     8
370
    15
100
AcDbCircle
 10
9.1483347532
 20
12.9694039273
 30
0.0
 40
0.0599388422547155
100
AcDbArc
 50
178.2909746131
 51
236.6192234708
  0
ARC
  5
254
330
1F
100
AcDbEntity
  8
0
  6
Continuous
 62
     8
370
    15
100
AcDbCircle
 10
9.2554997616
 20
13.0312756737
 30
0.0
 40
0.0599388422547119
100
AcDbArc
 50
3.3807765291
 51
61.7090253868
  0
ARC
  5
255
330
1F
100
AcDbEntity
  8
0
  6
Continuous
 62
     8
370
    15
100
AcDbCircle
 10
9.2559406863
 20
8.830164796
 30
0.0
 40
0.0599540065378246
100
AcDbArc
 50
295.2689932229
 51
356.6404687312
  0
ARC
  5
256
330
1F
100
AcDbEntity
  8
0
  6
Continuous
 62
     8
370
    15
100
AcDbCircle
 10
12.7863835447
 20
10.9928207259
 30
0.0
 40
0.0599477935487367
100
AcDbArc
 50
55.2654693514
 51
116.6439926027
  0
ARC
  5
257
330
1F
100
AcDbEntity
  8
0
  6
Continuous
 62
     8
370
    15
100
AcDbCircle
 10
9.1482531269
 20
12.9689419182
 30
0.0
 40
0.0599540065378058
100
AcDbArc
 50
175.2689932228
 51
236.6404687312
  0
LWPOLYLINE
  5
258
330
1F
100
AcDbEntity
  8
0
  6
Continuous
 62
     8
370
    15
100
AcDbPolyline
 90
        3
 70
   128
 43
0.0
 10
9.1485970255
 20
9.0248719462
 10
9.1538410714
 20
9.0312567102
 10
9.1629984574
 20
9.0369523828
  0
LWPOLYLINE
  5
259
330
1F
100
AcDbEntity
  8
0
  6
Continuous
 62
     8
370
    15
100
AcDbPolyline
 90
        3
 70
   128
 43
0.0
 10
9.3706081676
 20
8.896839468
 10
9.3734536405
 20
8.9044633343
 10
9.3738075447
 20
8.9152416995
  0
LWPOLYLINE
  5
25A
330
1F
100
AcDbEntity
  8
0
  6
Continuous
 62
     8
370
    15
100
AcDbPolyline
 90
        3
 70
   128
 43
0.0
 10
12.6714335271
 20
10.802497607
 10
12.6632821363
 20
10.8038467019
 10
12.6537708461
 20
10.8089293945
  0
LWPOLYLINE
  5
25B
330
1F
100
AcDbEntity
  8
0
  6
Continuous
 62
     8
370
    15
100
AcDbPolyline
 90
        3
 70
   128
 43
0.0
 10
12.6537708461
 20
11.0523507611
 10
12.6632821363
 20
11.0574334537
 10
12.6712986128
 20
11.058781015
  0
LWPOLYLINE
  5
25C
330
1F
100
AcDbEntity
  8
0
  6
Continuous
 62
     8
370
    15
100
AcDbPolyline
 90
        3
 70
   128
 43
0.0
 10
9.148661346
 20
12.8362996304
 10
9.1538410714
 20
12.8300234455
 10
9.1629984574
 20
12.8243277728
  0
LWPOLYLINE
  5
25D
330
1F
100
AcDbEntity
  8
0
  6
Continuous
 62
     8
370
    15
100
AcDbPolyline
 90
        3
 70
   128
 43
0.0
 10
9.3738075447
 20
12.9460384561
 10
9.3734536405
 20
12.9568168213
 10
9.3705501831
 20
12.9645438056
  0
LWPOLYLINE
  5
25E
330
1F
100
AcDbEntity
  8
0
  6
Continuous
 62
     8
370
    15
100
AcDbPolyline
 90
        3
 70
   128
 43
0.0
 10
9.3776339477
 20
8.9084926741
 10
9.3810239771
 20
8.9169536391
 10
9.3814960207
 20
8.9278031808
  0
ARC
  5
25F
330
1F
100
AcDbEntity
  8
0
  6
Continuous
 62
     8
370
    15
100
AcDbCircle
 10
9.1810492887
 20
9.0224364563
 30
0.0
 40
0.02958284974125
100
AcDbArc
 50
111.8634034977
 51
150.5382166674
  0
LWPOLYLINE
  5
260
330
1F
100
AcDbEntity
  8
0
  6
Continuous
 62
     8
370
    15
100
AcDbPolyline
 90
        3
 70
   128
 43
0.0
 10
12.6390480462
 20
11.052728436
 10
12.6486800468
 20
11.0577444052
 10
12.6577006268
 20
11.0590390881
  0
LWPOLYLINE
  5
261
330
1F
100
AcDbEntity
  8
0
  6
Continuous
 62
     8
370
    15
100
AcDbPolyline
 90
        3
 70
   128
 43
0.0
 10
12.6575849008
 20
10.8022380623
 10
12.6486800468
 20
10.8035357505
 10
12.6390480462
 20
10.8085517196
  0
LWPOLYLINE
  5
262
330
1F
100
AcDbEntity
  8
0
  6
Continuous
 62
     8
370
    15
100
AcDbPolyline
 90
        3
 70
   128
 43
0.0
 10
9.1552404285
 20
12.8243885233
 10
9.1608728243
 20
12.8172221893
 10
9.1700327813
 20
12.8113886167
  0
LWPOLYLINE
  5
263
330
1F
100
AcDbEntity
  8
0
  6
Continuous
 62
     8
370
    15
100
AcDbPolyline
 90
        3
 70
   128
 43
0.0
 10
9.3814960207
 20
12.9334769749
 10
9.3810239771
 20
12.9443265166
 10
9.3776947848
 20
12.9526881689
  0
LWPOLYLINE
  5
264
330
1F
100
AcDbEntity
  8
0
  6
Continuous
 62
     8
370
    15
100
AcDbPolyline
 90
        3
 70
   128
 43
0.0
 10
10.3190780267
 20
10.3955766488
 10
10.3226430817
 20
10.4043179602
 10
10.3231151253
 20
10.4151675019
  0
LWPOLYLINE
  5
265
330
1F
100
AcDbEntity
  8
0
  6
Continuous
 62
     8
370
    15
100
AcDbPolyline
 90
        3
 70
   128
 43
0.0
 10
10.899127933
 20
10.7304686183
 10
10.8897752077
 20
10.7317518458
 10
10.8801432071
 20
10.7367678149
  0
LWPOLYLINE
  5
266
330
1F
100
AcDbEntity
  8
0
  6
Continuous
 62
     8
370
    15
100
AcDbPolyline
 90
        3
 70
   128
 43
0.0
 10
9.9723708886
 20
11.2655320474
 10
9.9781585588
 20
11.2580739634
 10
9.9873185158
 20
11.2522403908
  0
ARC
  5
267
330
1F
100
AcDbEntity
  8
0
  6
Continuous
 62
     8
370
    15
100
AcDbCircle
 10
9.9982976687
 20
10.5816419661
 30
0.0
 40
0.0295157784248712
100
AcDbArc
 50
111.8375167254
 51
151.4504435086
  0
LWPOLYLINE
  5
268
330
1F
100
AcDbEntity
  8
0
  6
Continuous
 62
     8
370
    15
100
AcDbPolyline
 90
        3
 70
   128
 43
0.0
 10
10.3231151253
 20
11.4461126537
 10
10.3226430817
 20
11.4569621954
 10
10.3190780267
 20
11.4657035069
  0
LWPOLYLINE
  5
269
330
1F
100
AcDbEntity
  8
0
  6
Continuous
 62
     8
370
    15
100
AcDbPolyline
 90
        3
 70
   128
 43
0.0
 10
10.8801432071
 20
11.1245123407
 10
10.8897752077
 20
11.1295283098
 10
10.899127933
 20
11.1308115373
  0
LWPOLYLINE
  5
26A
330
1F
100
AcDbEntity
  8
0
  6
Continuous
 62
     8
370
    15
100
AcDbPolyline
 90
        3
 70
   128
 43
0.0
 10
10.8492180535
 20
11.1261144762
 10
10.8588811108
 20
11.13103313
 10
10.8686002625
 20
11.1322224422
  0
LWPOLYLINE
  5
26B
330
1F
100
AcDbEntity
  8
0
  6
Continuous
 62
     8
370
    15
100
AcDbPolyline
 90
        3
 70
   128
 43
0.0
 10
10.3355667363
 20
10.4213134496
 10
10.3393933427
 20
10.4303206229
 10
10.3399651922
 20
10.4411484029
  0
LWPOLYLINE
  5
26C
330
1F
100
AcDbEntity
  8
0
  6
Continuous
 62
     8
370
    15
100
AcDbPolyline
 90
        3
 70
   128
 43
0.0
 10
9.9864152572
 20
11.2383840055
 10
9.9923023948
 20
11.2305664805
 10
10.0013936026
 20
11.2246573544
  0
LWPOLYLINE
  5
26D
330
1F
100
AcDbEntity
  8
0
  6
Continuous
 62
     8
370
    15
100
AcDbPolyline
 90
        3
 70
   128
 43
0.0
 10
10.8687038435
 20
10.7290643661
 10
10.8588811108
 20
10.7302470256
 10
10.8492180535
 20
10.7351656794
  0
LWPOLYLINE
  5
26E
330
1F
100
AcDbEntity
  8
0
  6
Continuous
 62
     8
370
    15
100
AcDbPolyline
 90
        3
 70
   128
 43
0.0
 10
10.3399651922
 20
11.4201317528
 10
10.3393933427
 20
11.4309595328
 10
10.3355004978
 20
11.4400661011
  0
LWPOLYLINE
  5
26F
330
1F
100
AcDbEntity
  8
0
  6
Continuous
 62
     8
370
    15
100
AcDbPolyline
 90
        3
 70
   128
 43
0.0
 10
9.9863668152
 20
10.6227982687
 10
9.9923023948
 20
10.6307136751
 10
10.0013936026
 20
10.6366228013
  0
ARC
  5
270
330
1F
100
AcDbEntity
  8
0
  6
Continuous
 62
     8
370
    15
100
AcDbCircle
 10
10.0209611685
 20
10.6276020853
 30
0.0
 40
0.0289237502177654
100
AcDbArc
 50
112.7792533569
 51
153.22021659
  0
LWPOLYLINE
  5
271
330
1F
100
AcDbEntity
  8
0
  6
Continuous
 62
     8
370
    15
100
AcDbPolyline
 90
        3
 70
   128
 43
0.0
 10
10.0097624201
 20
10.6542698816
 10
10.0007801066
 20
10.6482273656
 10
9.9948992575
 20
10.6401343958
  0
ARC
  5
272
330
1F
100
AcDbEntity
  8
0
  6
Continuous
 62
     8
370
    15
100
AcDbCircle
 10
10.3968589494
 20
10.9306400778
 30
0.0
 40
2.106253765094765
100
AcDbArc
 50
247.8692715363
 51
356.3282092911
  0
ARC
  5
273
330
1F
100
AcDbEntity
  8
0
  6
Continuous
 62
     8
370
    15
100
AcDbCircle
 10
10.3968589494
 20
10.9306400778
 30
0.0
 40
2.106253765094765
100
AcDbArc
 50
3.6717907089
 51
116.3282092911
  0
ARC
  5
274
330
1F
100
AcDbEntity
  8
0
  6
Continuous
 62
     8
370
    15
100
AcDbCircle
 10
10.3968589494
 20
10.9306400778
 30
0.0
 40
2.106253765094767
100
AcDbArc
 50
123.6717907089
 51
236.3282092911
  0
LWPOLYLINE
  5
275
330
1F
100
AcDbEntity
  8
0
  6
Continuous
 62
     8
370
    15
100
AcDbPolyline
 90
        3
 70
   128
 43
0.0
 10
9.4627090391
 20
9.0428718537
 10
9.4912859385
 20
9.0289980387
 10
9.6033886757
 20
8.9795609283
  0
ARC
  5
276
330
1F
100
AcDbEntity
  8
0
  6
Continuous
 62
     8
370
    15
100
AcDbCircle
 10
10.3968589494
 20
10.9306400778
 30
0.0
 40
0.3760514018691817
100
AcDbArc
 50
277.8953767433
 51
321.7528914486
  0
ARC
  5
277
330
1F
100
AcDbEntity
  8
0
  6
Continuous
 62
     8
370
    15
100
AcDbCircle
 10
10.3968589494
 20
10.9306400778
 30
0.0
 40
0.376051401869184
100
AcDbArc
 50
38.4033613065
 51
81.6587519981
  0
ARC
  5
278
330
1F
100
AcDbEntity
  8
0
  6
Continuous
 62
     8
370
    15
100
AcDbCircle
 10
10.3968589494
 20
10.9306400778
 30
0.0
 40
0.3760514018691838
100
AcDbArc
 50
158.3320849363
 51
202.1452647518
  0
ARC
  5
279
330
1F
100
AcDbEntity
  8
0
  6
Continuous
 62
     8
370
    15
100
AcDbCircle
 10
10.3968589494
 20
10.9306400778
 30
0.0
 40
0.4576292861057687
100
AcDbArc
 50
267.220355702
 51
333.0844861067
  0
ARC
  5
27A
330
1F
100
AcDbEntity
  8
0
  6
Continuous
 62
     8
370
    15
100
AcDbCircle
 10
10.3968589494
 20
10.9306400778
 30
0.0
 40
0.4576292861057713
100
AcDbArc
 50
27.1025651892
 51
92.7901559038
  0
ARC
  5
27B
330
1F
100
AcDbEntity
  8
0
  6
Continuous
 62
     8
370
    15
100
AcDbCircle
 10
10.3968589494
 20
10.9306400778
 30
0.0
 40
0.4576292861057694
100
AcDbArc
 50
147.1923704413
 51
213.0019030569
  0
ARC
  5
27C
330
1F
100
AcDbEntity
  8
0
  6
Continuous
 62
     8
370
    15
100
AcDbCircle
 10
10.3968589494
 20
10.9306400778
 30
0.0
 40
0.5403213793646321
100
AcDbArc
 50
261.8188005388
 51
338.1598387905
  0
ARC
  5
27D
330
1F
100
AcDbEntity
  8
0
  6
Continuous
 62
     8
370
    15
100
AcDbCircle
 10
10.3968589494
 20
10.9306400778
 30
0.0
 40
0.5403213793646348
100
AcDbArc
 50
21.9146101848
 51
98.1573268635
  0
ARC
  5
27E
330
1F
100
AcDbEntity
  8
0
  6
Continuous
 62
     8
370
    15
100
AcDbCircle
 10
10.3968589494
 20
10.9306400778
 30
0.0
 40
0.5403213793646348
100
AcDbArc
 50
141.941543512
 51
218.0808271366
  0
ARC
  5
27F
330
1F
100
AcDbEntity
  8
0
  6
Continuous
 62
     8
370
    15
100
AcDbCircle
 10
10.3968589494
 20
10.9306400778
 30
0.0
 40
2.079772266535257
100
AcDbArc
 50
247.8692715363
 51
356.2514123506
  0
ARC
  5
280
330
1F
100
AcDbEntity
  8
0
  6
Continuous
 62
     8
370
    15
100
AcDbCircle
 10
10.3968589494
 20
10.9306400778
 30
0.0
 40
2.079772266535258
100
AcDbArc
 50
3.7485876494
 51
116.2514123506
  0
ARC
  5
281
330
1F
100
AcDbEntity
  8
0
  6
Continuous
 62
     8
370
    15
100
AcDbCircle
 10
10.3968589494
 20
10.9306400778
 30
0.0
 40
2.079772266535257
100
AcDbArc
 50
123.7485876494
 51
236.2514123506
  0
LWPOLYLINE
  5
282
330
1F
100
AcDbEntity
  8
0
  6
Continuous
 62
     8
370
    15
100
AcDbPolyline
 90
        3
 70
   128
 43
0.0
 10
9.4769532182
 20
9.0653716986
 10
9.5026715231
 20
9.0529069958
 10
9.6133648155
 20
9.0040914481
  0
ARC
  5
283
330
1F
100
AcDbEntity
  8
0
  6
Continuous
 62
     8
370
    15
100
AcDbCircle
 10
10.3968589494
 20
10.9306400778
 30
0.0
 40
0.581217705177674
100
AcDbArc
 50
259.956537099
 51
340.043462901
  0
ARC
  5
284
330
1F
100
AcDbEntity
  8
0
  6
Continuous
 62
     8
370
    15
100
AcDbCircle
 10
10.3968589494
 20
10.9306400778
 30
0.0
 40
0.5812177051776761
100
AcDbArc
 50
19.956537099
 51
100.043462901
  0
ARC
  5
285
330
1F
100
AcDbEntity
  8
0
  6
Continuous
 62
     8
370
    15
100
AcDbCircle
 10
10.3968589494
 20
10.9306400778
 30
0.0
 40
0.5812177051776739
100
AcDbArc
 50
139.956537099
 51
220.043462901
  0
DIMENSION
  5
286
330
1F
100
AcDbEntity
  8
0
  6
Continuous
 62
     7
370
     0
100
AcDbDimension
  2
*D5
 10
14.5868589494
 20
8.3406400778
 30
0.0
 11
14.5868589494
 21
10.8291375329
 31
0.0
 70
   160
  1
%%c<>
 71
     2
 42
-1.0
  3
SLDDIMSTYLE0
100
AcDbAlignedDimension
 13
10.3968589494
 23
13.5206400778
 33
0.0
 14
10.3968589494
 24
8.3406400778
 34
0.0
 50
90.0
100
AcDbRotatedDimension
  0
ENDSEC
  0
SECTION
  2
OBJECTS
  0
DICTIONARY
  5
C
330
0
100
AcDbDictionary
281
     1
  3
ACAD_GROUP
350
D
  3
ACAD_LAYOUT
350
1A
  3
ACAD_MLINESTYLE
350
17
  3
ACAD_PLOTSETTINGS
350
19
  3
ACAD_PLOTSTYLENAME
350
E
  0
DICTIONARY
  5
D
102
{ACAD_REACTORS
330
C
102
}
330
C
100
AcDbDictionary
281
     1
  0
DICTIONARY
  5
1A
102
{ACAD_REACTORS
330
C
102
}
330
C
100
AcDbDictionary
281
     1
  3
Layout1
350
1E
  3
Layout2
350
26
  3
Model
350
22
  0
DICTIONARY
  5
17
102
{ACAD_REACTORS
330
C
102
}
330
C
100
AcDbDictionary
281
     1
  3
Standard
350
18
  0
DICTIONARY
  5
19
102
{ACAD_REACTORS
330
C
102
}
330
C
100
AcDbDictionary
281
     1
  0
ACDBDICTIONARYWDFLT
  5
E
102
{ACAD_REACTORS
330
C
102
}
330
C
100
AcDbDictionary
281
     1
  3
Normal
350
F
100
AcDbDictionaryWithDefault
340
F
  0
LAYOUT
  5
1E
102
{ACAD_REACTORS
330
1A
102
}
330
1A
100
AcDbPlotSettings
  1

  2
none_device
  4

  6

 40
0.0
 41
0.0
 42
0.0
 43
0.0
 44
0.0
 45
0.0
 46
0.0
 47
0.0
 48
0.0
 49
0.0
140
0.0
141
0.0
142
1.0
143
1.0
 70
   688
 72
     0
 73
     0
 74
     5
  7

 75
    16
147
1.0
148
0.0
149
0.0
100
AcDbLayout
  1
Layout1
 70
     1
 71
     1
 10
0.0
 20
0.0
 11
420.0
 21
297.0
 12
0.0
 22
0.0
 32
0.0
 14
1.0000000000E+20
 24
1.0000000000E+20
 34
1.0000000000E+20
 15
-1.0000000000E+20
 25
-1.0000000000E+20
 35
-1.0000000000E+20
146
0.0
 13
0.0
 23
0.0
 33
0.0
 16
1.0
 26
0.0
 36
0.0
 17
0.0
 27
1.0
 37
0.0
 76
     0
330
1B
  0
LAYOUT
  5
26
102
{ACAD_REACTORS
330
1A
102
}
330
1A
100
AcDbPlotSettings
  1

  2
none_device
  4

  6

 40
0.0
 41
0.0
 42
0.0
 43
0.0
 44
0.0
 45
0.0
 46
0.0
 47
0.0
 48
0.0
 49
0.0
140
0.0
141
0.0
142
1.0
143
1.0
 70
   688
 72
     0
 73
     0
 74
     5
  7

 75
    16
147
1.0
148
0.0
149
0.0
100
AcDbLayout
  1
Layout2
 70
     1
 71
     2
 10
0.0
 20
0.0
 11
0.0
 21
0.0
 12
0.0
 22
0.0
 32
0.0
 14
0.0
 24
0.0
 34
0.0
 15
0.0
 25
0.0
 35
0.0
146
0.0
 13
0.0
 23
0.0
 33
0.0
 16
1.0
 26
0.0
 36
0.0
 17
0.0
 27
1.0
 37
0.0
 76
     0
330
23
  0
LAYOUT
  5
22
102
{ACAD_REACTORS
330
1A
102
}
330
1A
100
AcDbPlotSettings
  1

  2
none_device
  4

  6

 40
0.0
 41
0.0
 42
0.0
 43
0.0
 44
0.0
 45
0.0
 46
0.0
 47
0.0
 48
0.0
 49
0.0
140
0.0
141
0.0
142
1.0
143
1.0
 70
  1712
 72
     0
 73
     0
 74
     0
  7

 75
     0
147
1.0
148
0.0
149
0.0
100
AcDbLayout
  1
Model
 70
     1
 71
     0
 10
0.0
 20
0.0
 11
21.0
 21
29.7
 12
0.0
 22
0.0
 32
0.0
 14
0.0
 24
0.0
 34
0.0
 15
21.0
 25
29.7
 35
0.0
146
0.0
 13
0.0
 23
0.0
 33
0.0
 16
1.0
 26
0.0
 36
0.0
 17
0.0
 27
1.0
 37
0.0
 76
     0
330
1F
331
29
  0
MLINESTYLE
  5
18
102
{ACAD_REACTORS
330
17
102
}
330
17
100
AcDbMlineStyle
  2
Standard
 70
     0
  3

 62
   256
 51
90.0
 52
90.0
 71
     2
 49
0.5
 62
   256
  6
BYLAYER
 49
-0.5
 62
   256
  6
BYLAYER
  0
ACDBPLACEHOLDER
  5
F
102
{ACAD_REACTORS
330
E
102
}
330
E
  0
ENDSEC
  0
EOF
