  0
SECTION
  2
HEADER
  9
$ACADVER
  1
AC1015
  9
$ACADMAINTVER
 70
     6
  9
$DWGCODEPAGE
  3
ANSI_1252
  9
$INSBASE
 10
0.0
 20
0.0
 30
0.0
  9
$EXTMIN
 10
0.0
 20
0.0
 30
0.0
  9
$EXTMAX
 10
21.0
 20
29.7
 30
0.0
  9
$LIMMIN
 10
0.0
 20
0.0
  9
$LIMMAX
 10
21.0
 20
29.7
  9
$ORTHOMODE
 70
     0
  9
$REGENMODE
 70
     1
  9
$FILLMODE
 70
     1
  9
$QTEXTMODE
 70
     0
  9
$MIRRTEXT
 70
     1
  9
$LTSCALE
 40
1.0
  9
$ATTMODE
 70
     1
  9
$TEXTSIZE
 40
0.35
  9
$TRACEWID
 40
1.0
  9
$TEXTSTYLE
  7
Standard
  9
$CLAYER
  8
0
  9
$CELTYPE
  6
ByLayer
  9
$CECOLOR
 62
   256
  9
$CELTSCALE
 40
1.0
  9
$DISPSILH
 70
     0
  9
$DIMSCALE
 40
1.0
  9
$DIMASZ
 40
0.3556
  9
$DIMEXO
 40
0.1
  9
$DIMDLI
 40
3.75
  9
$DIMRND
 40
0.0
  9
$DIMDLE
 40
0.0
  9
$DIMEXE
 40
0.1
  9
$DIMTP
 40
0.0
  9
$DIMTM
 40
0.0
  9
$DIMTXT
 40
0.35
  9
$DIMCEN
 40
2.5
  9
$DIMTSZ
 40
0.0
  9
$DIMTOL
 70
     0
  9
$DIMLIM
 70
     0
  9
$DIMTIH
 70
     1
  9
$DIMTOH
 70
     1
  9
$DIMSE1
 70
     0
  9
$DIMSE2
 70
     0
  9
$DIMTAD
 70
     1
  9
$DIMZIN
 70
     0
  9
$DIMBLK
  1

  9
$DIMASO
 70
     1
  9
$DIMSHO
 70
     1
  9
$DIMPOST
  1

  9
$DIMAPOST
  1

  9
$DIMALT
 70
     0
  9
$DIMALTD
 70
     3
  9
$DIMALTF
 40
0.3937007874
  9
$DIMLFAC
 40
20.0
  9
$DIMTOFL
 70
     1
  9
$DIMTVP
 40
0.0
  9
$DIMTIX
 70
     0
  9
$DIMSOXD
 70
     0
  9
$DIMSAH
 70
     0
  9
$DIMBLK1
  1

  9
$DIMBLK2
  1

  9
$DIMSTYLE
  2
ISO-25
  9
$DIMCLRD
 70
     0
  9
$DIMCLRE
 70
     0
  9
$DIMCLRT
 70
     0
  9
$DIMTFAC
 40
1.0
  9
$DIMGAP
 40
0.1524
  9
$DIMJUST
 70
     0
  9
$DIMSD1
 70
     0
  9
$DIMSD2
 70
     0
  9
$DIMTOLJ
 70
     0
  9
$DIMTZIN
 70
     0
  9
$DIMALTZ
 70
     0
  9
$DIMALTTZ
 70
     0
  9
$DIMUPT
 70
     0
  9
$DIMDEC
 70
     0
  9
$DIMTDEC
 70
     0
  9
$DIMALTU
 70
     2
  9
$DIMALTTD
 70
     3
  9
$DIMTXSTY
  7
Standard
  9
$DIMAUNIT
 70
     0
  9
$DIMADEC
 70
     2
  9
$DIMALTRND
 40
0.0
  9
$DIMAZIN
 70
     0
  9
$DIMDSEP
 70
    44
  9
$DIMATFIT
 70
     3
  9
$DIMFRAC
 70
     0
  9
$DIMLDRBLK
  1

  9
$DIMLUNIT
 70
     2
  9
$DIMLWD
 70
    -2
  9
$DIMLWE
 70
    -2
  9
$DIMTMOVE
 70
     0
  9
$LUNITS
 70
     2
  9
$LUPREC
 70
     0
  9
$SKETCHINC
 40
1.0
  9
$FILLETRAD
 40
10.0
  9
$AUNITS
 70
     0
  9
$AUPREC
 70
     2
  9
$MENU
  1
.
  9
$ELEVATION
 40
0.0
  9
$PELEVATION
 40
0.0
  9
$THICKNESS
 40
0.0
  9
$LIMCHECK
 70
     0
  9
$CHAMFERA
 40
10.0
  9
$CHAMFERB
 40
10.0
  9
$CHAMFERC
 40
20.0
  9
$CHAMFERD
 40
0.0
  9
$SKPOLY
 70
     0
  9
$TDCREATE
 40
2455831.482334271
  9
$TDUCREATE
 40
2455831.399000938
  9
$TDUPDATE
 40
2455831.482334282
  9
$TDUUPDATE
 40
2455831.399000949
  9
$TDINDWG
 40
0.0000000116
  9
$TDUSRTIMER
 40
0.0000000116
  9
$USRTIMER
 70
     1
  9
$ANGBASE
 50
0.0
  9
$ANGDIR
 70
     0
  9
$PDMODE
 70
     0
  9
$PDSIZE
 40
-1.0
  9
$PLINEWID
 40
0.0
  9
$SPLFRAME
 70
     0
  9
$SPLINETYPE
 70
     6
  9
$SPLINESEGS
 70
     8
  9
$HANDSEED
  5
151
  9
$SURFTAB1
 70
     6
  9
$SURFTAB2
 70
     6
  9
$SURFTYPE
 70
     6
  9
$SURFU
 70
     6
  9
$SURFV
 70
     6
  9
$UCSBASE
  2

  9
$UCSNAME
  2

  9
$UCSORG
 10
0.0
 20
0.0
 30
0.0
  9
$UCSXDIR
 10
1.0
 20
0.0
 30
0.0
  9
$UCSYDIR
 10
0.0
 20
1.0
 30
0.0
  9
$UCSORTHOREF
  2

  9
$UCSORTHOVIEW
 70
     0
  9
$UCSORGTOP
 10
0.0
 20
0.0
 30
0.0
  9
$UCSORGBOTTOM
 10
0.0
 20
0.0
 30
0.0
  9
$UCSORGLEFT
 10
0.0
 20
0.0
 30
0.0
  9
$UCSORGRIGHT
 10
0.0
 20
0.0
 30
0.0
  9
$UCSORGFRONT
 10
0.0
 20
0.0
 30
0.0
  9
$UCSORGBACK
 10
0.0
 20
0.0
 30
0.0
  9
$PUCSBASE
  2

  9
$PUCSNAME
  2

  9
$PUCSORG
 10
0.0
 20
0.0
 30
0.0
  9
$PUCSXDIR
 10
1.0
 20
0.0
 30
0.0
  9
$PUCSYDIR
 10
0.0
 20
1.0
 30
0.0
  9
$PUCSORTHOREF
  2

  9
$PUCSORTHOVIEW
 70
     0
  9
$PUCSORGTOP
 10
0.0
 20
0.0
 30
0.0
  9
$PUCSORGBOTTOM
 10
0.0
 20
0.0
 30
0.0
  9
$PUCSORGLEFT
 10
0.0
 20
0.0
 30
0.0
  9
$PUCSORGRIGHT
 10
0.0
 20
0.0
 30
0.0
  9
$PUCSORGFRONT
 10
0.0
 20
0.0
 30
0.0
  9
$PUCSORGBACK
 10
0.0
 20
0.0
 30
0.0
  9
$USERI1
 70
     0
  9
$USERI2
 70
     0
  9
$USERI3
 70
     0
  9
$USERI4
 70
     0
  9
$USERI5
 70
     0
  9
$USERR1
 40
0.0
  9
$USERR2
 40
0.0
  9
$USERR3
 40
0.0
  9
$USERR4
 40
0.0
  9
$USERR5
 40
0.0
  9
$WORLDVIEW
 70
     1
  9
$SHADEDGE
 70
     3
  9
$SHADEDIF
 70
    70
  9
$TILEMODE
 70
     1
  9
$MAXACTVP
 70
    64
  9
$PINSBASE
 10
0.0
 20
0.0
 30
0.0
  9
$PLIMCHECK
 70
     0
  9
$PEXTMIN
 10
1.0000000000E+20
 20
1.0000000000E+20
 30
1.0000000000E+20
  9
$PEXTMAX
 10
-1.0000000000E+20
 20
-1.0000000000E+20
 30
-1.0000000000E+20
  9
$PLIMMIN
 10
0.0
 20
0.0
  9
$PLIMMAX
 10
420.0
 20
297.0
  9
$UNITMODE
 70
     0
  9
$VISRETAIN
 70
     1
  9
$PLINEGEN
 70
     0
  9
$PSLTSCALE
 70
     1
  9
$TREEDEPTH
 70
  3020
  9
$CMLSTYLE
  2
Standard
  9
$CMLJUST
 70
     0
  9
$CMLSCALE
 40
20.0
  9
$PROXYGRAPHICS
 70
     1
  9
$MEASUREMENT
 70
     1
  9
$CELWEIGHT
370
    -1
  9
$ENDCAPS
280
     0
  9
$JOINSTYLE
280
     0
  9
$LWDISPLAY
290
     1
  9
$INSUNITS
 70
     4
  9
$HYPERLINKBASE
  1

  9
$STYLESHEET
  1

  9
$XEDIT
290
     1
  9
$CEPSNTYPE
380
     0
  9
$PSTYLEMODE
290
     1
  9
$FINGERPRINTGUID
  2
{390B8A4F-C341-4CCA-BDBB-46E7EE8BF20D}
  9
$VERSIONGUID
  2
{FAEB1C32-E019-11D5-929B-00C0DF256EC4}
  9
$EXTNAMES
290
     1
  9
$PSVPSCALE
 40
0.0
  9
$OLESTARTUP
290
     0
  0
ENDSEC
  0
SECTION
  2
CLASSES
  0
CLASS
  1
ACDBDICTIONARYWDFLT
  2
AcDbDictionaryWithDefault
  3
ObjectDBX Classes
 90
        0
280
     0
281
     0
  0
CLASS
  1
VISUALSTYLE
  2
AcDbVisualStyle
  3
ObjectDBX Classes
 90
     4095
280
     0
281
     0
  0
CLASS
  1
MATERIAL
  2
AcDbMaterial
  3
ObjectDBX Classes
 90
     1153
280
     0
281
     0
  0
CLASS
  1
ACDBPLACEHOLDER
  2
AcDbPlaceHolder
  3
ObjectDBX Classes
 90
        0
280
     0
281
     0
  0
CLASS
  1
LAYOUT
  2
AcDbLayout
  3
ObjectDBX Classes
 90
        0
280
     0
281
     0
  0
ENDSEC
  0
SECTION
  2
TABLES
  0
TABLE
  2
VPORT
  5
8
330
0
100
AcDbSymbolTable
 70
     1
  0
VPORT
  5
29
330
8
100
AcDbSymbolTableRecord
100
AcDbViewportTableRecord
  2
*Active
 70
     0
 10
0.0
 20
0.0
 11
1.0
 21
1.0
 12
10.5
 22
14.85
 13
0.0
 23
0.0
 14
10.0
 24
10.0
 15
10.0
 25
10.0
 16
0.0
 26
0.0
 36
1.0
 17
0.0
 27
0.0
 37
0.0
 40
29.7
 41
0.7070707071
 42
50.0
 43
0.0
 44
0.0
 50
0.0
 51
0.0
 71
     0
 72
  2000
 73
     1
 74
     3
 75
     0
 76
     0
 77
     0
 78
     0
281
     0
 65
     1
110
0.0
120
0.0
130
0.0
111
1.0
121
0.0
131
0.0
112
0.0
122
1.0
132
0.0
 79
     0
146
0.0
  0
ENDTAB
  0
TABLE
  2
LTYPE
  5
5
330
0
100
AcDbSymbolTable
 70
     6
  0
LTYPE
  5
14
330
5
100
AcDbSymbolTableRecord
100
AcDbLinetypeTableRecord
  2
ByBlock
 70
     0
  3

 72
    65
 73
     0
 40
0.0
  0
LTYPE
  5
15
330
5
100
AcDbSymbolTableRecord
100
AcDbLinetypeTableRecord
  2
ByLayer
 70
     0
  3

 72
    65
 73
     0
 40
0.0
  0
LTYPE
  5
16
330
5
100
AcDbSymbolTableRecord
100
AcDbLinetypeTableRecord
  2
Continuous
 70
     0
  3
Solid line
 72
    65
 73
     0
 40
0.0
  0
LTYPE
  5
3F
330
5
100
AcDbSymbolTableRecord
100
AcDbLinetypeTableRecord
  2
HIDDEN
 70
     0
  3
Hidden __ __ __ __ __ __ __ __ __ __ __ __ __ __
 72
    65
 73
     2
 40
0.1905
 49
0.127
 74
     0
 49
-0.0635
 74
     0
  0
LTYPE
  5
40
330
5
100
AcDbSymbolTableRecord
100
AcDbLinetypeTableRecord
  2
PHANTOM
 70
     0
  3
Phantom ______  __  __  ______  __  __  ______
 72
    65
 73
     6
 40
1.27
 49
0.635
 74
     0
 49
-0.127
 74
     0
 49
0.127
 74
     0
 49
-0.127
 74
     0
 49
0.127
 74
     0
 49
-0.127
 74
     0
  0
LTYPE
  5
41
330
5
100
AcDbSymbolTableRecord
100
AcDbLinetypeTableRecord
  2
CENTER
 70
     0
  3
Center ____ _ ____ _ ____ _ ____ _ ____ _ ____
 72
    65
 73
     4
 40
1.016
 49
0.635
 74
     0
 49
-0.127
 74
     0
 49
0.127
 74
     0
 49
-0.127
 74
     0
  0
LTYPE
  5
42
330
5
100
AcDbSymbolTableRecord
100
AcDbLinetypeTableRecord
  2
CENTERX2
 70
     0
  3
Center (2x) ________  __  ________  __  _____
 72
    65
 73
     4
 40
2.032
 49
1.27
 74
     0
 49
-0.254
 74
     0
 49
0.254
 74
     0
 49
-0.254
 74
     0
  0
LTYPE
  5
43
330
5
100
AcDbSymbolTableRecord
100
AcDbLinetypeTableRecord
  2
DOT2
 70
     0
  3
Dot (.5x) ........................................
 72
    65
 73
     2
 40
0.0635
 49
0.0
 74
     0
 49
-0.0635
 74
     0
  0
ENDTAB
  0
TABLE
  2
LAYER
  5
2
330
0
100
AcDbSymbolTable
 70
     2
  0
LAYER
  5
10
330
2
100
AcDbSymbolTableRecord
100
AcDbLayerTableRecord
  2
0
 70
     0
 62
     7
  6
Continuous
370
    -3
390
F
  0
LAYER
  5
44
330
2
100
AcDbSymbolTableRecord
100
AcDbLayerTableRecord
  2
FORMAT
 70
     0
 62
     7
  6
Continuous
370
    -3
390
F
  0
ENDTAB
  0
TABLE
  2
STYLE
  5
3
330
0
100
AcDbSymbolTable
 70
     3
  0
STYLE
  5
11
330
3
100
AcDbSymbolTableRecord
100
AcDbTextStyleTableRecord
  2
Standard
 70
     0
 40
0.0
 41
1.0
 50
0.0
 71
     0
 42
2.5
  3
txt
  4

  0
STYLE
  5
68
330
3
100
AcDbSymbolTableRecord
100
AcDbTextStyleTableRecord
  2
SLDTEXTSTYLE0
 70
     0
 40
0.0
 41
0.75
 50
0.0
 71
     0
 42
0.2
  3
TXT
  4

  0
STYLE
  5
6F
330
3
100
AcDbSymbolTableRecord
100
AcDbTextStyleTableRecord
  2
SLDTEXTSTYLE1
 70
     0
 40
0.0
 41
0.6923076923
 50
0.0
 71
     0
 42
0.2
  3
TXT
  4

  0
ENDTAB
  0
TABLE
  2
VIEW
  5
6
330
0
100
AcDbSymbolTable
 70
     0
  0
ENDTAB
  0
TABLE
  2
UCS
  5
7
330
0
100
AcDbSymbolTable
 70
     0
  0
ENDTAB
  0
TABLE
  2
APPID
  5
9
330
0
100
AcDbSymbolTable
 70
     1
  0
APPID
  5
12
330
9
100
AcDbSymbolTableRecord
100
AcDbRegAppTableRecord
  2
ACAD
 70
     0
  0
ENDTAB
  0
TABLE
  2
DIMSTYLE
  5
A
330
0
100
AcDbSymbolTable
 70
     3
100
AcDbDimStyleTable
  0
DIMSTYLE
105
27
330
A
100
AcDbSymbolTableRecord
100
AcDbDimStyleTableRecord
  2
ISO-25
 70
     0
 41
2.5
 42
0.625
 43
3.75
 44
1.25
 73
     0
 74
     0
 77
     1
 78
     8
140
2.5
141
2.5
143
0.0393700787
147
0.625
171
     3
172
     1
178
     0
271
     2
272
     2
274
     3
278
    44
283
     0
284
     8
340
11
  0
DIMSTYLE
105
10A
102
{ACAD_REACTORS
330
109
102
}
330
A
100
AcDbSymbolTableRecord
100
AcDbDimStyleTableRecord
  2
SLDDIMSTYLE0
 70
     0
 41
0.3556
 44
0.0
 45
0.000000001
 73
     0
 74
     0
 77
     1
 78
    12
 79
     3
140
0.35
143
0.3937007874
144
20.0
147
0.0875
148
0.000000001
170
     1
171
     0
173
     1
178
     0
271
     0
272
     0
274
     0
276
     2
284
    12
340
68
341
10B
343
10B
344
10B
  0
DIMSTYLE
105
138
102
{ACAD_REACTORS
330
137
102
}
330
A
100
AcDbSymbolTableRecord
100
AcDbDimStyleTableRecord
  2
SLDDIMSTYLE1
 70
     0
 41
0.3556
 44
0.0
 45
0.000000001
 73
     0
 74
     0
 77
     1
 78
    12
 79
     3
140
0.35
143
0.3937007874
144
20.0
147
0.0875
148
0.000000001
170
     1
171
     0
172
     1
173
     1
178
     0
271
     0
272
     0
274
     0
276
     2
284
    12
289
     0
340
68
341
10B
343
10B
344
10B
  0
ENDTAB
  0
TABLE
  2
BLOCK_RECORD
  5
1
330
0
100
AcDbSymbolTable
 70
     6
  0
BLOCK_RECORD
  5
1F
330
1
100
AcDbSymbolTableRecord
100
AcDbBlockTableRecord
  2
*Model_Space
340
22
  0
BLOCK_RECORD
  5
1B
330
1
100
AcDbSymbolTableRecord
100
AcDbBlockTableRecord
  2
*Paper_Space
340
1E
  0
BLOCK_RECORD
  5
23
330
1
100
AcDbSymbolTableRecord
100
AcDbBlockTableRecord
  2
*Paper_Space0
340
26
  0
BLOCK_RECORD
  5
7A
330
1
100
AcDbSymbolTableRecord
100
AcDbBlockTableRecord
  2
SW_NOTE_0
340
0
102
{BLKREFS
331
80
102
}
  0
BLOCK_RECORD
  5
82
330
1
100
AcDbSymbolTableRecord
100
AcDbBlockTableRecord
  2
SW_NOTE_1
340
0
102
{BLKREFS
331
8B
102
}
  0
BLOCK_RECORD
  5
10B
330
1
100
AcDbSymbolTableRecord
100
AcDbBlockTableRecord
  2
_CLOSED
340
0
102
{BLKREFS
331
115
331
116
331
13C
331
13D
102
}
  0
BLOCK_RECORD
  5
112
330
1
100
AcDbSymbolTableRecord
100
AcDbBlockTableRecord
  2
*D4
340
0
  0
BLOCK_RECORD
  5
139
330
1
100
AcDbSymbolTableRecord
100
AcDbBlockTableRecord
  2
*D5
340
0
  0
ENDTAB
  0
ENDSEC
  0
SECTION
  2
BLOCKS
  0
BLOCK
  5
20
330
1F
100
AcDbEntity
  8
0
100
AcDbBlockBegin
  2
*Model_Space
 70
     0
 10
0.0
 20
0.0
 30
0.0
  3
*Model_Space
  1

  0
ENDBLK
  5
21
330
1F
100
AcDbEntity
  8
0
100
AcDbBlockEnd
  0
BLOCK
  5
1C
330
1B
100
AcDbEntity
 67
     1
  8
0
100
AcDbBlockBegin
  2
*Paper_Space
 70
     0
 10
0.0
 20
0.0
 30
0.0
  3
*Paper_Space
  1

  0
ENDBLK
  5
1D
330
1B
100
AcDbEntity
 67
     1
  8
0
100
AcDbBlockEnd
  0
BLOCK
  5
24
330
23
100
AcDbEntity
  8
0
100
AcDbBlockBegin
  2
*Paper_Space0
 70
     0
 10
0.0
 20
0.0
 30
0.0
  3
*Paper_Space0
  1

  0
ENDBLK
  5
25
330
23
100
AcDbEntity
  8
0
100
AcDbBlockEnd
  0
BLOCK
  5
7B
330
7A
100
AcDbEntity
  8
0
100
AcDbBlockBegin
  2
SW_NOTE_0
 70
     0
 10
0.0
 20
0.0
 30
0.0
  3
SW_NOTE_0
  1

  0
MTEXT
  5
7D
330
7A
100
AcDbEntity
  8
0
  6
Continuous
 62
     0
370
     0
100
AcDbMText
 10
0.0
 20
0.193360161
 30
0.0
 40
0.15
 41
0.0
 71
     1
 72
     1
  1
SBAVATURA E
  7
SLDTEXTSTYLE0
 73
     1
 44
1.0
  0
MTEXT
  5
7E
330
7A
100
AcDbEntity
  8
0
  6
Continuous
 62
     0
370
     0
100
AcDbMText
 10
0.0
 20
-0.0566398334
 30
0.0
 40
0.15
 41
0.0
 71
     1
 72
     1
  1
INTERRUZIONE DEI
  7
SLDTEXTSTYLE0
 73
     1
 44
1.0
  0
MTEXT
  5
7F
330
7A
100
AcDbEntity
  8
0
  6
Continuous
 62
     0
370
     0
100
AcDbMText
 10
0.0
 20
-0.3066398279
 30
0.0
 40
0.15
 41
0.0
 71
     1
 72
     1
  1
BORDI NETTI
  7
SLDTEXTSTYLE0
 73
     1
 44
1.0
  0
ENDBLK
  5
7C
330
7A
100
AcDbEntity
  8
0
100
AcDbBlockEnd
  0
BLOCK
  5
83
330
82
100
AcDbEntity
  8
0
100
AcDbBlockBegin
  2
SW_NOTE_1
 70
     0
 10
0.0
 20
0.0
 30
0.0
  3
SW_NOTE_1
  1

  0
MTEXT
  5
85
330
82
100
AcDbEntity
  8
0
  6
Continuous
 62
     0
370
     0
100
AcDbMText
 10
0.0
 20
0.193360161
 30
0.0
 40
0.15
 41
0.0
 71
     1
 72
     1
  1
SE NON SPECIFICATO:
  7
SLDTEXTSTYLE0
 73
     1
 44
1.0
  0
MTEXT
  5
86
330
82
100
AcDbEntity
  8
0
  6
Continuous
 62
     0
370
     0
100
AcDbMText
 10
0.0
 20
-0.0566398334
 30
0.0
 40
0.15
 41
0.0
 71
     1
 72
     1
  1
QUOTE IN MILLIMETRI
  7
SLDTEXTSTYLE0
 73
     1
 44
1.0
  0
MTEXT
  5
87
330
82
100
AcDbEntity
  8
0
  6
Continuous
 62
     0
370
     0
100
AcDbMText
 10
0.0
 20
-0.3066398279
 30
0.0
 40
0.15
 41
0.0
 71
     1
 72
     1
  1
FINITURA SUPERFICIE:
  7
SLDTEXTSTYLE0
 73
     1
 44
1.0
  0
MTEXT
  5
88
330
82
100
AcDbEntity
  8
0
  6
Continuous
 62
     0
370
     0
100
AcDbMText
 10
0.0
 20
-0.5566398223
 30
0.0
 40
0.15
 41
0.0
 71
     1
 72
     1
  1
TOLLERANZE:
  7
SLDTEXTSTYLE0
 73
     1
 44
1.0
  0
MTEXT
  5
89
330
82
100
AcDbEntity
  8
0
  6
Continuous
 62
     0
370
     0
100
AcDbMText
 10
0.16875
 20
-0.8066398167
 30
0.0
 40
0.15
 41
0.0
 71
     1
 72
     1
  1
LINEARE:
  7
SLDTEXTSTYLE0
 73
     1
 44
1.0
  0
MTEXT
  5
8A
330
82
100
AcDbEntity
  8
0
  6
Continuous
 62
     0
370
     0
100
AcDbMText
 10
0.16875
 20
-1.0566398111
 30
0.0
 40
0.15
 41
0.0
 71
     1
 72
     1
  1
ANGOLARE:
  7
SLDTEXTSTYLE0
 73
     1
 44
1.0
  0
ENDBLK
  5
84
330
82
100
AcDbEntity
  8
0
100
AcDbBlockEnd
  0
BLOCK
  5
10C
330
10B
100
AcDbEntity
  8
0
100
AcDbBlockBegin
  2
_CLOSED
 70
     0
 10
0.0
 20
0.0
 30
0.0
  3
_CLOSED
  1

  0
LINE
  5
10E
330
10B
100
AcDbEntity
  8
0
  6
ByBlock
 62
     0
370
    -2
100
AcDbLine
 10
-1.0
 20
0.166667
 30
0.0
 11
0.0
 21
0.0
 31
0.0
  0
LINE
  5
10F
330
10B
100
AcDbEntity
  8
0
  6
ByBlock
 62
     0
370
    -2
100
AcDbLine
 10
0.0
 20
0.0
 30
0.0
 11
-1.0
 21
-0.166667
 31
0.0
  0
LINE
  5
110
330
10B
100
AcDbEntity
  8
0
  6
ByBlock
 62
     0
370
    -2
100
AcDbLine
 10
-1.0
 20
0.166667
 30
0.0
 11
-1.0
 21
-0.166667
 31
0.0
  0
LINE
  5
111
330
10B
100
AcDbEntity
  8
0
  6
ByBlock
 62
     0
370
    -2
100
AcDbLine
 10
0.0
 20
0.0
 30
0.0
 11
-1.0
 21
0.0
 31
0.0
  0
ENDBLK
  5
10D
330
10B
100
AcDbEntity
  8
0
100
AcDbBlockEnd
  0
BLOCK
  5
113
330
112
100
AcDbEntity
  8
0
100
AcDbBlockBegin
  2
*D4
 70
     1
 10
0.0
 20
0.0
 30
0.0
  3
*D4
  1

  0
INSERT
  5
115
330
112
100
AcDbEntity
  8
0
  6
Continuous
 62
     7
370
     0
100
AcDbBlockReference
  2
_CLOSED
 10
12.1714192607
 20
25.3170221569
 30
0.0005
 41
0.3556
 42
0.3556
 50
90.0
  0
INSERT
  5
116
330
112
100
AcDbEntity
  8
0
  6
Continuous
 62
     7
370
     0
100
AcDbBlockReference
  2
_CLOSED
 10
12.1714192607
 20
16.6445221568
 30
0.0005
 41
0.3556
 42
0.3556
 50
270.0
  0
LINE
  5
117
330
112
100
AcDbEntity
  8
0
  6
Continuous
 62
     7
370
     0
100
AcDbLine
 10
10.7323603403
 20
20.3595435909
 30
0.0
 11
10.7323603403
 21
20.2884498424
 31
0.0
  0
LINE
  5
118
330
112
100
AcDbEntity
  8
0
  6
Continuous
 62
     7
370
     0
100
AcDbLine
 10
10.7323603403
 20
20.2884498424
 30
0.0
 11
11.6477561813
 21
20.2884498424
 31
0.0
  0
LINE
  5
119
330
112
100
AcDbEntity
  8
0
  6
Continuous
 62
     7
370
     0
100
AcDbLine
 10
11.6477561813
 20
20.2884498424
 30
0.0
 11
11.6477561813
 21
20.3595435909
 31
0.0
  0
LINE
  5
11A
330
112
100
AcDbEntity
  8
0
  6
Continuous
 62
     7
370
     0
100
AcDbLine
 10
10.7323603403
 20
21.662625306
 30
0.0
 11
10.7323603403
 21
21.7337190545
 31
0.0
  0
LINE
  5
11B
330
112
100
AcDbEntity
  8
0
  6
Continuous
 62
     7
370
     0
100
AcDbLine
 10
10.7323603403
 20
21.7337190545
 30
0.0
 11
11.6477561813
 21
21.7337190545
 31
0.0
  0
LINE
  5
11C
330
112
100
AcDbEntity
  8
0
  6
Continuous
 62
     7
370
     0
100
AcDbLine
 10
11.6477561813
 20
21.7337190545
 30
0.0
 11
11.6477561813
 21
21.662625306
 31
0.0
  0
LINE
  5
11D
330
112
100
AcDbEntity
  8
0
  6
Continuous
 62
     7
370
     0
100
AcDbLine
 10
11.1541589603
 20
21.0169177408
 30
0.0
 11
11.1541589603
 21
21.3780983257
 31
0.0
  0
LINE
  5
11E
330
112
100
AcDbEntity
  8
0
  6
Continuous
 62
     7
370
     0
100
AcDbLine
 10
10.1737158866
 20
25.3170221569
 30
0.0
 11
12.2714192607
 21
25.3170221569
 31
0.0
  0
LINE
  5
11F
330
112
100
AcDbEntity
  8
0
  6
Continuous
 62
     7
370
     0
100
AcDbLine
 10
10.6714192607
 20
16.6445221568
 30
0.0
 11
12.2714192607
 21
16.6445221568
 31
0.0
  0
LINE
  5
120
330
112
100
AcDbEntity
  8
0
  6
Continuous
 62
     7
370
     0
100
AcDbLine
 10
12.1714192607
 20
25.3170221569
 30
0.0
 11
12.1714192607
 21
16.6445221568
 31
0.0
  0
MTEXT
  5
121
330
112
100
AcDbEntity
  8
0
  6
Continuous
 62
     7
370
     0
100
AcDbMText
 10
11.7148984272
 20
20.2370739698
 30
0.0005
 40
0.35
 41
0.0
 71
     1
 72
     1
  1

  7
SLDTEXTSTYLE0
 11
-7.044195017643634E-15
 21
1.0
 31
0.0
 73
     1
 44
1.0
  0
MTEXT
  5
122
330
112
100
AcDbEntity
  8
0
  6
Continuous
 62
     7
370
     0
100
AcDbMText
 10
10.989474836
 20
20.448410781
 30
0.0005
 40
0.35
 41
0.0
 71
     1
 72
     1
  1
68
  7
SLDTEXTSTYLE0
 11
-7.044195017643634E-15
 21
1.0
 31
0.0
 73
     1
 44
1.0
  0
MTEXT
  5
123
330
112
100
AcDbEntity
  8
0
  6
Continuous
 62
     7
370
     0
100
AcDbMText
 10
10.7337560845
 20
21.0682024736
 30
0.0005
 40
0.35
 41
0.0
 71
     1
 72
     1
  1
1
  7
SLDTEXTSTYLE0
 11
-7.044195017643634E-15
 21
1.0
 31
0.0
 73
     1
 44
1.0
  0
MTEXT
  5
124
330
112
100
AcDbEntity
  8
0
  6
Continuous
 62
     7
370
     0
100
AcDbMText
 10
11.1965824819
 20
21.0682024736
 30
0.0005
 40
0.35
 41
0.0
 71
     1
 72
     1
  1
4
  7
SLDTEXTSTYLE0
 11
-7.044195017643634E-15
 21
1.0
 31
0.0
 73
     1
 44
1.0
  0
MTEXT
  5
125
330
112
100
AcDbEntity
  8
0
  6
Continuous
 62
     7
370
     0
100
AcDbMText
 10
10.989474836
 20
21.4293830934
 30
0.0005
 40
0.35
 41
0.0
 71
     1
 72
     1
  1
"
  7
SLDTEXTSTYLE0
 11
-7.044195017643634E-15
 21
1.0
 31
0.0
 73
     1
 44
1.0
  0
MTEXT
  5
126
330
112
100
AcDbEntity
  8
0
  6
Continuous
 62
     7
370
     0
100
AcDbMText
 10
11.7202456915
 20
20.4809802956
 30
0.0005
 40
0.35
 41
0.0
 71
     1
 72
     1
  1
173
  7
SLDTEXTSTYLE0
 11
-7.044195017643634E-15
 21
1.0
 31
0.0
 73
     1
 44
1.0
  0
MTEXT
  5
127
330
112
100
AcDbEntity
  8
0
  6
Continuous
 62
     7
370
     0
100
AcDbMText
 10
11.7148984272
 20
21.9182892859
 30
0.0005
 40
0.35
 41
0.0
 71
     1
 72
     1
  1

  7
SLDTEXTSTYLE0
 11
-7.044195017643634E-15
 21
1.0
 31
0.0
 73
     1
 44
1.0
  0
ENDBLK
  5
114
330
112
100
AcDbEntity
  8
0
100
AcDbBlockEnd
  0
BLOCK
  5
13A
330
139
100
AcDbEntity
  8
0
100
AcDbBlockBegin
  2
*D5
 70
     1
 10
0.0
 20
0.0
 30
0.0
  3
*D5
  1

  0
INSERT
  5
13C
330
139
100
AcDbEntity
  8
0
  6
Continuous
 62
     7
370
     0
100
AcDbBlockReference
  2
_CLOSED
 10
12.1714192607
 20
13.9047431907
 30
4.3355031351
 41
0.3556
 42
0.3556
 50
270.0
  0
INSERT
  5
13D
330
139
100
AcDbEntity
  8
0
  6
Continuous
 62
     7
370
     0
100
AcDbBlockReference
  2
_CLOSED
 10
12.1714192607
 20
12.4947431907
 30
4.3355031351
 41
0.3556
 42
0.3556
 50
90.0
  0
LINE
  5
13E
330
139
100
AcDbEntity
  8
0
  6
Continuous
 62
     7
370
     0
100
AcDbLine
 10
10.7323603403
 20
12.5292877259
 30
0.0
 11
10.7323603403
 21
12.4581939774
 31
0.0
  0
LINE
  5
13F
330
139
100
AcDbEntity
  8
0
  6
Continuous
 62
     7
370
     0
100
AcDbLine
 10
10.7323603403
 20
12.4581939774
 30
0.0
 11
11.6477561813
 21
12.4581939774
 31
0.0
  0
LINE
  5
140
330
139
100
AcDbEntity
  8
0
  6
Continuous
 62
     7
370
     0
100
AcDbLine
 10
11.6477561813
 20
12.4581939774
 30
0.0
 11
11.6477561813
 21
12.5292877259
 31
0.0
  0
LINE
  5
141
330
139
100
AcDbEntity
  8
0
  6
Continuous
 62
     7
370
     0
100
AcDbLine
 10
10.7323603403
 20
13.8323694409
 30
0.0
 11
10.7323603403
 21
13.9034631895
 31
0.0
  0
LINE
  5
142
330
139
100
AcDbEntity
  8
0
  6
Continuous
 62
     7
370
     0
100
AcDbLine
 10
10.7323603403
 20
13.9034631895
 30
0.0
 11
11.6477561813
 21
13.9034631895
 31
0.0
  0
LINE
  5
143
330
139
100
AcDbEntity
  8
0
  6
Continuous
 62
     7
370
     0
100
AcDbLine
 10
11.6477561813
 20
13.9034631895
 30
0.0
 11
11.6477561813
 21
13.8323694409
 31
0.0
  0
LINE
  5
144
330
139
100
AcDbEntity
  8
0
  6
Continuous
 62
     7
370
     0
100
AcDbLine
 10
11.1541589603
 20
13.1866618758
 30
0.0
 11
11.1541589603
 21
13.5478424607
 31
0.0
  0
LINE
  5
145
330
139
100
AcDbEntity
  8
0
  6
Continuous
 62
     7
370
     0
100
AcDbLine
 10
10.6464192607
 20
13.9047431907
 30
0.0
 11
12.2714192607
 21
13.9047431907
 31
0.0
  0
LINE
  5
146
330
139
100
AcDbEntity
  8
0
  6
Continuous
 62
     7
370
     0
100
AcDbLine
 10
10.6464192607
 20
12.4947431907
 30
0.0
 11
12.2714192607
 21
12.4947431907
 31
0.0
  0
LINE
  5
147
330
139
100
AcDbEntity
  8
0
  6
Continuous
 62
     7
370
     0
100
AcDbLine
 10
12.1714192607
 20
13.9047431907
 30
0.0
 11
12.1714192607
 21
14.5397431907
 31
0.0
  0
LINE
  5
148
330
139
100
AcDbEntity
  8
0
  6
Continuous
 62
     7
370
     0
100
AcDbLine
 10
12.1714192607
 20
13.9047431907
 30
0.0
 11
12.1714192607
 21
12.4947431907
 31
0.0
  0
LINE
  5
149
330
139
100
AcDbEntity
  8
0
  6
Continuous
 62
     7
370
     0
100
AcDbLine
 10
12.1714192607
 20
12.4947431907
 30
0.0
 11
12.1714192607
 21
11.8597431907
 31
0.0
  0
MTEXT
  5
14A
330
139
100
AcDbEntity
  8
0
  6
Continuous
 62
     7
370
     0
100
AcDbMText
 10
11.7148984272
 20
12.4068181048
 30
4.3355031351
 40
0.35
 41
0.0
 71
     1
 72
     1
  1

  7
SLDTEXTSTYLE0
 11
-7.044195017643634E-15
 21
1.0
 31
0.0
 73
     1
 44
1.0
  0
MTEXT
  5
14B
330
139
100
AcDbEntity
  8
0
  6
Continuous
 62
     7
370
     0
100
AcDbMText
 10
10.989474836
 20
12.618154916
 30
4.3355031351
 40
0.35
 41
0.0
 71
     1
 72
     1
  1
11
  7
SLDTEXTSTYLE0
 11
-7.044195017643634E-15
 21
1.0
 31
0.0
 73
     1
 44
1.0
  0
MTEXT
  5
14C
330
139
100
AcDbEntity
  8
0
  6
Continuous
 62
     7
370
     0
100
AcDbMText
 10
10.7337560845
 20
13.2379466086
 30
4.3355031351
 40
0.35
 41
0.0
 71
     1
 72
     1
  1
1
  7
SLDTEXTSTYLE0
 11
-7.044195017643634E-15
 21
1.0
 31
0.0
 73
     1
 44
1.0
  0
MTEXT
  5
14D
330
139
100
AcDbEntity
  8
0
  6
Continuous
 62
     7
370
     0
100
AcDbMText
 10
11.1965824819
 20
13.2379466086
 30
4.3355031351
 40
0.35
 41
0.0
 71
     1
 72
     1
  1
8
  7
SLDTEXTSTYLE0
 11
-7.044195017643634E-15
 21
1.0
 31
0.0
 73
     1
 44
1.0
  0
MTEXT
  5
14E
330
139
100
AcDbEntity
  8
0
  6
Continuous
 62
     7
370
     0
100
AcDbMText
 10
10.989474836
 20
13.5991272284
 30
4.3355031351
 40
0.35
 41
0.0
 71
     1
 72
     1
  1
"
  7
SLDTEXTSTYLE0
 11
-7.044195017643634E-15
 21
1.0
 31
0.0
 73
     1
 44
1.0
  0
MTEXT
  5
14F
330
139
100
AcDbEntity
  8
0
  6
Continuous
 62
     7
370
     0
100
AcDbMText
 10
11.7202456915
 20
12.7800299553
 30
4.3355031351
 40
0.35
 41
0.0
 71
     1
 72
     1
  1
28
  7
SLDTEXTSTYLE0
 11
-7.044195017643634E-15
 21
1.0
 31
0.0
 73
     1
 44
1.0
  0
MTEXT
  5
150
330
139
100
AcDbEntity
  8
0
  6
Continuous
 62
     7
370
     0
100
AcDbMText
 10
11.7148984272
 20
14.0880334209
 30
4.3355031351
 40
0.35
 41
0.0
 71
     1
 72
     1
  1

  7
SLDTEXTSTYLE0
 11
-7.044195017643634E-15
 21
1.0
 31
0.0
 73
     1
 44
1.0
  0
ENDBLK
  5
13B
330
139
100
AcDbEntity
  8
0
100
AcDbBlockEnd
  0
ENDSEC
  0
SECTION
  2
ENTITIES
  0
LINE
  5
45
330
1F
100
AcDbEntity
  8
0
  6
Continuous
 62
     7
370
    40
100
AcDbLine
 10
1.0078843565
 20
0.5214780157
 30
0.0
 11
20.5078843565
 21
0.5214780157
 31
0.0
  0
LINE
  5
46
330
1F
100
AcDbEntity
  8
0
  6
Continuous
 62
     7
370
    40
100
AcDbLine
 10
0.0078843565
 20
0.0214780157
 30
0.0
 11
21.0078843565
 21
0.0214780157
 31
0.0
  0
LINE
  5
47
330
1F
100
AcDbEntity
  8
0
  6
Continuous
 62
     7
370
    40
100
AcDbLine
 10
0.0078843565
 20
0.0214780157
 30
0.0
 11
0.0078843565
 21
29.7214780157
 31
0.0
  0
LINE
  5
48
330
1F
100
AcDbEntity
  8
0
  6
Continuous
 62
     7
370
    40
100
AcDbLine
 10
0.0078843565
 20
29.7214780157
 30
0.0
 11
21.0078843565
 21
29.7214780157
 31
0.0
  0
LINE
  5
49
330
1F
100
AcDbEntity
  8
0
  6
Continuous
 62
     7
370
    40
100
AcDbLine
 10
21.0078843565
 20
0.0214780157
 30
0.0
 11
21.0078843565
 21
29.7214780157
 31
0.0
  0
LINE
  5
4A
330
1F
100
AcDbEntity
  8
0
  6
Continuous
 62
     7
370
    40
100
AcDbLine
 10
1.0078843565
 20
29.2214780157
 30
0.0
 11
20.5078843565
 21
29.2214780157
 31
0.0
  0
LINE
  5
4B
330
1F
100
AcDbEntity
  8
0
  6
Continuous
 62
     7
370
    40
100
AcDbLine
 10
20.5078843565
 20
0.5214780157
 30
0.0
 11
18.0988311848
 21
0.5214780157
 31
0.0
  0
LINE
  5
4C
330
1F
100
AcDbEntity
  8
0
  6
Continuous
 62
     7
370
    40
100
AcDbLine
 10
1.0078843565
 20
0.5214780157
 30
0.0
 11
1.0078843565
 21
29.2214780157
 31
0.0
  0
LINE
  5
4D
330
1F
100
AcDbEntity
  8
0
  6
Continuous
 62
     7
370
    40
100
AcDbLine
 10
1.0110820912
 20
0.9370927258
 30
0.0
 11
20.5078843565
 21
0.9370927258
 31
0.0
  0
LINE
  5
4E
330
1F
100
AcDbEntity
  8
0
  6
Continuous
 62
     7
370
    40
100
AcDbLine
 10
20.5078843565
 20
4.3370927258
 30
0.0
 11
1.0110820912
 21
4.3370927258
 31
0.0
  0
LINE
  5
4F
330
1F
100
AcDbEntity
  8
0
  6
Continuous
 62
     7
370
    40
100
AcDbLine
 10
1.0110820912
 20
6.0370927258
 30
0.0
 11
20.5078843565
 21
6.0370927258
 31
0.0
  0
LINE
  5
50
330
1F
100
AcDbEntity
  8
0
  6
Continuous
 62
     7
370
    40
100
AcDbLine
 10
21.0078843565
 20
29.2214780157
 30
0.0
 11
21.0078843565
 21
29.7214780157
 31
0.0
  0
LINE
  5
51
330
1F
100
AcDbEntity
  8
0
  6
Continuous
 62
     7
370
    40
100
AcDbLine
 10
3.7101773345
 20
4.3370927258
 30
0.0
 11
3.7101773345
 21
0.5120927258
 31
0.0
  0
LINE
  5
52
330
1F
100
AcDbEntity
  8
0
  6
Continuous
 62
     7
370
    40
100
AcDbLine
 10
10.8910820912
 20
2.6370927258
 30
0.0
 11
1.0110820912
 21
2.6370927258
 31
0.0
  0
LINE
  5
53
330
1F
100
AcDbEntity
  8
0
  6
Continuous
 62
     7
370
    40
100
AcDbLine
 10
10.8910820912
 20
3.0620927258
 30
0.0
 11
1.0110820912
 21
3.0620927258
 31
0.0
  0
LINE
  5
54
330
1F
100
AcDbEntity
  8
0
  6
Continuous
 62
     7
370
    40
100
AcDbLine
 10
10.8910820912
 20
3.4870927258
 30
0.0
 11
1.0110820912
 21
3.4870927258
 31
0.0
  0
LINE
  5
55
330
1F
100
AcDbEntity
  8
0
  6
Continuous
 62
     7
370
    40
100
AcDbLine
 10
10.8910820912
 20
3.9120927258
 30
0.0
 11
1.0110820912
 21
3.9120927258
 31
0.0
  0
LINE
  5
56
330
1F
100
AcDbEntity
  8
0
  6
Continuous
 62
     7
370
    40
100
AcDbLine
 10
6.4710820912
 20
0.5120927258
 30
0.0
 11
6.4710820912
 21
4.3370927258
 31
0.0
  0
LINE
  5
57
330
1F
100
AcDbEntity
  8
0
  6
Continuous
 62
     7
370
    40
100
AcDbLine
 10
1.0110820912
 20
6.0370927258
 30
0.0
 11
1.0110820912
 21
0.5120927258
 31
0.0
  0
LINE
  5
58
330
1F
100
AcDbEntity
  8
0
  6
Continuous
 62
     7
370
    40
100
AcDbLine
 10
2.3529807256
 20
4.3370927258
 30
0.0
 11
2.3529807256
 21
0.5214780157
 31
0.0
  0
LINE
  5
59
330
1F
100
AcDbEntity
  8
0
  6
Continuous
 62
     7
370
    40
100
AcDbLine
 10
4.3910820912
 20
4.3370927258
 30
0.0
 11
4.3910820912
 21
6.0370927258
 31
0.0
  0
LINE
  5
5A
330
1F
100
AcDbEntity
  8
0
  6
Continuous
 62
     7
370
    40
100
AcDbLine
 10
5.4509747075
 20
4.3370927258
 30
0.0
 11
5.4509747075
 21
0.5120927258
 31
0.0
  0
LINE
  5
5B
330
1F
100
AcDbEntity
  8
0
  6
Continuous
 62
     7
370
    40
100
AcDbLine
 10
7.5110820912
 20
2.6370927258
 30
0.0
 11
7.5110820912
 21
4.3370927258
 31
0.0
  0
LINE
  5
5C
330
1F
100
AcDbEntity
  8
0
  6
Continuous
 62
     7
370
    40
100
AcDbLine
 10
6.4710820912
 20
1.3620927258
 30
0.0
 11
1.0110820912
 21
1.3620927258
 31
0.0
  0
LINE
  5
5D
330
1F
100
AcDbEntity
  8
0
  6
Continuous
 62
     7
370
    40
100
AcDbLine
 10
9.0710820912
 20
6.0370927258
 30
0.0
 11
9.0710820912
 21
2.2120927258
 31
0.0
  0
LINE
  5
5E
330
1F
100
AcDbEntity
  8
0
  6
Continuous
 62
     7
370
    40
100
AcDbLine
 10
6.4710820912
 20
1.7870855258
 30
0.0
 11
1.0110820912
 21
1.7870855258
 31
0.0
  0
LINE
  5
5F
330
1F
100
AcDbEntity
  8
0
  6
Continuous
 62
     7
370
    40
100
AcDbLine
 10
6.4710820912
 20
2.2120927258
 30
0.0
 11
1.0110820912
 21
2.2120927258
 31
0.0
  0
LINE
  5
60
330
1F
100
AcDbEntity
  8
0
  6
Continuous
 62
     7
370
    40
100
AcDbLine
 10
6.4710820912
 20
2.2120927258
 30
0.0
 11
20.5078843565
 21
2.2120927258
 31
0.0
  0
LINE
  5
61
330
1F
100
AcDbEntity
  8
0
  6
Continuous
 62
     7
370
    40
100
AcDbLine
 10
10.8910820912
 20
6.0370927258
 30
0.0
 11
10.8910820912
 21
0.5120927258
 31
0.0
  0
LINE
  5
62
330
1F
100
AcDbEntity
  8
0
  6
Continuous
 62
     7
370
    40
100
AcDbLine
 10
16.0878843565
 20
0.5214780157
 30
0.0
 11
16.0878843565
 21
0.9464780157
 31
0.0
  0
LINE
  5
63
330
1F
100
AcDbEntity
  8
0
  6
Continuous
 62
     7
370
    40
100
AcDbLine
 10
16.8678843565
 20
5.4089780157
 30
0.0
 11
16.8678843565
 21
6.0464780157
 31
0.0
  0
LINE
  5
64
330
1F
100
AcDbEntity
  8
0
  6
Continuous
 62
     7
370
    40
100
AcDbLine
 10
19.2078843565
 20
0.9464780157
 30
0.0
 11
19.2078843565
 21
2.2214780157
 31
0.0
  0
LINE
  5
65
330
1F
100
AcDbEntity
  8
0
  6
Continuous
 62
     7
370
    40
100
AcDbLine
 10
20.5078843565
 20
5.3995927258
 30
0.0
 11
10.8910820912
 21
5.3995927258
 31
0.0
  0
LINE
  5
66
330
1F
100
AcDbEntity
  8
0
  6
Continuous
 62
     7
370
    40
100
AcDbLine
 10
20.5078843565
 20
1.3714780157
 30
0.0
 11
19.2078843565
 21
1.3714780157
 31
0.0
  0
LINE
  5
67
330
1F
100
AcDbEntity
  8
0
  6
Continuous
 62
     7
370
    40
100
AcDbLine
 10
20.5078843565
 20
0.5214780157
 30
0.0
 11
20.5078843565
 21
29.2214780157
 31
0.0
  0
MTEXT
  5
69
330
1F
100
AcDbEntity
  8
0
  6
Continuous
 62
     7
370
     0
100
AcDbMText
 10
15.7458736745
 20
3.5849896778
 30
0.0
 40
0.5291666667
 41
0.0
 71
     2
 72
     1
  1
$PRPSHEET:\{Descrizione\}
  7
SLDTEXTSTYLE0
 73
     1
 44
1.0
  0
MTEXT
  5
6A
330
1F
100
AcDbEntity
  8
0
  6
Continuous
 62
     7
370
     0
100
AcDbMText
 10
15.8060921265
 20
1.9846518799
 30
0.0
 40
0.635
 41
0.0
 71
     2
 72
     1
  1
Disegno31
  7
SLDTEXTSTYLE0
 73
     1
 44
1.0
  0
MTEXT
  5
6B
330
1F
100
AcDbEntity
  8
0
  6
Continuous
 62
     7
370
     0
100
AcDbMText
 10
6.572863204
 20
0.8070239161
 30
0.0
 40
0.14986
 41
0.0
 71
     1
 72
     1
  1
PESO: $PRPSHEET:\{Peso\}
  7
SLDTEXTSTYLE0
 73
     1
 44
1.0
  0
MTEXT
  5
6C
330
1F
100
AcDbEntity
  8
0
  6
Continuous
 62
     7
370
     0
100
AcDbMText
 10
6.917245415
 20
5.3102097813
 30
0.0
 40
0.238125
 41
0.0
 71
     2
 72
     1
  1
$PRPSHEET:\{Fine\}
  7
SLDTEXTSTYLE0
 73
     1
 44
1.0
  0
MTEXT
  5
6D
330
1F
100
AcDbEntity
  8
0
  6
Continuous
 62
     7
370
     0
100
AcDbMText
 10
8.9081811541
 20
1.6606492949
 30
0.0
 40
0.238125
 41
0.0
 71
     2
 72
     1
  1
$PRPSHEET:\{Materiale\}
  7
SLDTEXTSTYLE0
 73
     1
 44
1.0
  0
MTEXT
  5
6E
330
1F
100
AcDbEntity
  8
0
  6
Continuous
 62
     7
370
     0
100
AcDbMText
 10
19.5999828412
 20
1.9515224668
 30
0.0
 40
0.2910416667
 41
0.0
 71
     1
 72
     1
  1
A4
  7
SLDTEXTSTYLE0
 73
     1
 44
1.0
  0
MTEXT
  5
70
330
1F
100
AcDbEntity
  8
0
  6
Continuous
 62
     7
370
     0
100
AcDbMText
 10
16.2357137993
 20
0.8114867431
 30
0.0
 40
0.15
 41
0.0
 71
     1
 72
     1
  1
FOGLIO 1 DI 1
  7
SLDTEXTSTYLE1
 73
     1
 44
1.0
  0
MTEXT
  5
71
330
1F
100
AcDbEntity
  8
0
  6
Continuous
 62
     7
370
     0
100
AcDbMText
 10
11.0184787029
 20
0.8021014532
 30
0.0
 40
0.15
 41
0.0
 71
     1
 72
     1
  1
SCALA:1:20
  7
SLDTEXTSTYLE0
 73
     1
 44
1.0
  0
MTEXT
  5
72
330
1F
100
AcDbEntity
  8
0
  6
Continuous
 62
     7
370
     0
100
AcDbMText
 10
11.0184787029
 20
1.9989565085
 30
0.0
 40
0.15
 41
0.0
 71
     1
 72
     1
  1
N. DISEGNO
  7
SLDTEXTSTYLE0
 73
     1
 44
1.0
  0
MTEXT
  5
73
330
1F
100
AcDbEntity
  8
0
  6
Continuous
 62
     7
370
     0
100
AcDbMText
 10
11.0067007848
 20
4.1399261544
 30
0.0
 40
0.15
 41
0.0
 71
     1
 72
     1
  1
TITOLO:
  7
SLDTEXTSTYLE0
 73
     1
 44
1.0
  0
MTEXT
  5
74
330
1F
100
AcDbEntity
  8
0
  6
Continuous
 62
     7
370
     0
100
AcDbMText
 10
17.1206425265
 20
5.7549688837
 30
0.0
 40
0.15
 41
0.0
 71
     1
 72
     1
  1
REVISIONE
  7
SLDTEXTSTYLE0
 73
     1
 44
1.0
  0
MTEXT
  5
75
330
1F
100
AcDbEntity
  8
0
  6
Continuous
 62
     7
370
     0
100
AcDbMText
 10
13.0493484088
 20
5.7747773732
 30
0.0
 40
0.15
 41
0.0
 71
     1
 72
     1
  1
NON SCALARE IL DISEGNO
  7
SLDTEXTSTYLE0
 73
     1
 44
1.0
  0
MTEXT
  5
76
330
1F
100
AcDbEntity
  8
0
  6
Continuous
 62
     7
370
     0
100
AcDbMText
 10
6.575668322
 20
2.1106983547
 30
0.0
 40
0.15
 41
0.0
 71
     1
 72
     1
  1
MATERIALE:
  7
SLDTEXTSTYLE0
 73
     1
 44
1.0
  0
MTEXT
  5
77
330
1F
100
AcDbEntity
  8
0
  6
Continuous
 62
     7
370
     0
100
AcDbMText
 10
5.7325522877
 20
4.1697106479
 30
0.0
 40
0.15
 41
0.0
 71
     1
 72
     1
  1
DATA
  7
SLDTEXTSTYLE0
 73
     1
 44
1.0
  0
MTEXT
  5
78
330
1F
100
AcDbEntity
  8
0
  6
Continuous
 62
     7
370
     0
100
AcDbMText
 10
4.0144408475
 20
4.1682683637
 30
0.0
 40
0.15
 41
0.0
 71
     1
 72
     1
  1
FIRMA
  7
SLDTEXTSTYLE0
 73
     1
 44
1.0
  0
MTEXT
  5
79
330
1F
100
AcDbEntity
  8
0
  6
Continuous
 62
     7
370
     0
100
AcDbMText
 10
2.4433060129
 20
4.1622409891
 30
0.0
 40
0.15
 41
0.0
 71
     1
 72
     1
  1
NOME
  7
SLDTEXTSTYLE0
 73
     1
 44
1.0
  0
INSERT
  5
80
330
1F
100
AcDbEntity
  8
0
  6
Continuous
 62
     7
370
     0
100
AcDbBlockReference
  2
SW_NOTE_0
 10
9.1420036598
 20
5.7190416901
 30
0.0
  0
MTEXT
  5
81
330
1F
100
AcDbEntity
  8
0
  6
Continuous
 62
     7
370
     0
100
AcDbMText
 10
4.4482113078
 20
5.9040199253
 30
0.0
 40
0.15
 41
0.0
 71
     1
 72
     1
  1
FINITURA:
  7
SLDTEXTSTYLE0
 73
     1
 44
1.0
  0
INSERT
  5
8B
330
1F
100
AcDbEntity
  8
0
  6
Continuous
 62
     7
370
     0
100
AcDbBlockReference
  2
SW_NOTE_1
 10
1.0704489657
 20
5.7108297132
 30
0.0
  0
MTEXT
  5
8C
330
1F
100
AcDbEntity
  8
0
  6
Continuous
 62
     7
370
     0
100
AcDbMText
 10
1.0779863774
 20
2.0470576465
 30
0.0
 40
0.15
 41
0.0
 71
     1
 72
     1
  1
QUALITA'
  7
SLDTEXTSTYLE0
 73
     1
 44
1.0
  0
MTEXT
  5
8D
330
1F
100
AcDbEntity
  8
0
  6
Continuous
 62
     7
370
     0
100
AcDbMText
 10
1.0566007411
 20
2.4854631908
 30
0.0
 40
0.15
 41
0.0
 71
     1
 72
     1
  1
FATTO
  7
SLDTEXTSTYLE0
 73
     1
 44
1.0
  0
MTEXT
  5
8E
330
1F
100
AcDbEntity
  8
0
  6
Continuous
 62
     7
370
     0
100
AcDbMText
 10
1.051254332
 20
2.9185223261
 30
0.0
 40
0.15
 41
0.0
 71
     1
 72
     1
  1
APPROVATO
  7
SLDTEXTSTYLE0
 73
     1
 44
1.0
  0
MTEXT
  5
8F
330
1F
100
AcDbEntity
  8
0
  6
Continuous
 62
     7
370
     0
100
AcDbMText
 10
1.0521289779
 20
3.3275334418
 30
0.0
 40
0.15
 41
0.0
 71
     1
 72
     1
  1
VERIFICATO
  7
SLDTEXTSTYLE0
 73
     1
 44
1.0
  0
MTEXT
  5
90
330
1F
100
AcDbEntity
  8
0
  6
Continuous
 62
     7
370
     0
100
AcDbMText
 10
1.0322970156
 20
3.7550642144
 30
0.0
 40
0.15
 41
0.0
 71
     1
 72
     1
  1
DISEGNATO
  7
SLDTEXTSTYLE0
 73
     1
 44
1.0
  0
SPLINE
  5
91
330
1F
100
AcDbEntity
  8
0
  6
Continuous
 62
     7
370
    15
100
AcDbSpline
210
0.0
220
0.0
230
1.0
 70
     8
 71
     3
 72
    11
 73
     7
 74
     0
 42
0.00000001
 43
0.00000001
 40
0.0
 40
0.0
 40
0.0
 40
0.0
 40
0.2458484759333433
 40
0.4999999997826547
 40
0.7541515237418372
 40
1.0
 40
1.0
 40
1.0
 40
1.0
 10
10.44346548745087
 20
22.07984072207998
 30
0.0
 10
10.44380876446017
 20
22.0800851725948
 30
0.0
 10
10.44450691198346
 20
22.08058232945899
 30
0.0
 10
10.44527097042947
 20
22.08163909507144
 30
0.0
 10
10.44577659752981
 20
22.08284112672396
 30
0.0
 10
10.4458384173711
 20
22.08369596776192
 30
0.0
 10
10.44586881399865
 20
22.08411629049498
 30
0.0
  0
SPLINE
  5
92
330
1F
100
AcDbEntity
  8
0
  6
Continuous
 62
     7
370
    15
100
AcDbSpline
210
0.0
220
0.0
230
1.0
 70
     8
 71
     3
 72
    11
 73
     7
 74
     0
 42
0.00000001
 43
0.00000001
 40
0.0
 40
0.0
 40
0.0
 40
0.0
 40
0.2458484762581589
 40
0.5000000002173222
 40
0.7541515240664534
 40
1.0
 40
1.0
 40
1.0
 40
1.0
 10
10.44586881399865
 20
22.04992802330498
 30
0.0
 10
10.4458384173711
 20
22.05034834603804
 30
0.0
 10
10.44577659752981
 20
22.05120318707599
 30
0.0
 10
10.44527097042947
 20
22.05240521872853
 30
0.0
 10
10.44450691198346
 20
22.05346198434096
 30
0.0
 10
10.44380876446017
 20
22.05395914120515
 30
0.0
 10
10.44346548745087
 20
22.05420359171998
 30
0.0
  0
SPLINE
  5
93
330
1F
100
AcDbEntity
  8
0
  6
Continuous
 62
     7
370
    15
100
AcDbSpline
210
0.0
220
0.0
230
1.0
 70
     8
 71
     3
 72
    11
 73
     7
 74
     0
 42
0.00000001
 43
0.00000001
 40
0.0
 40
0.0
 40
0.0
 40
0.0
 40
0.2457847748995707
 40
0.4999999998259705
 40
0.7542152248431172
 40
0.9999999999999999
 40
0.9999999999999999
 40
0.9999999999999999
 40
0.9999999999999999
 10
10.40343205667657
 20
23.36490823721998
 30
0.0
 10
10.40336740583368
 20
23.36532779913577
 30
0.0
 10
10.40323588661551
 20
23.36618131399612
 30
0.0
 10
10.40262749524469
 20
23.36734627523196
 30
0.0
 10
10.40176985964631
 20
23.36834213462681
 30
0.0
 10
10.40102537959782
 20
23.3687797810598
 30
0.0
 10
10.4006594158753
 20
23.36899491471998
 30
0.0
  0
SPLINE
  5
94
330
1F
100
AcDbEntity
  8
0
  6
Continuous
 62
     7
370
    15
100
AcDbSpline
210
0.0
220
0.0
230
1.0
 70
     8
 71
     3
 72
    11
 73
     7
 74
     0
 42
0.00000001
 43
0.00000001
 40
0.0
 40
0.0
 40
0.0
 40
0.0
 40
0.245784775157079
 40
0.5000000001741699
 40
0.7542152251008476
 40
1.0
 40
1.0
 40
1.0
 40
1.0
 10
10.4006594158753
 20
20.76504939907998
 30
0.0
 10
10.40102537959782
 20
20.76526453274016
 30
0.0
 10
10.40176985964631
 20
20.76570217917315
 30
0.0
 10
10.4026274952447
 20
20.76669803856799
 30
0.0
 10
10.4032358866155
 20
20.76786299980384
 30
0.0
 10
10.40336740583368
 20
20.76871651466419
 30
0.0
 10
10.40343205667657
 20
20.76913607657998
 30
0.0
  0
SPLINE
  5
95
330
1F
100
AcDbEntity
  8
0
  6
Continuous
 62
     7
370
    15
100
AcDbSpline
210
0.0
220
0.0
230
1.0
 70
     8
 71
     3
 72
    11
 73
     7
 74
     0
 42
0.00000001
 43
0.00000001
 40
0.0
 40
0.0
 40
0.0
 40
0.0
 40
0.2457847746629384
 40
0.4999999997771034
 40
0.7542152250264775
 40
1.0
 40
1.0
 40
1.0
 40
1.0
 10
10.39857727681571
 20
23.39465522619998
 30
0.0
 10
10.39890376843024
 20
23.39492654734209
 30
0.0
 10
10.3995679503651
 20
23.39547849597756
 30
0.0
 10
10.40025381061702
 20
23.39659959831606
 30
0.0
 10
10.40066642411264
 20
23.39784740632726
 30
0.0
 10
10.40065861632472
 20
23.39871095943007
 30
0.0
 10
10.40065477825392
 20
23.39913545583998
 30
0.0
  0
SPLINE
  5
96
330
1F
100
AcDbEntity
  8
0
  6
Continuous
 62
     7
370
    15
100
AcDbSpline
210
0.0
220
0.0
230
1.0
 70
     8
 71
     3
 72
    11
 73
     7
 74
     0
 42
0.00000001
 43
0.00000001
 40
0.0
 40
0.0
 40
0.0
 40
0.0
 40
0.2457847749732234
 40
0.50000000022262
 40
0.7542152253368641
 40
1.0
 40
1.0
 40
1.0
 40
1.0
 10
10.40065477825392
 20
20.73490885795998
 30
0.0
 10
10.40065861632472
 20
20.73533335436989
 30
0.0
 10
10.40066642411264
 20
20.7361969074727
 30
0.0
 10
10.40025381061702
 20
20.7374447154839
 30
0.0
 10
10.3995679503651
 20
20.73856581782239
 30
0.0
 10
10.39890376843024
 20
20.73911776645787
 30
0.0
 10
10.39857727681571
 20
20.73938908759998
 30
0.0
  0
SPLINE
  5
97
330
1F
100
AcDbEntity
  8
0
  6
Continuous
 62
     7
370
    15
100
AcDbSpline
210
0.0
220
0.0
230
1.0
 70
     8
 71
     3
 72
    11
 73
     7
 74
     0
 42
0.00000001
 43
0.00000001
 40
0.0
 40
0.0
 40
0.0
 40
0.0
 40
0.2451012314175671
 40
0.4999999977909685
 40
0.7548987652681235
 40
1.0
 40
1.0
 40
1.0
 40
1.0
 10
10.392293979039
 20
20.75159642393998
 30
0.0
 10
10.39240172822893
 20
20.75296066469361
 30
0.0
 10
10.39262153371265
 20
20.75574367957224
 30
0.0
 10
10.39440432965718
 20
20.75961156727349
 30
0.0
 10
10.39708476487273
 20
20.76292127787223
 30
0.0
 10
10.39948353293891
 20
20.76434935308647
 30
0.0
 10
10.40065941496342
 20
20.76504939907998
 30
0.0
  0
SPLINE
  5
98
330
1F
100
AcDbEntity
  8
0
  6
Continuous
 62
     7
370
    15
100
AcDbSpline
210
0.0
220
0.0
230
1.0
 70
     8
 71
     3
 72
    11
 73
     7
 74
     0
 42
0.00000001
 43
0.00000001
 40
0.0
 40
0.0
 40
0.0
 40
0.0
 40
0.2451012347318359
 40
0.5000000022089884
 40
0.7548987685823926
 40
1.0
 40
1.0
 40
1.0
 40
1.0
 10
10.40065941496342
 20
23.36899491471998
 30
0.0
 10
10.39948353293891
 20
23.36969496071349
 30
0.0
 10
10.39708476487273
 20
23.37112303592772
 30
0.0
 10
10.39440432965718
 20
23.37443274652647
 30
0.0
 10
10.39262153371265
 20
23.37830063422772
 30
0.0
 10
10.39240172822893
 20
23.38108364910635
 30
0.0
 10
10.392293979039
 20
23.38244788985998
 30
0.0
  0
SPLINE
  5
99
330
1F
100
AcDbEntity
  8
0
  6
Continuous
 62
     7
370
    15
100
AcDbSpline
210
0.0
220
0.0
230
1.0
 70
     8
 71
     3
 72
    10
 73
     6
 74
     0
 42
0.00000001
 43
0.00000001
 40
0.0
 40
0.0
 40
0.0
 40
0.0
 40
0.2771500503442482
 40
0.5621962819995454
 40
1.0
 40
1.0
 40
1.0
 40
1.0
 10
10.39857727724639
 20
20.73938908759998
 30
0.0
 10
10.39757070300258
 20
20.74023549981886
 30
0.0
 10
10.39552887657418
 20
20.7419524390794
 30
0.0
 10
10.392966368767
 20
20.74607729178514
 30
0.0
 10
10.39254760919143
 20
20.74951458278024
 30
0.0
 10
10.39229398186639
 20
20.75159642393998
 30
0.0
  0
SPLINE
  5
9A
330
1F
100
AcDbEntity
  8
0
  6
Continuous
 62
     7
370
    15
100
AcDbSpline
210
0.0
220
0.0
230
1.0
 70
     8
 71
     3
 72
    10
 73
     6
 74
     0
 42
0.00000001
 43
0.00000001
 40
0.0
 40
0.0
 40
0.0
 40
0.0
 40
0.2771500502894328
 40
0.5621962819291826
 40
0.9999999999999999
 40
0.9999999999999999
 40
0.9999999999999999
 40
0.9999999999999999
 10
10.39229398186639
 20
23.38244788985998
 30
0.0
 10
10.39239787708494
 20
23.38375892423615
 30
0.0
 10
10.39260862756295
 20
23.3864183451924
 30
0.0
 10
10.39447641694396
 20
23.39090077967985
 30
0.0
 10
10.39703041452797
 20
23.39323903229869
 30
0.0
 10
10.39857727724639
 20
23.39465522619998
 30
0.0
  0
ARC
  5
9B
330
1F
100
AcDbEntity
  8
0
  6
Continuous
 62
     7
370
    15
100
AcDbCircle
 10
40.788021443
 20
22.067022156
 30
0.0
 40
31.49999991645517
100
AcDbArc
 50
180.0310927527
 51
180.8763552764
  0
ARC
  5
9C
330
1F
100
AcDbEntity
  8
0
  6
Continuous
 62
     7
370
    15
100
AcDbCircle
 10
-21.0541264638
 20
22.067022156
 30
0.0
 40
31.49999991645517
100
AcDbArc
 50
359.1236447236
 51
359.9689072473
  0
ARC
  5
9D
330
1F
100
AcDbEntity
  8
0
  6
Continuous
 62
     7
370
    15
100
AcDbCircle
 10
40.788021443
 20
22.0670221578
 30
0.0
 40
31.49999991645517
100
AcDbArc
 50
179.1236447236
 51
179.9689072473
  0
ARC
  5
9E
330
1F
100
AcDbEntity
  8
0
  6
Continuous
 62
     7
370
    15
100
AcDbCircle
 10
-21.0541264638
 20
22.0670221578
 30
0.0
 40
31.49999991645517
100
AcDbArc
 50
0.0310927527
 51
0.8763552764
  0
ARC
  5
9F
330
1F
100
AcDbEntity
  8
0
  6
Continuous
 62
     7
370
    15
100
AcDbCircle
 10
10.4512555063
 20
22.0670221569
 30
0.0
 40
0.015000000001121
100
AcDbArc
 50
121.2876256993
 51
238.7123743007
  0
ARC
  5
A0
330
1F
100
AcDbEntity
  8
0
  6
Continuous
 62
     7
370
    15
100
AcDbCircle
 10
9.2826394729
 20
22.0670221569
 30
0.0
 40
0.015000000001121
100
AcDbArc
 50
301.2876256993
 51
58.7123743007
  0
ARC
  5
A1
330
1F
100
AcDbEntity
  8
0
  6
Continuous
 62
     7
370
    15
100
AcDbCircle
 10
21.9952199873
 20
22.3544858293
 30
0.0
 40
12.70499999845006
100
AcDbArc
 50
175.438477598
 51
179.1236447245
  0
ARC
  5
A2
330
1F
100
AcDbEntity
  8
0
  6
Continuous
 62
     7
370
    15
100
AcDbCircle
 10
-2.2613250081
 20
22.3544858293
 30
0.0
 40
12.70499999845006
100
AcDbArc
 50
0.8763552755
 51
4.561522402
  0
ARC
  5
A3
330
1F
100
AcDbEntity
  8
0
  6
Continuous
 62
     7
370
    15
100
AcDbCircle
 10
21.9952199873
 20
21.7795584845
 30
0.0
 40
12.70499999845006
100
AcDbArc
 50
180.8763552755
 51
184.561522402
  0
ARC
  5
A4
330
1F
100
AcDbEntity
  8
0
  6
Continuous
 62
     7
370
    15
100
AcDbCircle
 10
-2.2613250081
 20
21.7795584845
 30
0.0
 40
12.70499999845006
100
AcDbArc
 50
355.4384775981
 51
359.1236447245
  0
SPLINE
  5
A5
330
1F
100
AcDbEntity
  8
0
  6
Continuous
 62
     7
370
    15
100
AcDbSpline
210
0.0
220
0.0
230
1.0
 70
     8
 71
     3
 72
    11
 73
     7
 74
     0
 42
0.00000001
 43
0.00000001
 40
0.0
 40
0.0
 40
0.0
 40
0.0
 40
0.2458484762583008
 40
0.5000000002174035
 40
0.754151524066453
 40
1.0
 40
1.0
 40
1.0
 40
1.0
 10
9.288026165194129
 20
22.08411629049498
 30
0.0
 10
9.288056561821683
 20
22.08369596776192
 30
0.0
 10
9.288118381662972
 20
22.08284112672396
 30
0.0
 10
9.288624008763309
 20
22.08163909507143
 30
0.0
 10
9.28938806720932
 20
22.08058232945899
 30
0.0
 10
9.290086214732609
 20
22.0800851725948
 30
0.0
 10
9.290429491741916
 20
22.07984072207998
 30
0.0
  0
SPLINE
  5
A6
330
1F
100
AcDbEntity
  8
0
  6
Continuous
 62
     7
370
    15
100
AcDbSpline
210
0.0
220
0.0
230
1.0
 70
     8
 71
     3
 72
    11
 73
     7
 74
     0
 42
0.00000001
 43
0.00000001
 40
0.0
 40
0.0
 40
0.0
 40
0.0
 40
0.2458484759334008
 40
0.4999999997826705
 40
0.7541515237416363
 40
1.0
 40
1.0
 40
1.0
 40
1.0
 10
9.290429491741916
 20
22.05420359171998
 30
0.0
 10
9.29008621473261
 20
22.05395914120515
 30
0.0
 10
9.28938806720932
 20
22.05346198434096
 30
0.0
 10
9.288624008763309
 20
22.05240521872853
 30
0.0
 10
9.288118381662972
 20
22.05120318707599
 30
0.0
 10
9.288056561821683
 20
22.05034834603804
 30
0.0
 10
9.288026165194129
 20
22.04992802330498
 30
0.0
  0
ARC
  5
A7
330
1F
100
AcDbEntity
  8
0
  6
Continuous
 62
     7
370
    15
100
AcDbCircle
 10
21.9952199888
 20
21.7795584845
 30
0.0
 40
12.70499999998883
100
AcDbArc
 50
184.7163843555
 51
193.3952291669
  0
ARC
  5
A8
330
1F
100
AcDbEntity
  8
0
  6
Continuous
 62
     7
370
    15
100
AcDbCircle
 10
-2.2613250096
 20
21.7795584845
 30
0.0
 40
12.70499999998884
100
AcDbArc
 50
346.6047708331
 51
355.2836156445
  0
ARC
  5
A9
330
1F
100
AcDbEntity
  8
0
  6
Continuous
 62
     7
370
    15
100
AcDbCircle
 10
21.9952199888
 20
22.3544858293
 30
0.0
 40
12.70499999998884
100
AcDbArc
 50
166.6047708331
 51
175.2836156445
  0
ARC
  5
AA
330
1F
100
AcDbEntity
  8
0
  6
Continuous
 62
     7
370
    15
100
AcDbCircle
 10
-2.2613250096
 20
22.3544858293
 30
0.0
 40
12.70499999998884
100
AcDbArc
 50
4.7163843555
 51
13.3952291669
  0
SPLINE
  5
AB
330
1F
100
AcDbEntity
  8
0
  6
Continuous
 62
     7
370
    15
100
AcDbSpline
210
0.0
220
0.0
230
1.0
 70
     8
 71
     3
 72
    11
 73
     7
 74
     0
 42
0.00000001
 43
0.00000001
 40
0.0
 40
0.0
 40
0.0
 40
0.0
 40
0.2457847751570167
 40
0.5000000001741816
 40
0.7542152251006087
 40
1.0
 40
1.0
 40
1.0
 40
1.0
 10
9.333235563317482
 20
23.36899491471998
 30
0.0
 10
9.332869599594956
 20
23.3687797810598
 30
0.0
 10
9.332125119546465
 20
23.36834213462681
 30
0.0
 10
9.331267483948086
 20
23.36734627523197
 30
0.0
 10
9.330659092577276
 20
23.36618131399612
 30
0.0
 10
9.3305275733591
 20
23.36532779913577
 30
0.0
 10
9.330462922516212
 20
23.36490823721998
 30
0.0
  0
SPLINE
  5
AC
330
1F
100
AcDbEntity
  8
0
  6
Continuous
 62
     7
370
    15
100
AcDbSpline
210
0.0
220
0.0
230
1.0
 70
     8
 71
     3
 72
    11
 73
     7
 74
     0
 42
0.00000001
 43
0.00000001
 40
0.0
 40
0.0
 40
0.0
 40
0.0
 40
0.2457847748990045
 40
0.4999999998257591
 40
0.7542152248429119
 40
1.0
 40
1.0
 40
1.0
 40
1.0
 10
9.330462922516212
 20
20.76913607657998
 30
0.0
 10
9.3305275733591
 20
20.76871651466419
 30
0.0
 10
9.330659092577278
 20
20.76786299980384
 30
0.0
 10
9.331267483948086
 20
20.76669803856799
 30
0.0
 10
9.332125119546467
 20
20.76570217917315
 30
0.0
 10
9.332869599594956
 20
20.76526453274016
 30
0.0
 10
9.333235563317482
 20
20.76504939907998
 30
0.0
  0
SPLINE
  5
AD
330
1F
100
AcDbEntity
  8
0
  6
Continuous
 62
     7
370
    15
100
AcDbSpline
210
0.0
220
0.0
230
1.0
 70
     8
 71
     3
 72
    11
 73
     7
 74
     0
 42
0.00000001
 43
0.00000001
 40
0.0
 40
0.0
 40
0.0
 40
0.0
 40
0.245784774662901
 40
0.4999999997773187
 40
0.7542152250267904
 40
1.0
 40
1.0
 40
1.0
 40
1.0
 10
9.335317702377068
 20
20.73938908759998
 30
0.0
 10
9.334991210762535
 20
20.73911776645787
 30
0.0
 10
9.33432702882768
 20
20.73856581782239
 30
0.0
 10
9.333641168575763
 20
20.7374447154839
 30
0.0
 10
9.333228555080142
 20
20.7361969074727
 30
0.0
 10
9.333236362868066
 20
20.73533335436989
 30
0.0
 10
9.33324020093886
 20
20.73490885795998
 30
0.0
  0
SPLINE
  5
AE
330
1F
100
AcDbEntity
  8
0
  6
Continuous
 62
     7
370
    15
100
AcDbSpline
210
0.0
220
0.0
230
1.0
 70
     8
 71
     3
 72
    11
 73
     7
 74
     0
 42
0.00000001
 43
0.00000001
 40
0.0
 40
0.0
 40
0.0
 40
0.0
 40
0.2457847749735246
 40
0.5000000002224856
 40
0.754215225337206
 40
1.0
 40
1.0
 40
1.0
 40
1.0
 10
9.33324020093886
 20
23.39913545583998
 30
0.0
 10
9.333236362868066
 20
23.39871095943007
 30
0.0
 10
9.333228555080142
 20
23.39784740632726
 30
0.0
 10
9.333641168575765
 20
23.39659959831607
 30
0.0
 10
9.334327028827678
 20
23.39547849597756
 30
0.0
 10
9.334991210762535
 20
23.39492654734209
 30
0.0
 10
9.335317702377068
 20
23.39465522619998
 30
0.0
  0
SPLINE
  5
AF
330
1F
100
AcDbEntity
  8
0
  6
Continuous
 62
     7
370
    15
100
AcDbSpline
210
0.0
220
0.0
230
1.0
 70
     8
 71
     3
 72
    11
 73
     7
 74
     0
 42
0.00000001
 43
0.00000001
 40
0.0
 40
0.0
 40
0.0
 40
0.0
 40
0.2451012314176263
 40
0.4999999977911161
 40
0.7548987652681366
 40
0.9999999999999999
 40
0.9999999999999999
 40
0.9999999999999999
 40
0.9999999999999999
 10
9.341601000153782
 20
23.38244788985998
 30
0.0
 10
9.341493250963845
 20
23.38108364910634
 30
0.0
 10
9.341273445480134
 20
23.37830063422772
 30
0.0
 10
9.339490649535605
 20
23.37443274652646
 30
0.0
 10
9.336810214320051
 20
23.37112303592773
 30
0.0
 10
9.334411446253874
 20
23.36969496071349
 30
0.0
 10
9.333235564229357
 20
23.36899491471998
 30
0.0
  0
SPLINE
  5
B0
330
1F
100
AcDbEntity
  8
0
  6
Continuous
 62
     7
370
    15
100
AcDbSpline
210
0.0
220
0.0
230
1.0
 70
     8
 71
     3
 72
    11
 73
     7
 74
     0
 42
0.00000001
 43
0.00000001
 40
0.0
 40
0.0
 40
0.0
 40
0.0
 40
0.245101234731864
 40
0.5000000022090652
 40
0.7548987685825131
 40
1.0
 40
1.0
 40
1.0
 40
1.0
 10
9.333235564229357
 20
20.76504939907998
 30
0.0
 10
9.334411446253874
 20
20.76434935308647
 30
0.0
 10
9.336810214320053
 20
20.76292127787223
 30
0.0
 10
9.339490649535604
 20
20.75961156727349
 30
0.0
 10
9.341273445480134
 20
20.75574367957224
 30
0.0
 10
9.341493250963845
 20
20.75296066469361
 30
0.0
 10
9.341601000153782
 20
20.75159642393998
 30
0.0
  0
SPLINE
  5
B1
330
1F
100
AcDbEntity
  8
0
  6
Continuous
 62
     7
370
    15
100
AcDbSpline
210
0.0
220
0.0
230
1.0
 70
     8
 71
     3
 72
    10
 73
     6
 74
     0
 42
0.00000001
 43
0.00000001
 40
0.0
 40
0.0
 40
0.0
 40
0.0
 40
0.2771500503443352
 40
0.5621962819995729
 40
0.9999999999999999
 40
0.9999999999999999
 40
0.9999999999999999
 40
0.9999999999999999
 10
9.33531770194639
 20
23.39465522619998
 30
0.0
 10
9.3363242761902
 20
23.39380881398109
 30
0.0
 10
9.338366102618602
 20
23.39209187472056
 30
0.0
 10
9.340928610425777
 20
23.38796702201482
 30
0.0
 10
9.341347370001351
 20
23.38452973101971
 30
0.0
 10
9.34160099732639
 20
23.38244788985998
 30
0.0
  0
SPLINE
  5
B2
330
1F
100
AcDbEntity
  8
0
  6
Continuous
 62
     7
370
    15
100
AcDbSpline
210
0.0
220
0.0
230
1.0
 70
     8
 71
     3
 72
    10
 73
     6
 74
     0
 42
0.00000001
 43
0.00000001
 40
0.0
 40
0.0
 40
0.0
 40
0.0
 40
0.2771500502894718
 40
0.5621962819291524
 40
0.9999999999999999
 40
0.9999999999999999
 40
0.9999999999999999
 40
0.9999999999999999
 10
9.34160099732639
 20
20.75159642393998
 30
0.0
 10
9.34149710210784
 20
20.75028538956381
 30
0.0
 10
9.341286351629831
 20
20.74762596860756
 30
0.0
 10
9.339418562248815
 20
20.74314353412012
 30
0.0
 10
9.336864564664813
 20
20.74080528150126
 30
0.0
 10
9.33531770194639
 20
20.73938908759998
 30
0.0
  0
SPLINE
  5
B3
330
1F
100
AcDbEntity
  8
0
  6
Continuous
 62
     7
370
    15
100
AcDbSpline
210
0.0
220
0.0
230
1.0
 70
     8
 71
     3
 72
    11
 73
     7
 74
     0
 42
0.00000001
 43
0.00000001
 40
0.0
 40
0.0
 40
0.0
 40
0.0
 40
0.2465000321511392
 40
0.5029599722742126
 40
0.7579135420048803
 40
1.0
 40
1.0
 40
1.0
 40
1.0
 10
10.09803755509573
 20
25.29781382946998
 30
0.0
 10
10.09716077926391
 20
25.30037984864621
 30
0.0
 10
10.09537180120894
 20
25.30561556777559
 30
0.0
 10
10.08934820793013
 20
25.31197998691895
 30
0.0
 10
10.08160553454233
 20
25.31624667799498
 30
0.0
 10
10.07584779174815
 20
25.31676816391639
 30
0.0
 10
10.07304344706495
 20
25.31702215689998
 30
0.0
  0
SPLINE
  5
B4
330
1F
100
AcDbEntity
  8
0
  6
Continuous
 62
     7
370
    15
100
AcDbSpline
210
0.0
220
0.0
230
1.0
 70
     8
 71
     3
 72
    11
 73
     7
 74
     0
 42
0.00000001
 43
0.00000001
 40
0.0
 40
0.0
 40
0.0
 40
0.0
 40
0.2420864579951135
 40
0.4970400277257633
 40
0.7534999678488503
 40
1.0
 40
1.0
 40
1.0
 40
1.0
 10
10.07304344706495
 20
18.81702215689998
 30
0.0
 10
10.07584779174815
 20
18.81727614988358
 30
0.0
 10
10.08160553454233
 20
18.81779763580499
 30
0.0
 10
10.08934820793013
 20
18.82206432688101
 30
0.0
 10
10.09537180120894
 20
18.82842874602437
 30
0.0
 10
10.09716077926391
 20
18.83366446515375
 30
0.0
 10
10.09803755509573
 20
18.83623048432998
 30
0.0
  0
SPLINE
  5
B5
330
1F
100
AcDbEntity
  8
0
  6
Continuous
 62
     7
370
    15
100
AcDbSpline
210
0.0
220
0.0
230
1.0
 70
     8
 71
     3
 72
    11
 73
     7
 74
     0
 42
0.00000001
 43
0.00000001
 40
0.0
 40
0.0
 40
0.0
 40
0.0
 40
0.2420864579951163
 40
0.4970400277257972
 40
0.753499967848856
 40
1.0
 40
1.0
 40
1.0
 40
1.0
 10
9.660851532127829
 20
25.31702215689998
 30
0.0
 10
9.65804718744463
 20
25.31676816391638
 30
0.0
 10
9.652289444650451
 20
25.31624667799497
 30
0.0
 10
9.644546771262652
 20
25.31197998691895
 30
0.0
 10
9.638523177983835
 20
25.3056155677756
 30
0.0
 10
9.636734199928872
 20
25.30037984864621
 30
0.0
 10
9.635857424097045
 20
25.29781382946998
 30
0.0
  0
SPLINE
  5
B6
330
1F
100
AcDbEntity
  8
0
  6
Continuous
 62
     7
370
    15
100
AcDbSpline
210
0.0
220
0.0
230
1.0
 70
     8
 71
     3
 72
    11
 73
     7
 74
     0
 42
0.00000001
 43
0.00000001
 40
0.0
 40
0.0
 40
0.0
 40
0.0
 40
0.2465000321511651
 40
0.5029599722742439
 40
0.7579135420048898
 40
1.0
 40
1.0
 40
1.0
 40
1.0
 10
9.635857424097045
 20
18.83623048432998
 30
0.0
 10
9.636734199928872
 20
18.83366446515376
 30
0.0
 10
9.638523177983837
 20
18.82842874602437
 30
0.0
 10
9.644546771262652
 20
18.82206432688101
 30
0.0
 10
9.652289444650453
 20
18.81779763580499
 30
0.0
 10
9.65804718744463
 20
18.81727614988358
 30
0.0
 10
9.66085153212783
 20
18.81702215689998
 30
0.0
  0
LINE
  5
B7
330
1F
100
AcDbEntity
  8
0
  6
Continuous
 62
     7
370
    15
100
AcDbLine
 10
10.2514192607
 20
16.6445221568
 30
0.0
 11
10.2514192607
 21
16.6420221568
 31
0.0
  0
LINE
  5
B8
330
1F
100
AcDbEntity
  8
0
  6
Continuous
 62
     7
370
    15
100
AcDbLine
 10
10.2814192607
 20
16.6420221568
 30
0.0
 11
10.2814192607
 21
16.6445221568
 31
0.0
  0
LINE
  5
B9
330
1F
100
AcDbEntity
  8
0
  6
Continuous
 62
     7
370
    15
100
AcDbLine
 10
9.91634825
 20
18.7492104936
 30
0.0
 11
9.91634825
 21
18.7670221568
 31
0.0
  0
LINE
  5
BA
330
1F
100
AcDbEntity
  8
0
  6
Continuous
 62
     7
370
    15
100
AcDbLine
 10
9.91634825
 20
16.9516249582
 30
0.0
 11
9.91634825
 21
18.7348427845
 31
0.0
  0
LINE
  5
BB
330
1F
100
AcDbEntity
  8
0
  6
Continuous
 62
     7
370
    15
100
AcDbLine
 10
9.91634825
 20
16.7842104936
 30
0.0
 11
9.91634825
 21
16.7971729931
 31
0.0
  0
LINE
  5
BC
330
1F
100
AcDbEntity
  8
0
  6
Continuous
 62
     7
370
    15
100
AcDbLine
 10
9.91634825
 20
16.6520221568
 30
0.0
 11
9.91634825
 21
16.7698427845
 31
0.0
  0
LINE
  5
BD
330
1F
100
AcDbEntity
  8
0
  6
Continuous
 62
     7
370
    15
100
AcDbLine
 10
9.82634825
 20
18.7670221568
 30
0.0
 11
9.82634825
 21
16.6520221568
 31
0.0
  0
SPLINE
  5
BE
330
1F
100
AcDbEntity
  8
0
  6
Continuous
 62
     7
370
    15
100
AcDbSpline
210
0.0
220
0.0
230
1.0
 70
     8
 71
     3
 72
    10
 73
     6
 74
     0
 42
0.00000001
 43
0.00000001
 40
0.0
 40
0.0
 40
0.0
 40
0.0
 40
0.5
 40
0.5
 40
1.0
 40
1.0
 40
1.0
 40
1.0
 10
9.679629535928319
 20
22.08411629049498
 30
0.0
 10
9.679629392391842
 20
22.08329883413692
 30
0.0
 10
9.679698559343558
 20
22.08242511314559
 30
0.0
 10
9.679975573377382
 20
22.0809020321262
 30
0.0
 10
9.680181131826533
 20
22.08026525548012
 30
0.0
 10
9.680407165245477
 20
22.07984072207998
 30
0.0
  0
SPLINE
  5
BF
330
1F
100
AcDbEntity
  8
0
  6
Continuous
 62
     7
370
    15
100
AcDbSpline
210
0.0
220
0.0
230
1.0
 70
     8
 71
     3
 72
    10
 73
     6
 74
     0
 42
0.00000001
 43
0.00000001
 40
0.0
 40
0.0
 40
0.0
 40
0.0
 40
0.5
 40
0.5
 40
1.0
 40
1.0
 40
1.0
 40
1.0
 10
9.680407165245477
 20
22.05420359171998
 30
0.0
 10
9.680181131826533
 20
22.05377905831984
 30
0.0
 10
9.679975573377382
 20
22.05314228167375
 30
0.0
 10
9.679698559343558
 20
22.05161920065436
 30
0.0
 10
9.679629392391842
 20
22.05074547966305
 30
0.0
 10
9.679629535928319
 20
22.04992802330498
 30
0.0
  0
SPLINE
  5
C0
330
1F
100
AcDbEntity
  8
0
  6
Continuous
 62
     7
370
    15
100
AcDbSpline
210
0.0
220
0.0
230
1.0
 70
     8
 71
     3
 72
    10
 73
     6
 74
     0
 42
0.00000001
 43
0.00000001
 40
0.0
 40
0.0
 40
0.0
 40
0.0
 40
0.5
 40
0.5
 40
1.0
 40
1.0
 40
1.0
 40
1.0
 10
9.694257658211146
 20
23.36899491471998
 30
0.0
 10
9.69401880671815
 20
23.36863086369882
 30
0.0
 10
9.693794404493374
 20
23.36804641533993
 30
0.0
 10
9.693474496300125
 20
23.36658913778237
 30
0.0
 10
9.693381712348458
 20
23.36572870818487
 30
0.0
 10
9.693360532191058
 20
23.36490823721998
 30
0.0
  0
SPLINE
  5
C1
330
1F
100
AcDbEntity
  8
0
  6
Continuous
 62
     7
370
    15
100
AcDbSpline
210
0.0
220
0.0
230
1.0
 70
     8
 71
     3
 72
    10
 73
     6
 74
     0
 42
0.00000001
 43
0.00000001
 40
0.0
 40
0.0
 40
0.0
 40
0.0
 40
0.5
 40
0.5
 40
1.0
 40
1.0
 40
1.0
 40
1.0
 10
9.693360532191058
 20
20.76913607657998
 30
0.0
 10
9.69338171234846
 20
20.76831560561509
 30
0.0
 10
9.693474496300125
 20
20.76745517601759
 30
0.0
 10
9.693794404493374
 20
20.76599789846004
 30
0.0
 10
9.69401880671815
 20
20.76541345010114
 30
0.0
 10
9.694257658211146
 20
20.76504939907998
 30
0.0
  0
SPLINE
  5
C2
330
1F
100
AcDbEntity
  8
0
  6
Continuous
 62
     7
370
    15
100
AcDbSpline
210
0.0
220
0.0
230
1.0
 70
     8
 71
     3
 72
    10
 73
     6
 74
     0
 42
0.00000001
 43
0.00000001
 40
0.0
 40
0.0
 40
0.0
 40
0.0
 40
0.5
 40
0.5
 40
1.0
 40
1.0
 40
1.0
 40
1.0
 10
9.694259158805977
 20
23.39913545583998
 30
0.0
 10
9.694237261188622
 20
23.39831516479502
 30
0.0
 10
9.694283946159588
 20
23.39741975957759
 30
0.0
 10
9.694523648948207
 20
23.39582214437414
 30
0.0
 10
9.694714627196266
 20
23.39513352808629
 30
0.0
 10
9.694931362935808
 20
23.39465522619998
 30
0.0
  0
SPLINE
  5
C3
330
1F
100
AcDbEntity
  8
0
  6
Continuous
 62
     7
370
    15
100
AcDbSpline
210
0.0
220
0.0
230
1.0
 70
     8
 71
     3
 72
    10
 73
     6
 74
     0
 42
0.00000001
 43
0.00000001
 40
0.0
 40
0.0
 40
0.0
 40
0.0
 40
0.5
 40
0.5
 40
1.0
 40
1.0
 40
1.0
 40
1.0
 10
9.694931362935808
 20
20.73938908759998
 30
0.0
 10
9.694714627196266
 20
20.73891078571367
 30
0.0
 10
9.694523648948207
 20
20.73822216942581
 30
0.0
 10
9.694283946159588
 20
20.73662455422237
 30
0.0
 10
9.694237261188622
 20
20.73572914900495
 30
0.0
 10
9.694259158805977
 20
20.73490885795998
 30
0.0
  0
SPLINE
  5
C4
330
1F
100
AcDbEntity
  8
0
  6
Continuous
 62
     7
370
    15
100
AcDbSpline
210
0.0
220
0.0
230
1.0
 70
     8
 71
     3
 72
    14
 73
    10
 74
     0
 42
0.00000001
 43
0.00000001
 40
0.0
 40
0.0
 40
0.0
 40
0.0
 40
0.25
 40
0.25
 40
0.5
 40
0.5
 40
0.75
 40
0.75
 40
1.0
 40
1.0
 40
1.0
 40
1.0
 10
9.694257658211146
 20
20.76504939907998
 30
0.0
 10
9.694640756815497
 20
20.76446549049329
 30
0.0
 10
9.695013476961158
 20
20.76369966233711
 30
0.0
 10
9.695687733852708
 20
20.76183164534656
 30
0.0
 10
9.695988585262343
 20
20.76072982996645
 30
0.0
 10
9.696476497400642
 20
20.7583048307436
 30
0.0
 10
9.6966631686225
 20
20.75698358281027
 30
0.0
 10
9.696907027314973
 20
20.75428842253361
 30
0.0
 10
9.69696440953899
 20
20.75291657500907
 30
0.0
 10
9.69696440953899
 20
20.75159642393998
 30
0.0
  0
SPLINE
  5
C5
330
1F
100
AcDbEntity
  8
0
  6
Continuous
 62
     7
370
    15
100
AcDbSpline
210
0.0
220
0.0
230
1.0
 70
     8
 71
     3
 72
    14
 73
    10
 74
     0
 42
0.00000001
 43
0.00000001
 40
0.0
 40
0.0
 40
0.0
 40
0.0
 40
0.25
 40
0.25
 40
0.5
 40
0.5
 40
0.75
 40
0.75
 40
1.0
 40
1.0
 40
1.0
 40
1.0
 10
9.69696440953899
 20
23.38244788985998
 30
0.0
 10
9.69696440953899
 20
23.38112773879089
 30
0.0
 10
9.696907027314973
 20
23.37975589126636
 30
0.0
 10
9.6966631686225
 20
23.37706073098968
 30
0.0
 10
9.696476497400642
 20
23.37573948305635
 30
0.0
 10
9.695988585262343
 20
23.37331448383351
 30
0.0
 10
9.695687733852708
 20
23.3722126684534
 30
0.0
 10
9.695013476961158
 20
23.37034465146285
 30
0.0
 10
9.694640756815497
 20
23.36957882330667
 30
0.0
 10
9.694257658211146
 20
23.36899491471998
 30
0.0
  0
SPLINE
  5
C6
330
1F
100
AcDbEntity
  8
0
  6
Continuous
 62
     7
370
    15
100
AcDbSpline
210
0.0
220
0.0
230
1.0
 70
     8
 71
     3
 72
    14
 73
    10
 74
     0
 42
0.00000001
 43
0.00000001
 40
0.0
 40
0.0
 40
0.0
 40
0.0
 40
0.25
 40
0.25
 40
0.5
 40
0.5
 40
0.75
 40
0.75
 40
1.0
 40
1.0
 40
1.0
 40
1.0
 10
9.69696440953899
 20
20.75159642393998
 30
0.0
 10
9.69696440953899
 20
20.75045229987768
 30
0.0
 10
9.696921495097332
 20
20.74927556712706
 30
0.0
 10
9.696742169277751
 20
20.74695327503633
 30
0.0
 10
9.696605682897424
 20
20.74580865850929
 30
0.0
 10
9.696246956255903
 20
20.74365470062162
 30
0.0
 10
9.696024865999513
 20
20.74264625995805
 30
0.0
 10
9.69551756075278
 20
20.74084570687899
 30
0.0
 10
9.695232637612133
 20
20.74005395370018
 30
0.0
 10
9.694931362935808
 20
20.73938908759998
 30
0.0
  0
SPLINE
  5
C7
330
1F
100
AcDbEntity
  8
0
  6
Continuous
 62
     7
370
    15
100
AcDbSpline
210
0.0
220
0.0
230
1.0
 70
     8
 71
     3
 72
    14
 73
    10
 74
     0
 42
0.00000001
 43
0.00000001
 40
0.0
 40
0.0
 40
0.0
 40
0.0
 40
0.25
 40
0.25
 40
0.5
 40
0.5
 40
0.75
 40
0.75
 40
1.0
 40
1.0
 40
1.0
 40
1.0
 10
9.694931362935808
 20
23.39465522619998
 30
0.0
 10
9.695232637612133
 20
23.39399036009978
 30
0.0
 10
9.69551756075278
 20
23.39319860692097
 30
0.0
 10
9.696024865999513
 20
23.39139805384191
 30
0.0
 10
9.696246956255903
 20
23.39038961317835
 30
0.0
 10
9.696605682897424
 20
23.38823565529066
 30
0.0
 10
9.696742169277751
 20
23.38709103876363
 30
0.0
 10
9.696921495097332
 20
23.38476874667289
 30
0.0
 10
9.69696440953899
 20
23.38359201392228
 30
0.0
 10
9.69696440953899
 20
23.38244788985998
 30
0.0
  0
SPLINE
  5
C8
330
1F
100
AcDbEntity
  8
0
  6
Continuous
 62
     7
370
    15
100
AcDbSpline
210
0.0
220
0.0
230
1.0
 70
    24
 71
     3
 72
    38
 73
    34
 74
     0
 42
0.00000001
 43
0.00000001
 40
0.0
 40
0.0
 40
0.0
 40
0.0
 40
0.0085184641662759
 40
0.0170312522613417
 40
0.0255404053436164
 40
0.0340479670745322
 40
0.0425559822622694
 40
0.0510664953881542
 40
0.0595815491342331
 40
0.0681031829173193
 40
0.1024112314369719
 40
0.1367265884926222
 40
0.1710346370405497
 40
0.2053499941235749
 40
0.2734102568902208
 40
0.3404353222534729
 40
0.4059652166609371
 40
0.4696021503397351
 40
0.5310210839145021
 40
0.5899740298026223
 40
0.6462887522902627
 40
0.6998631031471767
 40
0.7506564590759556
 40
0.7986796687385198
 40
0.8213335893692365
 40
0.8439943032266016
 40
0.8853962672682484
 40
0.9268050376760374
 40
0.9414522746449345
 40
0.9560849952252202
 40
0.9707135913756498
 40
0.9853484638410315
 40
1.0
 40
1.0
 40
1.0
 40
1.0
 10
10.07304344706495
 20
18.81702215689998
 30
0.0
 10
10.07295253928543
 20
18.81702215689998
 30
0.0
 10
10.07277078430057
 20
18.81702215689998
 30
0.0
 10
10.07243568622142
 20
18.81702215689998
 30
0.0
 10
10.07205498783796
 20
18.81702215689998
 30
0.0
 10
10.07162420456881
 20
18.81702215689998
 30
0.0
 10
10.07114453639003
 20
18.81702215689998
 30
0.0
 10
10.07061566609184
 20
18.81702215689998
 30
0.0
 10
10.07003766334714
 20
18.81702215689998
 30
0.0
 10
10.06877829985504
 20
18.81702215689998
 30
0.0
 10
10.06651750625007
 20
18.81702215689998
 30
0.0
 10
10.06272193645553
 20
18.81702215689998
 30
0.0
 10
10.05816529906249
 20
18.81702215689998
 30
0.0
 10
10.05112507563344
 20
18.81702215689998
 30
0.0
 10
10.04061363061627
 20
18.81702215689998
 30
0.0
 10
10.02557363143816
 20
18.81702215689998
 30
0.0
 10
10.00859225815269
 20
18.81702215689998
 30
0.0
 10
9.990176563965251
 20
18.81702215689998
 30
0.0
 10
9.970836354931203
 20
18.81702215689998
 30
0.0
 10
9.951051372813668
 20
18.81702215689998
 30
0.0
 10
9.931246408699495
 20
18.81702215689998
 30
0.0
 10
9.911776322137191
 20
18.81702215689998
 30
0.0
 10
9.89292225179726
 20
18.81702215689998
 30
0.0
 10
9.877722585184848
 20
18.81702215689998
 30
0.0
 10
9.866020205373923
 20
18.81702215689998
 30
0.0
 10
9.855149761356207
 20
18.81702215689998
 30
0.0
 10
9.841960237294863
 20
18.81702215689998
 30
0.0
 10
9.829883864550355
 20
18.81702215689998
 30
0.0
 10
9.821215457964822
 20
18.81702215689998
 30
0.0
 10
9.815862970562781
 20
18.81702215689998
 30
0.0
 10
9.810549222355244
 20
18.81702215689998
 30
0.0
 10
9.805269837957779
 20
18.81702215689998
 30
0.0
 10
9.801786688851541
 20
18.81702215689998
 30
0.0
 10
9.800044123358731
 20
18.81702215689998
 30
0.0
  0
SPLINE
  5
C9
330
1F
100
AcDbEntity
  8
0
  6
Continuous
 62
     7
370
    15
100
AcDbSpline
210
0.0
220
0.0
230
1.0
 70
    24
 71
     3
 72
    34
 73
    30
 74
     0
 42
0.00000001
 43
0.00000001
 40
0.0
 40
0.0
 40
0.0
 40
0.0
 40
0.0112032363886216
 40
0.0223979010732661
 40
0.0335864403491251
 40
0.044771304530543
 40
0.055954946347483
 40
0.0671398193340645
 40
0.0783283762144596
 40
0.0895230672914487
 40
0.1007263388429254
 40
0.1576999894437266
 40
0.2146830061780325
 40
0.2458572896357136
 40
0.2770409211387318
 40
0.3431261330372281
 40
0.4130233705016731
 40
0.4867475624826075
 40
0.5642428068602822
 40
0.6453685364487817
 40
0.7298877359855876
 40
0.7736871659438053
 40
0.8174959263160398
 40
0.8625993725235366
 40
0.9077124269595672
 40
0.930791379930203
 40
0.9538513013682837
 40
0.9769136805824092
 40
1.0
 40
1.0
 40
1.0
 40
1.0
 10
9.800044123358731
 20
18.81702215689998
 30
0.0
 10
9.799079814866314
 20
18.81702215689998
 30
0.0
 10
9.797151935683189
 20
18.81702215689998
 30
0.0
 10
9.794280179807343
 20
18.81702215689998
 30
0.0
 10
9.791424844099321
 20
18.81702215689998
 30
0.0
 10
9.788587256477301
 20
18.81702215689998
 30
0.0
 10
9.785767062413733
 20
18.81702215689998
 30
0.0
 10
9.782964355507264
 20
18.81702215689998
 30
0.0
 10
9.780179118199252
 20
18.81702215689998
 30
0.0
 10
9.777411329488798
 20
18.81702215689998
 30
0.0
 10
9.770916951851286
 20
18.81702215689998
 30
0.0
 10
9.760900791531995
 20
18.81702215689998
 30
0.0
 10
9.74980016033995
 20
18.81702215689998
 30
0.0
 10
9.741037841813863
 20
18.81702215689998
 30
0.0
 10
9.731901400928152
 20
18.81702215689998
 30
0.0
 10
9.720633571687888
 20
18.81702215689998
 30
0.0
 10
9.707712803672939
 20
18.81702215689998
 30
0.0
 10
9.695558213031568
 20
18.81702215689998
 30
0.0
 10
9.684537444010616
 20
18.81702215689998
 30
0.0
 10
9.67505092898349
 20
18.81702215689998
 30
0.0
 10
9.668815643615556
 20
18.81702215689998
 30
0.0
 10
9.664974444257384
 20
18.81702215689998
 30
0.0
 10
9.662697485478903
 20
18.81702215689998
 30
0.0
 10
9.66110479505306
 20
18.81702215689998
 30
0.0
 10
9.660373278050736
 20
18.81702215689998
 30
0.0
 10
9.660156153518058
 20
18.81702215689998
 30
0.0
 10
9.660187517678064
 20
18.81702215689998
 30
0.0
 10
9.660397779379116
 20
18.81702215689998
 30
0.0
 10
9.66070022891179
 20
18.81702215689998
 30
0.0
 10
9.66085153212783
 20
18.81702215689998
 30
0.0
  0
SPLINE
  5
CA
330
1F
100
AcDbEntity
  8
0
  6
Continuous
 62
     7
370
    15
100
AcDbSpline
210
0.0
220
0.0
230
1.0
 70
    24
 71
     3
 72
    32
 73
    28
 74
     0
 42
0.00000001
 43
0.00000001
 40
0.0
 40
0.0
 40
0.0
 40
0.0
 40
0.0625000000000002
 40
0.0625000000000002
 40
0.1250000000000003
 40
0.1250000000000003
 40
0.1875000000000006
 40
0.1875000000000006
 40
0.2500000000000007
 40
0.2500000000000007
 40
0.3125000000000007
 40
0.3125000000000007
 40
0.3750000000000006
 40
0.3750000000000006
 40
0.4375000000000004
 40
0.4375000000000004
 40
0.5000000000000004
 40
0.5000000000000004
 40
0.5625000000000004
 40
0.5625000000000004
 40
0.6250000000000003
 40
0.6250000000000003
 40
0.7500000000000002
 40
0.7500000000000002
 40
0.8750000000000001
 40
0.8750000000000001
 40
1.0
 40
1.0
 40
1.0
 40
1.0
 10
10.07304344706494
 20
25.31702215689998
 30
0.0
 10
10.07227334927303
 20
25.31702215689998
 30
0.0
 10
10.07083481203363
 20
25.31702215689998
 30
0.0
 10
10.06661282084198
 20
25.31702215689998
 30
0.0
 10
10.06382936946095
 20
25.31702215689998
 30
0.0
 10
10.05698886505961
 20
25.31702215689998
 30
0.0
 10
10.05293219686401
 20
25.31702215689998
 30
0.0
 10
10.043690811143
 20
25.31702215689998
 30
0.0
 10
10.03850677853865
 20
25.31702215689998
 30
0.0
 10
10.02721399782829
 20
25.31702215689998
 30
0.0
 10
10.0211060803419
 20
25.31702215689998
 30
0.0
 10
10.0082032675527
 20
25.31702215689998
 30
0.0
 10
10.00140917744804
 20
25.31702215689998
 30
0.0
 10
9.987380971081267
 20
25.31702215689998
 30
0.0
 10
9.980147500454423
 20
25.31702215689998
 30
0.0
 10
9.965474468137584
 20
25.31702215689998
 30
0.0
 10
9.958035324475944
 20
25.31702215689998
 30
0.0
 10
9.943155710341491
 20
25.31702215689998
 30
0.0
 10
9.935715427629916
 20
25.31702215689998
 30
0.0
 10
9.921000084078363
 20
25.31702215689998
 30
0.0
 10
9.91372502284171
 20
25.31702215689998
 30
0.0
 10
9.892336244722113
 20
25.31702215689998
 30
0.0
 10
9.8786753548295
 20
25.31702215689998
 30
0.0
 10
9.853112329716597
 20
25.31702215689998
 30
0.0
 10
9.841203429259625
 20
25.31702215689998
 30
0.0
 10
9.819257655556788
 20
25.31702215689998
 30
0.0
 10
9.80921509313228
 20
25.31702215689998
 30
0.0
 10
9.800044123358731
 20
25.31702215689998
 30
0.0
  0
SPLINE
  5
CB
330
1F
100
AcDbEntity
  8
0
  6
Continuous
 62
     7
370
    15
100
AcDbSpline
210
0.0
220
0.0
230
1.0
 70
    24
 71
     3
 72
    22
 73
    18
 74
     0
 42
0.00000001
 43
0.00000001
 40
0.0
 40
0.0
 40
0.0
 40
0.0
 40
0.125
 40
0.125
 40
0.25
 40
0.25
 40
0.375
 40
0.375
 40
0.5000000000000001
 40
0.5000000000000001
 40
0.625
 40
0.625
 40
0.75
 40
0.75
 40
0.875
 40
0.875
 40
1.0
 40
1.0
 40
1.0
 40
1.0
 10
9.800044123358731
 20
25.31702215689998
 30
0.0
 10
9.792911146868189
 20
25.31702215689998
 30
0.0
 10
9.785517812266006
 20
25.31702215689998
 30
0.0
 10
9.770340333734605
 20
25.31702215689998
 30
0.0
 10
9.762555036745319
 20
25.31702215689998
 30
0.0
 10
9.746829717228845
 20
25.31702215689998
 30
0.0
 10
9.738888718787411
 20
25.31702215689998
 30
0.0
 10
9.723229730603126
 20
25.31702215689998
 30
0.0
 10
9.715511563422433
 20
25.31702215689998
 30
0.0
 10
9.700837679087574
 20
25.31702215689998
 30
0.0
 10
9.693883463379406
 20
25.31702215689998
 30
0.0
 10
9.681422317292105
 20
25.31702215689998
 30
0.0
 10
9.675919295817772
 20
25.31702215689998
 30
0.0
 10
9.667111872808999
 20
25.31702215689998
 30
0.0
 10
9.663813525356268
 20
25.31702215689998
 30
0.0
 10
9.66008128024893
 20
25.31702215689998
 30
0.0
 10
9.65965360222931
 20
25.31702215689998
 30
0.0
 10
9.660851532127838
 20
25.31702215689998
 30
0.0
  0
SPLINE
  5
CC
330
1F
100
AcDbEntity
  8
0
  6
Continuous
 62
     7
370
    15
100
AcDbSpline
210
0.0
220
0.0
230
1.0
 70
     8
 71
     3
 72
    14
 73
    10
 74
     0
 42
0.00000001
 43
0.00000001
 40
0.0
 40
0.0
 40
0.0
 40
0.0
 40
0.25
 40
0.25
 40
0.5
 40
0.5
 40
0.75
 40
0.75
 40
1.0
 40
1.0
 40
1.0
 40
1.0
 10
9.800044123358731
 20
25.31702215689998
 30
0.0
 10
9.799208504200127
 20
25.31702215689998
 30
0.0
 10
9.798325401736227
 20
25.31661232772047
 30
0.0
 10
9.796602385078838
 20
25.31482011906488
 30
0.0
 10
9.795765247908319
 20
25.3134346663393
 30
0.0
 10
9.794295568905829
 20
25.30984717577861
 30
0.0
 10
9.793665545095982
 20
25.30765128444257
 30
0.0
 10
9.79270226132326
 20
25.30288622622589
 30
0.0
 10
9.792368677364832
 20
25.30032612044158
 30
0.0
 10
9.792175092062214
 20
25.29781382946998
 30
0.0
  0
SPLINE
  5
CD
330
1F
100
AcDbEntity
  8
0
  6
Continuous
 62
     7
370
    15
100
AcDbSpline
210
0.0
220
0.0
230
1.0
 70
     8
 71
     3
 72
    14
 73
    10
 74
     0
 42
0.00000001
 43
0.00000001
 40
0.0
 40
0.0
 40
0.0
 40
0.0
 40
0.25
 40
0.25
 40
0.5
 40
0.5
 40
0.75
 40
0.75
 40
1.0
 40
1.0
 40
1.0
 40
1.0
 10
9.800044123358731
 20
18.81702215689998
 30
0.0
 10
9.799208504200127
 20
18.81702215689998
 30
0.0
 10
9.798325401736227
 20
18.81743198607949
 30
0.0
 10
9.796602385078838
 20
18.81922419473507
 30
0.0
 10
9.795765247908319
 20
18.82060964746066
 30
0.0
 10
9.794295568905829
 20
18.82419713802134
 30
0.0
 10
9.793665545095982
 20
18.82639302935739
 30
0.0
 10
9.79270226132326
 20
18.83115808757406
 30
0.0
 10
9.792368677364832
 20
18.83371819335838
 30
0.0
 10
9.792175092062214
 20
18.83623048432998
 30
0.0
  0
LINE
  5
CE
330
1F
100
AcDbEntity
  8
0
  6
Continuous
 62
   144
370
     0
100
AcDbLine
 10
9.1614192607
 20
16.6445221568
 30
0.0
 11
9.1864192607
 21
16.6445221568
 31
0.0
  0
LINE
  5
CF
330
1F
100
AcDbEntity
  8
0
  6
Continuous
 62
     7
370
    15
100
AcDbLine
 10
9.1864192607
 20
16.6445221568
 30
0.0
 11
10.5464192607
 21
16.6445221568
 31
0.0
  0
LINE
  5
D0
330
1F
100
AcDbEntity
  8
0
  6
Continuous
 62
   144
370
     0
100
AcDbLine
 10
10.5464192607
 20
16.6445221568
 30
0.0
 11
10.5714192607
 21
16.6445221568
 31
0.0
  0
LINE
  5
D1
330
1F
100
AcDbEntity
  8
0
  6
Continuous
 62
   144
370
     0
100
AcDbLine
 10
9.1864192607
 20
16.6520221568
 30
0.0
 11
9.1864192607
 21
16.6445221568
 31
0.0
  0
LINE
  5
D2
330
1F
100
AcDbEntity
  8
0
  6
Continuous
 62
     7
370
    15
100
AcDbLine
 10
9.1864192607
 20
16.6520221568
 30
0.0
 11
10.5464192607
 21
16.6520221568
 31
0.0
  0
LINE
  5
D3
330
1F
100
AcDbEntity
  8
0
  6
Continuous
 62
   144
370
     0
100
AcDbLine
 10
10.5464192607
 20
16.6520221568
 30
0.0
 11
10.5464192607
 21
16.6445221568
 31
0.0
  0
LINE
  5
D4
330
1F
100
AcDbEntity
  8
0
  6
Continuous
 62
   144
370
     0
100
AcDbLine
 10
10.5464192607
 20
16.6520221568
 30
0.0
 11
10.5714192607
 21
16.6520221568
 31
0.0
  0
LINE
  5
D5
330
1F
100
AcDbEntity
  8
0
  6
Continuous
 62
   144
370
     0
100
AcDbLine
 10
9.1614192607
 20
16.6520221568
 30
0.0
 11
9.1864192607
 21
16.6520221568
 31
0.0
  0
LINE
  5
D6
330
1F
100
AcDbEntity
  8
0
  6
Continuous
 62
   144
370
     0
100
AcDbLine
 10
10.5714192607
 20
16.6520221568
 30
0.0
 11
10.5714192607
 21
16.6445221568
 31
0.0
  0
LINE
  5
D7
330
1F
100
AcDbEntity
  8
0
  6
Continuous
 62
   144
370
     0
100
AcDbLine
 10
9.1614192607
 20
16.6520221568
 30
0.0
 11
9.1614192607
 21
16.6445221568
 31
0.0
  0
LINE
  5
D8
330
1F
100
AcDbEntity
  8
0
  6
Continuous
 62
     7
370
    15
100
AcDbLine
 10
10.2814192607
 20
16.6420221568
 30
0.0
 11
10.2514192607
 21
16.6420221568
 31
0.0
  0
SPLINE
  5
D9
330
1F
100
AcDbEntity
  8
0
  6
Continuous
 62
     7
370
    15
100
AcDbSpline
210
0.0
220
0.0
230
1.0
 70
     8
 71
     3
 72
    12
 73
     8
 74
     0
 42
0.00000001
 43
0.00000001
 40
0.0
 40
0.0
 40
0.0
 40
0.0
 40
0.1912150218292161
 40
0.3816156969731341
 40
0.5917465202937493
 40
0.820079817677149
 40
1.0
 40
1.0
 40
1.0
 40
1.0
 10
9.907738337817221
 20
16.82202215676498
 30
0.0
 10
9.907907223797162
 20
16.8194647642504
 30
0.0
 10
9.908244276505298
 20
16.81436087064649
 30
0.0
 10
9.910535179430756
 20
16.80741036899227
 30
0.0
 10
9.913245593009295
 20
16.80160430033109
 30
0.0
 10
9.915649784307899
 20
16.7976429416524
 30
0.0
 10
9.916047166958252
 20
16.7973272417379
 30
0.0
 10
9.916222296289558
 20
16.79718811056327
 30
0.0
  0
SPLINE
  5
DA
330
1F
100
AcDbEntity
  8
0
  6
Continuous
 62
     7
370
    15
100
AcDbSpline
210
0.0
220
0.0
230
1.0
 70
     8
 71
     3
 72
    16
 73
    12
 74
     0
 42
0.00000001
 43
0.00000001
 40
0.0
 40
0.0
 40
0.0
 40
0.0
 40
0.2500000000000001
 40
0.2500000000000001
 40
0.5000000000000001
 40
0.5000000000000001
 40
0.7500000000000002
 40
0.7500000000000002
 40
0.8750000000000001
 40
0.8750000000000001
 40
1.0
 40
1.0
 40
1.0
 40
1.0
 10
9.915850904622173
 20
16.79849022078659
 30
0.0
 10
9.915479992116289
 20
16.799371650812
 30
0.0
 10
9.914931561831871
 20
16.80059930789254
 30
0.0
 10
9.91364640102607
 20
16.80368461552555
 30
0.0
 10
9.912933779749583
 20
16.80548192135212
 30
0.0
 10
9.911558469594867
 20
16.80962315034906
 30
0.0
 10
9.9109266908209
 20
16.81187876521822
 30
0.0
 10
9.91023340000565
 20
16.81556228951982
 30
0.0
 10
9.910045788482698
 20
16.81684802852681
 30
0.0
 10
9.909796524282116
 20
16.81941671379998
 30
0.0
 10
9.909731809916602
 20
16.82071316058394
 30
0.0
 10
9.909731809916602
 20
16.82202215676498
 30
0.0
  0
SPLINE
  5
DB
330
1F
100
AcDbEntity
  8
0
  6
Continuous
 62
   144
370
     0
100
AcDbSpline
210
0.0
220
0.0
230
1.0
 70
     8
 71
     3
 72
    13
 73
     9
 74
     0
 42
0.00000001
 43
0.00000001
 40
0.0
 40
0.0
 40
0.0
 40
0.0
 40
0.1840555164146445
 40
0.3680486757995393
 40
0.5536560096848677
 40
0.7403497521432844
 40
0.9253073265373155
 40
0.9999999999999999
 40
0.9999999999999999
 40
0.9999999999999999
 40
0.9999999999999999
 10
9.915384548396663
 20
18.74202215676498
 30
0.0
 10
9.915402042275423
 20
18.74118516521832
 30
0.0
 10
9.915437024106113
 20
18.73951146569328
 30
0.0
 10
9.91568424520758
 20
18.73728268982556
 30
0.0
 10
9.915980913629669
 20
18.73555993083005
 30
0.0
 10
9.916228996461072
 20
18.73460739076625
 30
0.0
 10
9.916350423976688
 20
18.73436862432725
 30
0.0
 10
9.916336804125852
 20
18.73473685648291
 30
0.0
 10
9.916332886151269
 20
18.73484278453184
 30
0.0
  0
SPLINE
  5
DC
330
1F
100
AcDbEntity
  8
0
  6
Continuous
 62
   144
370
     0
100
AcDbSpline
210
0.0
220
0.0
230
1.0
 70
     8
 71
     3
 72
    20
 73
    16
 74
     0
 42
0.00000001
 43
0.00000001
 40
0.0
 40
0.0
 40
0.0
 40
0.0
 40
0.1250000000000001
 40
0.1250000000000001
 40
0.2500000000000001
 40
0.2500000000000001
 40
0.3750000000000002
 40
0.3750000000000002
 40
0.5000000000000002
 40
0.5000000000000002
 40
0.7500000000000003
 40
0.7500000000000003
 40
0.8750000000000001
 40
0.8750000000000001
 40
1.0
 40
1.0
 40
1.0
 40
1.0
 10
9.916325943766374
 20
18.73524325657719
 30
0.0
 10
9.916304786069805
 20
18.7355605632487
 30
0.0
 10
9.91627068860843
 20
18.73596701842876
 30
0.0
 10
9.91619145487173
 20
18.73695493748516
 30
0.0
 10
9.91614733181387
 20
18.73752599671004
 30
0.0
 10
9.91606846313768
 20
18.73878234299805
 30
0.0
 10
9.916033787847752
 20
18.73947212126991
 30
0.0
 10
9.915989324035095
 20
18.74089221309165
 30
0.0
 10
9.915979238608468
 20
18.74164044826765
 30
0.0
 10
9.915992454571308
 20
18.74383576377085
 30
0.0
 10
9.916063667343748
 20
18.74529156473215
 30
0.0
 10
9.91618811755162
 20
18.74706143940947
 30
0.0
 10
9.91623137053827
 20
18.74758701322015
 30
0.0
 10
9.916302531196962
 20
18.74846854651407
 30
0.0
 10
9.916329704434993
 20
18.74881684853036
 30
0.0
 10
9.916341659923114
 20
18.74907050445696
 30
0.0
  0
SPLINE
  5
DD
330
1F
100
AcDbEntity
  8
0
  6
Continuous
 62
   144
370
     0
100
AcDbSpline
210
0.0
220
0.0
230
1.0
 70
     8
 71
     3
 72
    13
 73
     9
 74
     0
 42
0.00000001
 43
0.00000001
 40
0.0
 40
0.0
 40
0.0
 40
0.0
 40
0.1281903778145683
 40
0.3118017743789392
 40
0.4952296759016138
 40
0.6807786074959714
 40
0.8675468656713304
 40
0.9999999999999999
 40
0.9999999999999999
 40
0.9999999999999999
 40
0.9999999999999999
 10
9.916333602622874
 20
18.74921049359974
 30
0.0
 10
9.91633341085583
 20
18.7493486102447
 30
0.0
 10
9.916332944414389
 20
18.74968455601304
 30
0.0
 10
9.916169295718463
 20
18.74924893701223
 30
0.0
 10
9.915899860287723
 20
18.74807874876512
 30
0.0
 10
9.915609180008058
 20
18.74620125134728
 30
0.0
 10
9.915415302279595
 20
18.74406987033276
 30
0.0
 10
9.91539356694419
 20
18.7426226468616
 30
0.0
 10
9.915384548396663
 20
18.74202215676498
 30
0.0
  0
LINE
  5
DE
330
1F
100
AcDbEntity
  8
0
  6
Continuous
 62
   144
370
     0
100
AcDbLine
 10
9.91634825
 20
18.7670221568
 30
0.0
 11
9.82634825
 21
18.7670221568
 31
0.0
  0
SPLINE
  5
DF
330
1F
100
AcDbEntity
  8
0
  6
Continuous
 62
   144
370
     0
100
AcDbSpline
210
0.0
220
0.0
230
1.0
 70
     8
 71
     3
 72
    13
 73
     9
 74
     0
 42
0.00000001
 43
0.00000001
 40
0.0
 40
0.0
 40
0.0
 40
0.0
 40
0.1840555164146596
 40
0.3680486757995687
 40
0.5536560096848975
 40
0.7403497521433089
 40
0.9253073265373377
 40
1.0
 40
1.0
 40
1.0
 40
1.0
 10
9.915384548396663
 20
16.77702215676498
 30
0.0
 10
9.915402042275423
 20
16.77618516521832
 30
0.0
 10
9.915437024106113
 20
16.77451146569328
 30
0.0
 10
9.91568424520758
 20
16.77228268982556
 30
0.0
 10
9.91598091362967
 20
16.77055993083005
 30
0.0
 10
9.916228996461072
 20
16.76960739076625
 30
0.0
 10
9.916350423976688
 20
16.76936862432725
 30
0.0
 10
9.916336804125852
 20
16.7697368564829
 30
0.0
 10
9.916332886151269
 20
16.76984278453184
 30
0.0
  0
SPLINE
  5
E0
330
1F
100
AcDbEntity
  8
0
  6
Continuous
 62
   144
370
     0
100
AcDbSpline
210
0.0
220
0.0
230
1.0
 70
     8
 71
     3
 72
    20
 73
    16
 74
     0
 42
0.00000001
 43
0.00000001
 40
0.0
 40
0.0
 40
0.0
 40
0.0
 40
0.1250000000000007
 40
0.1250000000000007
 40
0.2500000000000015
 40
0.2500000000000015
 40
0.3750000000000022
 40
0.3750000000000022
 40
0.500000000000003
 40
0.500000000000003
 40
0.7500000000000014
 40
0.7500000000000014
 40
0.8750000000000008
 40
0.8750000000000008
 40
1.0
 40
1.0
 40
1.0
 40
1.0
 10
9.916325943766374
 20
16.77024325657719
 30
0.0
 10
9.916304786069805
 20
16.7705605632487
 30
0.0
 10
9.91627068860843
 20
16.77096701842876
 30
0.0
 10
9.91619145487173
 20
16.77195493748515
 30
0.0
 10
9.91614733181387
 20
16.77252599671004
 30
0.0
 10
9.91606846313768
 20
16.77378234299805
 30
0.0
 10
9.916033787847752
 20
16.77447212126991
 30
0.0
 10
9.915989324035095
 20
16.77589221309165
 30
0.0
 10
9.915979238608468
 20
16.77664044826765
 30
0.0
 10
9.915992454571308
 20
16.77883576377085
 30
0.0
 10
9.916063667343748
 20
16.78029156473215
 30
0.0
 10
9.91618811755162
 20
16.78206143940947
 30
0.0
 10
9.91623137053827
 20
16.78258701322015
 30
0.0
 10
9.916302531196964
 20
16.78346854651407
 30
0.0
 10
9.916329704434993
 20
16.78381684853036
 30
0.0
 10
9.916341659923114
 20
16.78407050445696
 30
0.0
  0
SPLINE
  5
E1
330
1F
100
AcDbEntity
  8
0
  6
Continuous
 62
   144
370
     0
100
AcDbSpline
210
0.0
220
0.0
230
1.0
 70
     8
 71
     3
 72
    13
 73
     9
 74
     0
 42
0.00000001
 43
0.00000001
 40
0.0
 40
0.0
 40
0.0
 40
0.0
 40
0.1281903778145924
 40
0.3118017743789601
 40
0.4952296759016314
 40
0.6807786074959944
 40
0.8675468656713448
 40
1.0
 40
1.0
 40
1.0
 40
1.0
 10
9.916333602622874
 20
16.78421049359974
 30
0.0
 10
9.916333410855831
 20
16.7843486102447
 30
0.0
 10
9.916332944414389
 20
16.78468455601304
 30
0.0
 10
9.916169295718463
 20
16.78424893701223
 30
0.0
 10
9.915899860287723
 20
16.78307874876512
 30
0.0
 10
9.915609180008058
 20
16.78120125134727
 30
0.0
 10
9.915415302279595
 20
16.77906987033276
 30
0.0
 10
9.915393566944191
 20
16.7776226468616
 30
0.0
 10
9.915384548396663
 20
16.77702215676498
 30
0.0
  0
SPLINE
  5
E2
330
1F
100
AcDbEntity
  8
0
  6
Continuous
 62
   144
370
     0
100
AcDbSpline
210
0.0
220
0.0
230
1.0
 70
     8
 71
     3
 72
    18
 73
    14
 74
     0
 42
0.00000001
 43
0.00000001
 40
0.0
 40
0.0
 40
0.0
 40
0.0
 40
0.124999999999999
 40
0.124999999999999
 40
0.249999999999998
 40
0.249999999999998
 40
0.4999999999999988
 40
0.4999999999999988
 40
0.624999999999999
 40
0.624999999999999
 40
0.7499999999999993
 40
0.7499999999999993
 40
1.0
 40
1.0
 40
1.0
 40
1.0
 10
9.909731809916602
 20
16.92702215676498
 30
0.0
 10
9.909731809916602
 20
16.92845218842664
 30
0.0
 10
9.90981198241779
 20
16.9299093830356
 30
0.0
 10
9.91011231699295
 20
16.93271843718888
 30
0.0
 10
9.910331051985636
 20
16.93408580725714
 30
0.0
 10
9.911149023613357
 20
16.93808430772626
 30
0.0
 10
9.91188942295321
 20
16.94051865806076
 30
0.0
 10
9.91303325935432
 20
16.94375338641833
 30
0.0
 10
9.913414765833194
 20
16.94474684290216
 30
0.0
 10
9.914147663626292
 20
16.9465748577967
 30
0.0
 10
9.914501171989539
 20
16.94741380087185
 30
0.0
 10
9.91545955623928
 20
16.9496512267757
 30
0.0
 10
9.915944584304055
 20
16.95073751008191
 30
0.0
 10
9.916185282824877
 20
16.95138438348039
 30
0.0
  0
SPLINE
  5
E3
330
1F
100
AcDbEntity
  8
0
  6
Continuous
 62
   144
370
     0
100
AcDbSpline
210
0.0
220
0.0
230
1.0
 70
     8
 71
     3
 72
    13
 73
     9
 74
     0
 42
0.00000001
 43
0.00000001
 40
0.0
 40
0.0
 40
0.0
 40
0.0
 40
0.1031751772789353
 40
0.2802513448388058
 40
0.4632819925160483
 40
0.6677305708327839
 40
0.8860992892044829
 40
1.0
 40
1.0
 40
1.0
 40
1.0
 10
9.916164981999668
 20
16.95162495823208
 30
0.0
 10
9.916197164651814
 20
16.95178734364749
 30
0.0
 10
9.916284581332672
 20
16.95222842581715
 30
0.0
 10
9.91497300400017
 20
16.95031644840618
 30
0.0
 10
9.912716982302678
 20
16.94639448261634
 30
0.0
 10
9.909930933590338
 20
16.9401969598701
 30
0.0
 10
9.907995765902646
 20
16.9332481624382
 30
0.0
 10
9.90780405544214
 20
16.92861156494827
 30
0.0
 10
9.907738337817221
 20
16.92702215676498
 30
0.0
  0
LINE
  5
E4
330
1F
100
AcDbEntity
  8
0
  6
Continuous
 62
   144
370
     0
100
AcDbLine
 10
9.9097318099
 20
16.8220221568
 30
0.0
 11
9.9097318099
 21
16.9270221568
 31
0.0
  0
LINE
  5
E5
330
1F
100
AcDbEntity
  8
0
  6
Continuous
 62
   144
370
     0
100
AcDbLine
 10
9.9077383378
 20
16.9270221568
 30
0.0
 11
9.9077383378
 21
16.8220221568
 31
0.0
  0
LINE
  5
E6
330
1F
100
AcDbEntity
  8
0
  6
Continuous
 62
   144
370
     0
100
AcDbLine
 10
9.9097318099
 20
16.8220221568
 30
0.0
 11
9.9077383378
 21
16.8220221568
 31
0.0
  0
LINE
  5
E7
330
1F
100
AcDbEntity
  8
0
  6
Continuous
 62
     8
370
    15
100
AcDbLine
 10
9.6804071652
 20
22.0798407221
 30
0.0
 11
10.4434654878
 21
22.0798407221
 31
0.0
  0
LINE
  5
E8
330
1F
100
AcDbEntity
  8
0
  6
Continuous
 62
     8
370
    15
100
AcDbLine
 10
10.4458688138
 20
22.0841162905
 30
0.0
 11
9.6796295359
 21
22.0841162905
 31
0.0
  0
LINE
  5
E9
330
1F
100
AcDbEntity
  8
0
  6
Continuous
 62
     8
370
    15
100
AcDbLine
 10
10.4458688138
 20
22.0499280233
 30
0.0
 11
9.6796295359
 21
22.0499280233
 31
0.0
  0
LINE
  5
EA
330
1F
100
AcDbEntity
  8
0
  6
Continuous
 62
     8
370
    15
100
AcDbLine
 10
10.443465487
 20
22.0542035917
 30
0.0
 11
9.6804071652
 21
22.0542035917
 31
0.0
  0
LINE
  5
EB
330
1F
100
AcDbEntity
  8
0
  6
Continuous
 62
     8
370
    15
100
AcDbLine
 10
10.4034320568
 20
23.3649082372
 30
0.0
 11
9.6933605322
 21
23.3649082372
 31
0.0
  0
LINE
  5
EC
330
1F
100
AcDbEntity
  8
0
  6
Continuous
 62
     8
370
    15
100
AcDbLine
 10
10.4006594163
 20
23.3689949147
 30
0.0
 11
9.6942576582
 21
23.3689949147
 31
0.0
  0
LINE
  5
ED
330
1F
100
AcDbEntity
  8
0
  6
Continuous
 62
     8
370
    15
100
AcDbLine
 10
9.6942576582
 20
20.7650493991
 30
0.0
 11
10.4006594157
 21
20.7650493991
 31
0.0
  0
LINE
  5
EE
330
1F
100
AcDbEntity
  8
0
  6
Continuous
 62
     8
370
    15
100
AcDbLine
 10
10.4034320568
 20
20.7691360766
 30
0.0
 11
9.6933605322
 21
20.7691360766
 31
0.0
  0
LINE
  5
EF
330
1F
100
AcDbEntity
  8
0
  6
Continuous
 62
     8
370
    15
100
AcDbLine
 10
9.6949313629
 20
23.3946552262
 30
0.0
 11
10.3985772767
 21
23.3946552262
 31
0.0
  0
LINE
  5
F0
330
1F
100
AcDbEntity
  8
0
  6
Continuous
 62
     8
370
    15
100
AcDbLine
 10
10.4006547784
 20
23.3991354558
 30
0.0
 11
9.6942591588
 21
23.3991354558
 31
0.0
  0
LINE
  5
F1
330
1F
100
AcDbEntity
  8
0
  6
Continuous
 62
     8
370
    15
100
AcDbLine
 10
10.4006547784
 20
20.734908858
 30
0.0
 11
9.6942591588
 21
20.734908858
 31
0.0
  0
LINE
  5
F2
330
1F
100
AcDbEntity
  8
0
  6
Continuous
 62
     8
370
    15
100
AcDbLine
 10
10.3985772772
 20
20.7393890876
 30
0.0
 11
9.6949313629
 21
20.7393890876
 31
0.0
  0
LINE
  5
F3
330
1F
100
AcDbEntity
  8
0
  6
Continuous
 62
     8
370
    15
100
AcDbLine
 10
9.6969644095
 20
20.7515964239
 30
0.0
 11
10.3922939792
 21
20.7515964239
 31
0.0
  0
LINE
  5
F4
330
1F
100
AcDbEntity
  8
0
  6
Continuous
 62
     8
370
    15
100
AcDbLine
 10
9.6969644095
 20
23.3824478899
 30
0.0
 11
10.3922939792
 21
23.3824478899
 31
0.0
  0
LINE
  5
F5
330
1F
100
AcDbEntity
  8
0
  6
Continuous
 62
     8
370
    15
100
AcDbLine
 10
10.442188879
 20
21.5852394658
 30
0.0
 11
9.2917061002
 21
21.5852394658
 31
0.0
  0
LINE
  5
F6
330
1F
100
AcDbEntity
  8
0
  6
Continuous
 62
     8
370
    15
100
AcDbLine
 10
9.6796295359
 20
22.0499280233
 30
0.0
 11
9.2880261648
 21
22.0499280233
 31
0.0
  0
LINE
  5
F7
330
1F
100
AcDbEntity
  8
0
  6
Continuous
 62
     8
370
    15
100
AcDbLine
 10
9.6796295359
 20
22.0841162905
 30
0.0
 11
9.2880261648
 21
22.0841162905
 31
0.0
  0
LINE
  5
F8
330
1F
100
AcDbEntity
  8
0
  6
Continuous
 62
     8
370
    15
100
AcDbLine
 10
10.442188879
 20
22.548804848
 30
0.0
 11
9.2917061002
 21
22.548804848
 31
0.0
  0
LINE
  5
F9
330
1F
100
AcDbEntity
  8
0
  6
Continuous
 62
     8
370
    15
100
AcDbLine
 10
9.6804071652
 20
22.0542035917
 30
0.0
 11
9.2904294913
 21
22.0542035917
 31
0.0
  0
LINE
  5
FA
330
1F
100
AcDbEntity
  8
0
  6
Continuous
 62
     8
370
    15
100
AcDbLine
 10
9.2904294913
 20
22.0798407221
 30
0.0
 11
9.6804071652
 21
22.0798407221
 31
0.0
  0
LINE
  5
FB
330
1F
100
AcDbEntity
  8
0
  6
Continuous
 62
     8
370
    15
100
AcDbLine
 10
9.6933605322
 20
23.3649082372
 30
0.0
 11
9.3304629222
 21
23.3649082372
 31
0.0
  0
LINE
  5
FC
330
1F
100
AcDbEntity
  8
0
  6
Continuous
 62
     8
370
    15
100
AcDbLine
 10
9.6933605322
 20
20.7691360766
 30
0.0
 11
9.3304629222
 21
20.7691360766
 31
0.0
  0
LINE
  5
FD
330
1F
100
AcDbEntity
  8
0
  6
Continuous
 62
     8
370
    15
100
AcDbLine
 10
9.7921750921
 20
18.8362304843
 30
0.0
 11
9.635857332
 21
18.8362304843
 31
0.0
  0
LINE
  5
FE
330
1F
100
AcDbEntity
  8
0
  6
Continuous
 62
     8
370
    15
100
AcDbLine
 10
10.0980376472
 20
18.8362304843
 30
0.0
 11
9.7921750921
 21
18.8362304843
 31
0.0
  0
LINE
  5
FF
330
1F
100
AcDbEntity
  8
0
  6
Continuous
 62
     8
370
    15
100
AcDbLine
 10
9.6942591588
 20
20.734908858
 30
0.0
 11
9.3332402006
 21
20.734908858
 31
0.0
  0
LINE
  5
100
330
1F
100
AcDbEntity
  8
0
  6
Continuous
 62
     8
370
    15
100
AcDbLine
 10
9.6942591588
 20
23.3991354558
 30
0.0
 11
9.3332402006
 21
23.3991354558
 31
0.0
  0
LINE
  5
101
330
1F
100
AcDbEntity
  8
0
  6
Continuous
 62
     8
370
    15
100
AcDbLine
 10
10.0980376472
 20
25.2978138295
 30
0.0
 11
9.7921750921
 21
25.2978138295
 31
0.0
  0
LINE
  5
102
330
1F
100
AcDbEntity
  8
0
  6
Continuous
 62
     8
370
    15
100
AcDbLine
 10
9.7921750921
 20
25.2978138295
 30
0.0
 11
9.635857332
 21
25.2978138295
 31
0.0
  0
LINE
  5
103
330
1F
100
AcDbEntity
  8
0
  6
Continuous
 62
     8
370
    15
100
AcDbLine
 10
9.6942576582
 20
23.3689949147
 30
0.0
 11
9.3332355629
 21
23.3689949147
 31
0.0
  0
LINE
  5
104
330
1F
100
AcDbEntity
  8
0
  6
Continuous
 62
     8
370
    15
100
AcDbLine
 10
9.3332355635
 20
20.7650493991
 30
0.0
 11
9.6942576582
 21
20.7650493991
 31
0.0
  0
LINE
  5
105
330
1F
100
AcDbEntity
  8
0
  6
Continuous
 62
     8
370
    15
100
AcDbLine
 10
9.6949313629
 20
20.7393890876
 30
0.0
 11
9.335317702
 21
20.7393890876
 31
0.0
  0
LINE
  5
106
330
1F
100
AcDbEntity
  8
0
  6
Continuous
 62
     8
370
    15
100
AcDbLine
 10
9.3353177025
 20
23.3946552262
 30
0.0
 11
9.6949313629
 21
23.3946552262
 31
0.0
  0
LINE
  5
107
330
1F
100
AcDbEntity
  8
0
  6
Continuous
 62
     8
370
    15
100
AcDbLine
 10
9.341601
 20
23.3824478899
 30
0.0
 11
9.6969644095
 21
23.3824478899
 31
0.0
  0
LINE
  5
108
330
1F
100
AcDbEntity
  8
0
  6
Continuous
 62
     8
370
    15
100
AcDbLine
 10
9.341601
 20
20.7515964239
 30
0.0
 11
9.6969644095
 21
20.7515964239
 31
0.0
  0
DIMENSION
  5
109
330
1F
100
AcDbEntity
  8
0
  6
Continuous
 62
     7
370
     0
100
AcDbDimension
  2
*D4
 10
12.1714192607
 20
16.6445221568
 30
0.0
 11
12.1714192607
 21
21.0110844135
 31
0.0
 70
   160
 71
     2
 42
-1.0
  3
SLDDIMSTYLE0
100
AcDbAlignedDimension
 13
10.0737158866
 23
25.3170221569
 33
0.0
 14
10.5714192607
 24
16.6445221568
 34
0.0
 50
90.0
100
AcDbRotatedDimension
  0
ARC
  5
128
330
1F
100
AcDbEntity
  8
0
  6
Continuous
 62
   144
370
     0
100
AcDbCircle
 10
9.8669455668
 20
13.1986483144
 30
0.0
 40
0.0112500000000008
100
AcDbArc
 50
8.9624776554
 51
189.3447538014
  0
ARC
  5
129
330
1F
100
AcDbEntity
  8
0
  6
Continuous
 62
   144
370
     0
100
AcDbCircle
 10
9.8669575074
 20
13.1985742106
 30
0.0
 40
0.0112500000000008
100
AcDbArc
 50
188.9624776387
 51
9.3447538181
  0
CIRCLE
  5
12A
330
1F
100
AcDbEntity
  8
0
  6
Continuous
 62
     7
370
    15
100
AcDbCircle
 10
10.2664192607
 20
13.1997431907
 30
0.0
 40
0.0150000000000006
  0
CIRCLE
  5
12B
330
1F
100
AcDbEntity
  8
0
  6
Continuous
 62
   144
370
     0
100
AcDbCircle
 10
10.2664192607
 20
13.1997431907
 30
0.0
 40
0.0100000000000016
  0
LINE
  5
12C
330
1F
100
AcDbEntity
  8
0
  6
Continuous
 62
     7
370
    15
100
AcDbLine
 10
10.5464192607
 20
12.4947431907
 30
0.0
 11
9.1864192607
 21
12.4947431907
 31
0.0
  0
LINE
  5
12D
330
1F
100
AcDbEntity
  8
0
  6
Continuous
 62
     7
370
    15
100
AcDbLine
 10
9.1614192607
 20
12.5197431907
 30
0.0
 11
9.1614192607
 21
13.8797431907
 31
0.0
  0
LINE
  5
12E
330
1F
100
AcDbEntity
  8
0
  6
Continuous
 62
     7
370
    15
100
AcDbLine
 10
9.1864192607
 20
13.9047431907
 30
0.0
 11
10.5464192607
 21
13.9047431907
 31
0.0
  0
LINE
  5
12F
330
1F
100
AcDbEntity
  8
0
  6
Continuous
 62
     7
370
    15
100
AcDbLine
 10
10.5714192607
 20
13.8797431907
 30
0.0
 11
10.5714192607
 21
12.5197431907
 31
0.0
  0
CIRCLE
  5
130
330
1F
100
AcDbEntity
  8
0
  6
Continuous
 62
   144
370
     0
100
AcDbCircle
 10
9.8664192607
 20
13.1997431907
 30
0.0
 40
0.0254999999999974
  0
ARC
  5
131
330
1F
100
AcDbEntity
  8
0
  6
Continuous
 62
   144
370
     0
100
AcDbCircle
 10
10.5464192607
 20
12.5197431907
 30
0.0
 40
0.0250000000000021
100
AcDbArc
 50
270.0
 51
0.0
  0
ARC
  5
132
330
1F
100
AcDbEntity
  8
0
  6
Continuous
 62
   144
370
     0
100
AcDbCircle
 10
10.5464192607
 20
13.8797431907
 30
0.0
 40
0.0250000000000004
100
AcDbArc
 50
0.0
 51
90.0
  0
ARC
  5
133
330
1F
100
AcDbEntity
  8
0
  6
Continuous
 62
   144
370
     0
100
AcDbCircle
 10
9.1864192607
 20
13.8797431907
 30
0.0
 40
0.0250000000000004
100
AcDbArc
 50
90.0
 51
180.0
  0
ARC
  5
134
330
1F
100
AcDbEntity
  8
0
  6
Continuous
 62
   144
370
     0
100
AcDbCircle
 10
9.1864192607
 20
12.5197431907
 30
0.0
 40
0.0250000000000021
100
AcDbArc
 50
180.0
 51
270.0
  0
LINE
  5
135
330
1F
100
AcDbEntity
  8
0
  6
Continuous
 62
   144
370
     0
100
AcDbLine
 10
9.8463681276
 20
13.1879892041
 30
0.0
 11
9.8470321334
 21
13.1831784904
 31
0.0
  0
ARC
  5
136
330
1F
100
AcDbEntity
  8
0
  6
Continuous
 62
   144
370
     0
100
AcDbCircle
 10
9.87134825
 20
13.1889859402
 30
0.0
 40
0.0250000000000002
100
AcDbArc
 50
35.8022513897
 51
182.2849563809
  0
DIMENSION
  5
137
330
1F
100
AcDbEntity
  8
0
  6
Continuous
 62
     7
370
     0
100
AcDbDimension
  2
*D5
 10
12.1714192607
 20
12.4947431907
 30
0.0
 11
12.1714192607
 21
13.1808285485
 31
0.0
 70
   160
 71
     2
 42
-1.0
  3
SLDDIMSTYLE1
100
AcDbAlignedDimension
 13
10.5464192607
 23
13.9047431907
 33
0.0
 14
10.5464192607
 24
12.4947431907
 34
0.0
 50
90.0
100
AcDbRotatedDimension
  0
ENDSEC
  0
SECTION
  2
OBJECTS
  0
DICTIONARY
  5
C
330
0
100
AcDbDictionary
281
     1
  3
ACAD_GROUP
350
D
  3
ACAD_LAYOUT
350
1A
  3
ACAD_MLINESTYLE
350
17
  3
ACAD_PLOTSETTINGS
350
19
  3
ACAD_PLOTSTYLENAME
350
E
  0
DICTIONARY
  5
D
102
{ACAD_REACTORS
330
C
102
}
330
C
100
AcDbDictionary
281
     1
  0
DICTIONARY
  5
1A
102
{ACAD_REACTORS
330
C
102
}
330
C
100
AcDbDictionary
281
     1
  3
Layout1
350
1E
  3
Layout2
350
26
  3
Model
350
22
  0
DICTIONARY
  5
17
102
{ACAD_REACTORS
330
C
102
}
330
C
100
AcDbDictionary
281
     1
  3
Standard
350
18
  0
DICTIONARY
  5
19
102
{ACAD_REACTORS
330
C
102
}
330
C
100
AcDbDictionary
281
     1
  0
ACDBDICTIONARYWDFLT
  5
E
102
{ACAD_REACTORS
330
C
102
}
330
C
100
AcDbDictionary
281
     1
  3
Normal
350
F
100
AcDbDictionaryWithDefault
340
F
  0
LAYOUT
  5
1E
102
{ACAD_REACTORS
330
1A
102
}
330
1A
100
AcDbPlotSettings
  1

  2
none_device
  4

  6

 40
0.0
 41
0.0
 42
0.0
 43
0.0
 44
0.0
 45
0.0
 46
0.0
 47
0.0
 48
0.0
 49
0.0
140
0.0
141
0.0
142
1.0
143
1.0
 70
   688
 72
     0
 73
     0
 74
     5
  7

 75
    16
147
1.0
148
0.0
149
0.0
100
AcDbLayout
  1
Layout1
 70
     1
 71
     1
 10
0.0
 20
0.0
 11
420.0
 21
297.0
 12
0.0
 22
0.0
 32
0.0
 14
1.0000000000E+20
 24
1.0000000000E+20
 34
1.0000000000E+20
 15
-1.0000000000E+20
 25
-1.0000000000E+20
 35
-1.0000000000E+20
146
0.0
 13
0.0
 23
0.0
 33
0.0
 16
1.0
 26
0.0
 36
0.0
 17
0.0
 27
1.0
 37
0.0
 76
     0
330
1B
  0
LAYOUT
  5
26
102
{ACAD_REACTORS
330
1A
102
}
330
1A
100
AcDbPlotSettings
  1

  2
none_device
  4

  6

 40
0.0
 41
0.0
 42
0.0
 43
0.0
 44
0.0
 45
0.0
 46
0.0
 47
0.0
 48
0.0
 49
0.0
140
0.0
141
0.0
142
1.0
143
1.0
 70
   688
 72
     0
 73
     0
 74
     5
  7

 75
    16
147
1.0
148
0.0
149
0.0
100
AcDbLayout
  1
Layout2
 70
     1
 71
     2
 10
0.0
 20
0.0
 11
0.0
 21
0.0
 12
0.0
 22
0.0
 32
0.0
 14
0.0
 24
0.0
 34
0.0
 15
0.0
 25
0.0
 35
0.0
146
0.0
 13
0.0
 23
0.0
 33
0.0
 16
1.0
 26
0.0
 36
0.0
 17
0.0
 27
1.0
 37
0.0
 76
     0
330
23
  0
LAYOUT
  5
22
102
{ACAD_REACTORS
330
1A
102
}
330
1A
100
AcDbPlotSettings
  1

  2
none_device
  4

  6

 40
0.0
 41
0.0
 42
0.0
 43
0.0
 44
0.0
 45
0.0
 46
0.0
 47
0.0
 48
0.0
 49
0.0
140
0.0
141
0.0
142
1.0
143
1.0
 70
  1712
 72
     0
 73
     0
 74
     0
  7

 75
     0
147
1.0
148
0.0
149
0.0
100
AcDbLayout
  1
Model
 70
     1
 71
     0
 10
0.0
 20
0.0
 11
21.0
 21
29.7
 12
0.0
 22
0.0
 32
0.0
 14
0.0
 24
0.0
 34
0.0
 15
21.0
 25
29.7
 35
0.0
146
0.0
 13
0.0
 23
0.0
 33
0.0
 16
1.0
 26
0.0
 36
0.0
 17
0.0
 27
1.0
 37
0.0
 76
     0
330
1F
331
29
  0
MLINESTYLE
  5
18
102
{ACAD_REACTORS
330
17
102
}
330
17
100
AcDbMlineStyle
  2
Standard
 70
     0
  3

 62
   256
 51
90.0
 52
90.0
 71
     2
 49
0.5
 62
   256
  6
BYLAYER
 49
-0.5
 62
   256
  6
BYLAYER
  0
ACDBPLACEHOLDER
  5
F
102
{ACAD_REACTORS
330
E
102
}
330
E
  0
ENDSEC
  0
EOF
