  0
SECTION
  2
HEADER
  9
$ACADVER
  1
AC1015
  9
$ACADMAINTVER
 70
     6
  9
$DWGCODEPAGE
  3
ANSI_1252
  9
$INSBASE
 10
0.0
 20
0.0
 30
0.0
  9
$EXTMIN
 10
0.0
 20
0.0
 30
0.0
  9
$EXTMAX
 10
21.0
 20
29.7
 30
0.0
  9
$LIMMIN
 10
0.0
 20
0.0
  9
$LIMMAX
 10
21.0
 20
29.7
  9
$ORTHOMODE
 70
     0
  9
$REGENMODE
 70
     1
  9
$FILLMODE
 70
     1
  9
$QTEXTMODE
 70
     0
  9
$MIRRTEXT
 70
     1
  9
$LTSCALE
 40
1.0
  9
$ATTMODE
 70
     1
  9
$TEXTSIZE
 40
0.35
  9
$TRACEWID
 40
1.0
  9
$TEXTSTYLE
  7
Standard
  9
$CLAYER
  8
0
  9
$CELTYPE
  6
ByLayer
  9
$CECOLOR
 62
   256
  9
$CELTSCALE
 40
1.0
  9
$DISPSILH
 70
     0
  9
$DIMSCALE
 40
1.0
  9
$DIMASZ
 40
0.3556
  9
$DIMEXO
 40
0.1
  9
$DIMDLI
 40
3.75
  9
$DIMRND
 40
0.0
  9
$DIMDLE
 40
0.0
  9
$DIMEXE
 40
0.1
  9
$DIMTP
 40
0.0
  9
$DIMTM
 40
0.0
  9
$DIMTXT
 40
0.35
  9
$DIMCEN
 40
2.5
  9
$DIMTSZ
 40
0.0
  9
$DIMTOL
 70
     0
  9
$DIMLIM
 70
     0
  9
$DIMTIH
 70
     1
  9
$DIMTOH
 70
     1
  9
$DIMSE1
 70
     0
  9
$DIMSE2
 70
     0
  9
$DIMTAD
 70
     1
  9
$DIMZIN
 70
     0
  9
$DIMBLK
  1

  9
$DIMASO
 70
     1
  9
$DIMSHO
 70
     1
  9
$DIMPOST
  1

  9
$DIMAPOST
  1

  9
$DIMALT
 70
     0
  9
$DIMALTD
 70
     3
  9
$DIMALTF
 40
0.3937007874
  9
$DIMLFAC
 40
5.0
  9
$DIMTOFL
 70
     1
  9
$DIMTVP
 40
0.0
  9
$DIMTIX
 70
     0
  9
$DIMSOXD
 70
     0
  9
$DIMSAH
 70
     0
  9
$DIMBLK1
  1

  9
$DIMBLK2
  1

  9
$DIMSTYLE
  2
ISO-25
  9
$DIMCLRD
 70
     0
  9
$DIMCLRE
 70
     0
  9
$DIMCLRT
 70
     0
  9
$DIMTFAC
 40
1.0
  9
$DIMGAP
 40
0.1524
  9
$DIMJUST
 70
     0
  9
$DIMSD1
 70
     0
  9
$DIMSD2
 70
     0
  9
$DIMTOLJ
 70
     0
  9
$DIMTZIN
 70
     0
  9
$DIMALTZ
 70
     0
  9
$DIMALTTZ
 70
     0
  9
$DIMUPT
 70
     0
  9
$DIMDEC
 70
     0
  9
$DIMTDEC
 70
     0
  9
$DIMALTU
 70
     2
  9
$DIMALTTD
 70
     3
  9
$DIMTXSTY
  7
Standard
  9
$DIMAUNIT
 70
     0
  9
$DIMADEC
 70
     2
  9
$DIMALTRND
 40
0.0
  9
$DIMAZIN
 70
     0
  9
$DIMDSEP
 70
    44
  9
$DIMATFIT
 70
     3
  9
$DIMFRAC
 70
     0
  9
$DIMLDRBLK
  1

  9
$DIMLUNIT
 70
     2
  9
$DIMLWD
 70
    -2
  9
$DIMLWE
 70
    -2
  9
$DIMTMOVE
 70
     0
  9
$LUNITS
 70
     2
  9
$LUPREC
 70
     0
  9
$SKETCHINC
 40
1.0
  9
$FILLETRAD
 40
10.0
  9
$AUNITS
 70
     0
  9
$AUPREC
 70
     2
  9
$MENU
  1
.
  9
$ELEVATION
 40
0.0
  9
$PELEVATION
 40
0.0
  9
$THICKNESS
 40
0.0
  9
$LIMCHECK
 70
     0
  9
$CHAMFERA
 40
10.0
  9
$CHAMFERB
 40
10.0
  9
$CHAMFERC
 40
20.0
  9
$CHAMFERD
 40
0.0
  9
$SKPOLY
 70
     0
  9
$TDCREATE
 40
2455828.511695521
  9
$TDUCREATE
 40
2455828.428362187
  9
$TDUPDATE
 40
2455828.511695533
  9
$TDUUPDATE
 40
2455828.428362199
  9
$TDINDWG
 40
0.0000000116
  9
$TDUSRTIMER
 40
0.0000000116
  9
$USRTIMER
 70
     1
  9
$ANGBASE
 50
0.0
  9
$ANGDIR
 70
     0
  9
$PDMODE
 70
     0
  9
$PDSIZE
 40
-1.0
  9
$PLINEWID
 40
0.0
  9
$SPLFRAME
 70
     0
  9
$SPLINETYPE
 70
     6
  9
$SPLINESEGS
 70
     8
  9
$HANDSEED
  5
E3
  9
$SURFTAB1
 70
     6
  9
$SURFTAB2
 70
     6
  9
$SURFTYPE
 70
     6
  9
$SURFU
 70
     6
  9
$SURFV
 70
     6
  9
$UCSBASE
  2

  9
$UCSNAME
  2

  9
$UCSORG
 10
0.0
 20
0.0
 30
0.0
  9
$UCSXDIR
 10
1.0
 20
0.0
 30
0.0
  9
$UCSYDIR
 10
0.0
 20
1.0
 30
0.0
  9
$UCSORTHOREF
  2

  9
$UCSORTHOVIEW
 70
     0
  9
$UCSORGTOP
 10
0.0
 20
0.0
 30
0.0
  9
$UCSORGBOTTOM
 10
0.0
 20
0.0
 30
0.0
  9
$UCSORGLEFT
 10
0.0
 20
0.0
 30
0.0
  9
$UCSORGRIGHT
 10
0.0
 20
0.0
 30
0.0
  9
$UCSORGFRONT
 10
0.0
 20
0.0
 30
0.0
  9
$UCSORGBACK
 10
0.0
 20
0.0
 30
0.0
  9
$PUCSBASE
  2

  9
$PUCSNAME
  2

  9
$PUCSORG
 10
0.0
 20
0.0
 30
0.0
  9
$PUCSXDIR
 10
1.0
 20
0.0
 30
0.0
  9
$PUCSYDIR
 10
0.0
 20
1.0
 30
0.0
  9
$PUCSORTHOREF
  2

  9
$PUCSORTHOVIEW
 70
     0
  9
$PUCSORGTOP
 10
0.0
 20
0.0
 30
0.0
  9
$PUCSORGBOTTOM
 10
0.0
 20
0.0
 30
0.0
  9
$PUCSORGLEFT
 10
0.0
 20
0.0
 30
0.0
  9
$PUCSORGRIGHT
 10
0.0
 20
0.0
 30
0.0
  9
$PUCSORGFRONT
 10
0.0
 20
0.0
 30
0.0
  9
$PUCSORGBACK
 10
0.0
 20
0.0
 30
0.0
  9
$USERI1
 70
     0
  9
$USERI2
 70
     0
  9
$USERI3
 70
     0
  9
$USERI4
 70
     0
  9
$USERI5
 70
     0
  9
$USERR1
 40
0.0
  9
$USERR2
 40
0.0
  9
$USERR3
 40
0.0
  9
$USERR4
 40
0.0
  9
$USERR5
 40
0.0
  9
$WORLDVIEW
 70
     1
  9
$SHADEDGE
 70
     3
  9
$SHADEDIF
 70
    70
  9
$TILEMODE
 70
     1
  9
$MAXACTVP
 70
    64
  9
$PINSBASE
 10
0.0
 20
0.0
 30
0.0
  9
$PLIMCHECK
 70
     0
  9
$PEXTMIN
 10
1.0000000000E+20
 20
1.0000000000E+20
 30
1.0000000000E+20
  9
$PEXTMAX
 10
-1.0000000000E+20
 20
-1.0000000000E+20
 30
-1.0000000000E+20
  9
$PLIMMIN
 10
0.0
 20
0.0
  9
$PLIMMAX
 10
420.0
 20
297.0
  9
$UNITMODE
 70
     0
  9
$VISRETAIN
 70
     1
  9
$PLINEGEN
 70
     0
  9
$PSLTSCALE
 70
     1
  9
$TREEDEPTH
 70
  3020
  9
$CMLSTYLE
  2
Standard
  9
$CMLJUST
 70
     0
  9
$CMLSCALE
 40
20.0
  9
$PROXYGRAPHICS
 70
     1
  9
$MEASUREMENT
 70
     1
  9
$CELWEIGHT
370
    -1
  9
$ENDCAPS
280
     0
  9
$JOINSTYLE
280
     0
  9
$LWDISPLAY
290
     1
  9
$INSUNITS
 70
     4
  9
$HYPERLINKBASE
  1

  9
$STYLESHEET
  1

  9
$XEDIT
290
     1
  9
$CEPSNTYPE
380
     0
  9
$PSTYLEMODE
290
     1
  9
$FINGERPRINTGUID
  2
{299AE426-47E1-401B-BDF3-C216183E2C92}
  9
$VERSIONGUID
  2
{FAEB1C32-E019-11D5-929B-00C0DF256EC4}
  9
$EXTNAMES
290
     1
  9
$PSVPSCALE
 40
0.0
  9
$OLESTARTUP
290
     0
  0
ENDSEC
  0
SECTION
  2
CLASSES
  0
CLASS
  1
ACDBDICTIONARYWDFLT
  2
AcDbDictionaryWithDefault
  3
ObjectDBX Classes
 90
        0
280
     0
281
     0
  0
CLASS
  1
VISUALSTYLE
  2
AcDbVisualStyle
  3
ObjectDBX Classes
 90
     4095
280
     0
281
     0
  0
CLASS
  1
MATERIAL
  2
AcDbMaterial
  3
ObjectDBX Classes
 90
     1153
280
     0
281
     0
  0
CLASS
  1
ACDBPLACEHOLDER
  2
AcDbPlaceHolder
  3
ObjectDBX Classes
 90
        0
280
     0
281
     0
  0
CLASS
  1
LAYOUT
  2
AcDbLayout
  3
ObjectDBX Classes
 90
        0
280
     0
281
     0
  0
ENDSEC
  0
SECTION
  2
TABLES
  0
TABLE
  2
VPORT
  5
8
330
0
100
AcDbSymbolTable
 70
     1
  0
VPORT
  5
29
330
8
100
AcDbSymbolTableRecord
100
AcDbViewportTableRecord
  2
*Active
 70
     0
 10
0.0
 20
0.0
 11
1.0
 21
1.0
 12
10.5
 22
14.85
 13
0.0
 23
0.0
 14
10.0
 24
10.0
 15
10.0
 25
10.0
 16
0.0
 26
0.0
 36
1.0
 17
0.0
 27
0.0
 37
0.0
 40
29.7
 41
0.7070707071
 42
50.0
 43
0.0
 44
0.0
 50
0.0
 51
0.0
 71
     0
 72
  2000
 73
     1
 74
     3
 75
     0
 76
     0
 77
     0
 78
     0
281
     0
 65
     1
110
0.0
120
0.0
130
0.0
111
1.0
121
0.0
131
0.0
112
0.0
122
1.0
132
0.0
 79
     0
146
0.0
  0
ENDTAB
  0
TABLE
  2
LTYPE
  5
5
330
0
100
AcDbSymbolTable
 70
     6
  0
LTYPE
  5
14
330
5
100
AcDbSymbolTableRecord
100
AcDbLinetypeTableRecord
  2
ByBlock
 70
     0
  3

 72
    65
 73
     0
 40
0.0
  0
LTYPE
  5
15
330
5
100
AcDbSymbolTableRecord
100
AcDbLinetypeTableRecord
  2
ByLayer
 70
     0
  3

 72
    65
 73
     0
 40
0.0
  0
LTYPE
  5
16
330
5
100
AcDbSymbolTableRecord
100
AcDbLinetypeTableRecord
  2
Continuous
 70
     0
  3
Solid line
 72
    65
 73
     0
 40
0.0
  0
LTYPE
  5
3F
330
5
100
AcDbSymbolTableRecord
100
AcDbLinetypeTableRecord
  2
HIDDEN
 70
     0
  3
Hidden __ __ __ __ __ __ __ __ __ __ __ __ __ __
 72
    65
 73
     2
 40
0.1905
 49
0.127
 74
     0
 49
-0.0635
 74
     0
  0
LTYPE
  5
40
330
5
100
AcDbSymbolTableRecord
100
AcDbLinetypeTableRecord
  2
PHANTOM
 70
     0
  3
Phantom ______  __  __  ______  __  __  ______
 72
    65
 73
     6
 40
1.27
 49
0.635
 74
     0
 49
-0.127
 74
     0
 49
0.127
 74
     0
 49
-0.127
 74
     0
 49
0.127
 74
     0
 49
-0.127
 74
     0
  0
LTYPE
  5
41
330
5
100
AcDbSymbolTableRecord
100
AcDbLinetypeTableRecord
  2
CENTER
 70
     0
  3
Center ____ _ ____ _ ____ _ ____ _ ____ _ ____
 72
    65
 73
     4
 40
1.016
 49
0.635
 74
     0
 49
-0.127
 74
     0
 49
0.127
 74
     0
 49
-0.127
 74
     0
  0
LTYPE
  5
42
330
5
100
AcDbSymbolTableRecord
100
AcDbLinetypeTableRecord
  2
CENTERX2
 70
     0
  3
Center (2x) ________  __  ________  __  _____
 72
    65
 73
     4
 40
2.032
 49
1.27
 74
     0
 49
-0.254
 74
     0
 49
0.254
 74
     0
 49
-0.254
 74
     0
  0
LTYPE
  5
43
330
5
100
AcDbSymbolTableRecord
100
AcDbLinetypeTableRecord
  2
DOT2
 70
     0
  3
Dot (.5x) ........................................
 72
    65
 73
     2
 40
0.0635
 49
0.0
 74
     0
 49
-0.0635
 74
     0
  0
ENDTAB
  0
TABLE
  2
LAYER
  5
2
330
0
100
AcDbSymbolTable
 70
     2
  0
LAYER
  5
10
330
2
100
AcDbSymbolTableRecord
100
AcDbLayerTableRecord
  2
0
 70
     0
 62
     7
  6
Continuous
370
    -3
390
F
  0
LAYER
  5
44
330
2
100
AcDbSymbolTableRecord
100
AcDbLayerTableRecord
  2
FORMAT
 70
     0
 62
     7
  6
Continuous
370
    -3
390
F
  0
ENDTAB
  0
TABLE
  2
STYLE
  5
3
330
0
100
AcDbSymbolTable
 70
     3
  0
STYLE
  5
11
330
3
100
AcDbSymbolTableRecord
100
AcDbTextStyleTableRecord
  2
Standard
 70
     0
 40
0.0
 41
1.0
 50
0.0
 71
     0
 42
2.5
  3
txt
  4

  0
STYLE
  5
68
330
3
100
AcDbSymbolTableRecord
100
AcDbTextStyleTableRecord
  2
SLDTEXTSTYLE0
 70
     0
 40
0.0
 41
0.75
 50
0.0
 71
     0
 42
0.2
  3
TXT
  4

  0
STYLE
  5
6F
330
3
100
AcDbSymbolTableRecord
100
AcDbTextStyleTableRecord
  2
SLDTEXTSTYLE1
 70
     0
 40
0.0
 41
0.6923076923
 50
0.0
 71
     0
 42
0.2
  3
TXT
  4

  0
ENDTAB
  0
TABLE
  2
VIEW
  5
6
330
0
100
AcDbSymbolTable
 70
     0
  0
ENDTAB
  0
TABLE
  2
UCS
  5
7
330
0
100
AcDbSymbolTable
 70
     0
  0
ENDTAB
  0
TABLE
  2
APPID
  5
9
330
0
100
AcDbSymbolTable
 70
     1
  0
APPID
  5
12
330
9
100
AcDbSymbolTableRecord
100
AcDbRegAppTableRecord
  2
ACAD
 70
     0
  0
ENDTAB
  0
TABLE
  2
DIMSTYLE
  5
A
330
0
100
AcDbSymbolTable
 70
     3
100
AcDbDimStyleTable
  0
DIMSTYLE
105
27
330
A
100
AcDbSymbolTableRecord
100
AcDbDimStyleTableRecord
  2
ISO-25
 70
     0
 41
2.5
 42
0.625
 43
3.75
 44
1.25
 73
     0
 74
     0
 77
     1
 78
     8
140
2.5
141
2.5
143
0.0393700787
147
0.625
171
     3
172
     1
178
     0
271
     2
272
     2
274
     3
278
    44
283
     0
284
     8
340
11
  0
DIMSTYLE
105
9E
102
{ACAD_REACTORS
330
9D
102
}
330
A
100
AcDbSymbolTableRecord
100
AcDbDimStyleTableRecord
  2
SLDDIMSTYLE0
 70
     0
 41
0.3556
 44
0.0
 45
0.000000001
 73
     0
 74
     0
 77
     1
 78
    12
 79
     3
140
0.35
143
0.3937007874
144
5.0
147
0.0875
148
0.000000001
170
     1
171
     0
173
     1
178
     0
271
     0
272
     0
274
     0
276
     2
284
    12
340
68
341
9F
343
9F
344
9F
  0
DIMSTYLE
105
CA
102
{ACAD_REACTORS
330
C9
102
}
330
A
100
AcDbSymbolTableRecord
100
AcDbDimStyleTableRecord
  2
SLDDIMSTYLE1
 70
     0
 41
0.3556
 44
0.0
 45
0.000000001
 73
     0
 74
     0
 77
     1
 78
    12
 79
     3
140
0.35
143
0.3937007874
144
5.0
147
0.0875
148
0.000000001
170
     1
171
     0
172
     1
173
     1
178
     0
271
     0
272
     0
274
     0
276
     2
284
    12
289
     0
340
68
341
9F
343
9F
344
9F
  0
ENDTAB
  0
TABLE
  2
BLOCK_RECORD
  5
1
330
0
100
AcDbSymbolTable
 70
     6
  0
BLOCK_RECORD
  5
1F
330
1
100
AcDbSymbolTableRecord
100
AcDbBlockTableRecord
  2
*Model_Space
340
22
  0
BLOCK_RECORD
  5
1B
330
1
100
AcDbSymbolTableRecord
100
AcDbBlockTableRecord
  2
*Paper_Space
340
1E
  0
BLOCK_RECORD
  5
23
330
1
100
AcDbSymbolTableRecord
100
AcDbBlockTableRecord
  2
*Paper_Space0
340
26
  0
BLOCK_RECORD
  5
7A
330
1
100
AcDbSymbolTableRecord
100
AcDbBlockTableRecord
  2
SW_NOTE_0
340
0
102
{BLKREFS
331
80
102
}
  0
BLOCK_RECORD
  5
82
330
1
100
AcDbSymbolTableRecord
100
AcDbBlockTableRecord
  2
SW_NOTE_1
340
0
102
{BLKREFS
331
8B
102
}
  0
BLOCK_RECORD
  5
9F
330
1
100
AcDbSymbolTableRecord
100
AcDbBlockTableRecord
  2
_CLOSED
340
0
102
{BLKREFS
331
A9
331
AA
331
CE
331
CF
102
}
  0
BLOCK_RECORD
  5
A6
330
1
100
AcDbSymbolTableRecord
100
AcDbBlockTableRecord
  2
*D4
340
0
  0
BLOCK_RECORD
  5
CB
330
1
100
AcDbSymbolTableRecord
100
AcDbBlockTableRecord
  2
*D5
340
0
  0
ENDTAB
  0
ENDSEC
  0
SECTION
  2
BLOCKS
  0
BLOCK
  5
20
330
1F
100
AcDbEntity
  8
0
100
AcDbBlockBegin
  2
*Model_Space
 70
     0
 10
0.0
 20
0.0
 30
0.0
  3
*Model_Space
  1

  0
ENDBLK
  5
21
330
1F
100
AcDbEntity
  8
0
100
AcDbBlockEnd
  0
BLOCK
  5
1C
330
1B
100
AcDbEntity
 67
     1
  8
0
100
AcDbBlockBegin
  2
*Paper_Space
 70
     0
 10
0.0
 20
0.0
 30
0.0
  3
*Paper_Space
  1

  0
ENDBLK
  5
1D
330
1B
100
AcDbEntity
 67
     1
  8
0
100
AcDbBlockEnd
  0
BLOCK
  5
24
330
23
100
AcDbEntity
  8
0
100
AcDbBlockBegin
  2
*Paper_Space0
 70
     0
 10
0.0
 20
0.0
 30
0.0
  3
*Paper_Space0
  1

  0
ENDBLK
  5
25
330
23
100
AcDbEntity
  8
0
100
AcDbBlockEnd
  0
BLOCK
  5
7B
330
7A
100
AcDbEntity
  8
0
100
AcDbBlockBegin
  2
SW_NOTE_0
 70
     0
 10
0.0
 20
0.0
 30
0.0
  3
SW_NOTE_0
  1

  0
MTEXT
  5
7D
330
7A
100
AcDbEntity
  8
0
  6
Continuous
 62
     0
370
     0
100
AcDbMText
 10
0.0
 20
0.193360161
 30
0.0
 40
0.15
 41
0.0
 71
     1
 72
     1
  1
SBAVATURA E
  7
SLDTEXTSTYLE0
 73
     1
 44
1.0
  0
MTEXT
  5
7E
330
7A
100
AcDbEntity
  8
0
  6
Continuous
 62
     0
370
     0
100
AcDbMText
 10
0.0
 20
-0.0566398334
 30
0.0
 40
0.15
 41
0.0
 71
     1
 72
     1
  1
INTERRUZIONE DEI
  7
SLDTEXTSTYLE0
 73
     1
 44
1.0
  0
MTEXT
  5
7F
330
7A
100
AcDbEntity
  8
0
  6
Continuous
 62
     0
370
     0
100
AcDbMText
 10
0.0
 20
-0.3066398279
 30
0.0
 40
0.15
 41
0.0
 71
     1
 72
     1
  1
BORDI NETTI
  7
SLDTEXTSTYLE0
 73
     1
 44
1.0
  0
ENDBLK
  5
7C
330
7A
100
AcDbEntity
  8
0
100
AcDbBlockEnd
  0
BLOCK
  5
83
330
82
100
AcDbEntity
  8
0
100
AcDbBlockBegin
  2
SW_NOTE_1
 70
     0
 10
0.0
 20
0.0
 30
0.0
  3
SW_NOTE_1
  1

  0
MTEXT
  5
85
330
82
100
AcDbEntity
  8
0
  6
Continuous
 62
     0
370
     0
100
AcDbMText
 10
0.0
 20
0.193360161
 30
0.0
 40
0.15
 41
0.0
 71
     1
 72
     1
  1
SE NON SPECIFICATO:
  7
SLDTEXTSTYLE0
 73
     1
 44
1.0
  0
MTEXT
  5
86
330
82
100
AcDbEntity
  8
0
  6
Continuous
 62
     0
370
     0
100
AcDbMText
 10
0.0
 20
-0.0566398334
 30
0.0
 40
0.15
 41
0.0
 71
     1
 72
     1
  1
QUOTE IN MILLIMETRI
  7
SLDTEXTSTYLE0
 73
     1
 44
1.0
  0
MTEXT
  5
87
330
82
100
AcDbEntity
  8
0
  6
Continuous
 62
     0
370
     0
100
AcDbMText
 10
0.0
 20
-0.3066398279
 30
0.0
 40
0.15
 41
0.0
 71
     1
 72
     1
  1
FINITURA SUPERFICIE:
  7
SLDTEXTSTYLE0
 73
     1
 44
1.0
  0
MTEXT
  5
88
330
82
100
AcDbEntity
  8
0
  6
Continuous
 62
     0
370
     0
100
AcDbMText
 10
0.0
 20
-0.5566398223
 30
0.0
 40
0.15
 41
0.0
 71
     1
 72
     1
  1
TOLLERANZE:
  7
SLDTEXTSTYLE0
 73
     1
 44
1.0
  0
MTEXT
  5
89
330
82
100
AcDbEntity
  8
0
  6
Continuous
 62
     0
370
     0
100
AcDbMText
 10
0.16875
 20
-0.8066398167
 30
0.0
 40
0.15
 41
0.0
 71
     1
 72
     1
  1
LINEARE:
  7
SLDTEXTSTYLE0
 73
     1
 44
1.0
  0
MTEXT
  5
8A
330
82
100
AcDbEntity
  8
0
  6
Continuous
 62
     0
370
     0
100
AcDbMText
 10
0.16875
 20
-1.0566398111
 30
0.0
 40
0.15
 41
0.0
 71
     1
 72
     1
  1
ANGOLARE:
  7
SLDTEXTSTYLE0
 73
     1
 44
1.0
  0
ENDBLK
  5
84
330
82
100
AcDbEntity
  8
0
100
AcDbBlockEnd
  0
BLOCK
  5
A0
330
9F
100
AcDbEntity
  8
0
100
AcDbBlockBegin
  2
_CLOSED
 70
     0
 10
0.0
 20
0.0
 30
0.0
  3
_CLOSED
  1

  0
LINE
  5
A2
330
9F
100
AcDbEntity
  8
0
  6
ByBlock
 62
     0
370
    -2
100
AcDbLine
 10
-1.0
 20
0.166667
 30
0.0
 11
0.0
 21
0.0
 31
0.0
  0
LINE
  5
A3
330
9F
100
AcDbEntity
  8
0
  6
ByBlock
 62
     0
370
    -2
100
AcDbLine
 10
0.0
 20
0.0
 30
0.0
 11
-1.0
 21
-0.166667
 31
0.0
  0
LINE
  5
A4
330
9F
100
AcDbEntity
  8
0
  6
ByBlock
 62
     0
370
    -2
100
AcDbLine
 10
-1.0
 20
0.166667
 30
0.0
 11
-1.0
 21
-0.166667
 31
0.0
  0
LINE
  5
A5
330
9F
100
AcDbEntity
  8
0
  6
ByBlock
 62
     0
370
    -2
100
AcDbLine
 10
0.0
 20
0.0
 30
0.0
 11
-1.0
 21
0.0
 31
0.0
  0
ENDBLK
  5
A1
330
9F
100
AcDbEntity
  8
0
100
AcDbBlockEnd
  0
BLOCK
  5
A7
330
A6
100
AcDbEntity
  8
0
100
AcDbBlockBegin
  2
*D4
 70
     1
 10
0.0
 20
0.0
 30
0.0
  3
*D4
  1

  0
INSERT
  5
A9
330
A6
100
AcDbEntity
  8
0
  6
Continuous
 62
     7
370
     0
100
AcDbBlockReference
  2
_CLOSED
 10
5.8997800617
 20
14.5838657588
 30
0.002
 41
0.3556
 42
0.3556
 50
180.0
  0
INSERT
  5
AA
330
A6
100
AcDbEntity
  8
0
  6
Continuous
 62
     7
370
     0
100
AcDbBlockReference
  2
_CLOSED
 10
13.8330584597
 20
14.5838657588
 30
0.002
 41
0.3556
 42
0.3556
 50
0.0
  0
LINE
  5
AB
330
A6
100
AcDbEntity
  8
0
  6
Continuous
 62
     7
370
     0
100
AcDbLine
 10
9.2255035132
 20
16.0229246791
 30
0.0
 11
9.1544097646
 21
16.0229246791
 31
0.0
  0
LINE
  5
AC
330
A6
100
AcDbEntity
  8
0
  6
Continuous
 62
     7
370
     0
100
AcDbLine
 10
9.1544097646
 20
16.0229246791
 30
0.0
 11
9.1544097646
 21
15.1075288381
 31
0.0
  0
LINE
  5
AD
330
A6
100
AcDbEntity
  8
0
  6
Continuous
 62
     7
370
     0
100
AcDbLine
 10
9.1544097646
 20
15.1075288381
 30
0.0
 11
9.2255035132
 21
15.1075288381
 31
0.0
  0
LINE
  5
AE
330
A6
100
AcDbEntity
  8
0
  6
Continuous
 62
     7
370
     0
100
AcDbLine
 10
10.5285852282
 20
16.0229246791
 30
0.0
 11
10.5996789768
 21
16.0229246791
 31
0.0
  0
LINE
  5
AF
330
A6
100
AcDbEntity
  8
0
  6
Continuous
 62
     7
370
     0
100
AcDbLine
 10
10.5996789768
 20
16.0229246791
 30
0.0
 11
10.5996789768
 21
15.1075288381
 31
0.0
  0
LINE
  5
B0
330
A6
100
AcDbEntity
  8
0
  6
Continuous
 62
     7
370
     0
100
AcDbLine
 10
10.5996789768
 20
15.1075288381
 30
0.0
 11
10.5285852282
 21
15.1075288381
 31
0.0
  0
LINE
  5
B1
330
A6
100
AcDbEntity
  8
0
  6
Continuous
 62
     7
370
     0
100
AcDbLine
 10
9.8828776631
 20
15.6011260592
 30
0.0
 11
10.244058248
 21
15.6011260592
 31
0.0
  0
LINE
  5
B2
330
A6
100
AcDbEntity
  8
0
  6
Continuous
 62
     7
370
     0
100
AcDbLine
 10
5.8997800617
 20
20.0838657588
 30
0.0
 11
5.8997800617
 21
14.4838657588
 31
0.0
  0
LINE
  5
B3
330
A6
100
AcDbEntity
  8
0
  6
Continuous
 62
     7
370
     0
100
AcDbLine
 10
13.8330584597
 20
20.0838657588
 30
0.0
 11
13.8330584597
 21
14.4838657588
 31
0.0
  0
LINE
  5
B4
330
A6
100
AcDbEntity
  8
0
  6
Continuous
 62
     7
370
     0
100
AcDbLine
 10
5.8997800617
 20
14.5838657588
 30
0.0
 11
13.8330584597
 21
14.5838657588
 31
0.0
  0
MTEXT
  5
B5
330
A6
100
AcDbEntity
  8
0
  6
Continuous
 62
     7
370
     0
100
AcDbMText
 10
9.1030338921
 20
15.0403865922
 30
0.002
 40
0.35
 41
0.0
 71
     1
 72
     1
  1

  7
SLDTEXTSTYLE0
 73
     1
 44
1.0
  0
MTEXT
  5
B6
330
A6
100
AcDbEntity
  8
0
  6
Continuous
 62
     7
370
     0
100
AcDbMText
 10
9.3143707033
 20
15.7658101834
 30
0.002
 40
0.35
 41
0.0
 71
     1
 72
     1
  1
15
  7
SLDTEXTSTYLE0
 73
     1
 44
1.0
  0
MTEXT
  5
B7
330
A6
100
AcDbEntity
  8
0
  6
Continuous
 62
     7
370
     0
100
AcDbMText
 10
9.9341623958
 20
16.021528935
 30
0.002
 40
0.35
 41
0.0
 71
     1
 72
     1
  1
5
  7
SLDTEXTSTYLE0
 73
     1
 44
1.0
  0
MTEXT
  5
B8
330
A6
100
AcDbEntity
  8
0
  6
Continuous
 62
     7
370
     0
100
AcDbMText
 10
9.9341623958
 20
15.5587025376
 30
0.002
 40
0.35
 41
0.0
 71
     1
 72
     1
  1
8
  7
SLDTEXTSTYLE0
 73
     1
 44
1.0
  0
MTEXT
  5
B9
330
A6
100
AcDbEntity
  8
0
  6
Continuous
 62
     7
370
     0
100
AcDbMText
 10
10.2953430156
 20
15.7658101834
 30
0.002
 40
0.35
 41
0.0
 71
     1
 72
     1
  1
"
  7
SLDTEXTSTYLE0
 73
     1
 44
1.0
  0
MTEXT
  5
BA
330
A6
100
AcDbEntity
  8
0
  6
Continuous
 62
     7
370
     0
100
AcDbMText
 10
9.4762457426
 20
15.035039328
 30
0.002
 40
0.35
 41
0.0
 71
     1
 72
     1
  1
40
  7
SLDTEXTSTYLE0
 73
     1
 44
1.0
  0
MTEXT
  5
BB
330
A6
100
AcDbEntity
  8
0
  6
Continuous
 62
     7
370
     0
100
AcDbMText
 10
10.7842492081
 20
15.0403865922
 30
0.002
 40
0.35
 41
0.0
 71
     1
 72
     1
  1

  7
SLDTEXTSTYLE0
 73
     1
 44
1.0
  0
ENDBLK
  5
A8
330
A6
100
AcDbEntity
  8
0
100
AcDbBlockEnd
  0
BLOCK
  5
CC
330
CB
100
AcDbEntity
  8
0
100
AcDbBlockBegin
  2
*D5
 70
     1
 10
0.0
 20
0.0
 30
0.0
  3
*D5
  1

  0
INSERT
  5
CE
330
CB
100
AcDbEntity
  8
0
  6
Continuous
 62
     7
370
     0
100
AcDbBlockReference
  2
_CLOSED
 10
15.4330584597
 20
12.0868517647
 30
3.925377136
 41
0.3556
 42
0.3556
 50
270.0
  0
INSERT
  5
CF
330
CB
100
AcDbEntity
  8
0
  6
Continuous
 62
     7
370
     0
100
AcDbBlockReference
  2
_CLOSED
 10
15.4330584597
 20
10.8942455116
 30
3.925377136
 41
0.3556
 42
0.3556
 50
90.0
  0
LINE
  5
D0
330
CB
100
AcDbEntity
  8
0
  6
Continuous
 62
     7
370
     0
100
AcDbLine
 10
13.9939995393
 20
10.9527296256
 30
0.0
 11
13.9939995393
 21
10.881635877
 31
0.0
  0
LINE
  5
D1
330
CB
100
AcDbEntity
  8
0
  6
Continuous
 62
     7
370
     0
100
AcDbLine
 10
13.9939995393
 20
10.881635877
 30
0.0
 11
14.9093953803
 21
10.881635877
 31
0.0
  0
LINE
  5
D2
330
CB
100
AcDbEntity
  8
0
  6
Continuous
 62
     7
370
     0
100
AcDbLine
 10
14.9093953803
 20
10.881635877
 30
0.0
 11
14.9093953803
 21
10.9527296256
 31
0.0
  0
LINE
  5
D3
330
CB
100
AcDbEntity
  8
0
  6
Continuous
 62
     7
370
     0
100
AcDbLine
 10
13.9939995393
 20
11.9972001979
 30
0.0
 11
13.9939995393
 21
12.0682939465
 31
0.0
  0
LINE
  5
D4
330
CB
100
AcDbEntity
  8
0
  6
Continuous
 62
     7
370
     0
100
AcDbLine
 10
13.9939995393
 20
12.0682939465
 30
0.0
 11
14.9093953803
 21
12.0682939465
 31
0.0
  0
LINE
  5
D5
330
CB
100
AcDbEntity
  8
0
  6
Continuous
 62
     7
370
     0
100
AcDbLine
 10
14.9093953803
 20
12.0682939465
 30
0.0
 11
14.9093953803
 21
11.9972001979
 31
0.0
  0
LINE
  5
D6
330
CB
100
AcDbEntity
  8
0
  6
Continuous
 62
     7
370
     0
100
AcDbLine
 10
14.4157981593
 20
11.3514926561
 30
0.0
 11
14.4157981593
 21
11.712673241
 31
0.0
  0
LINE
  5
D7
330
CB
100
AcDbEntity
  8
0
  6
Continuous
 62
     7
370
     0
100
AcDbLine
 10
13.9219246116
 20
12.0868517647
 30
0.0
 11
15.5330584597
 21
12.0868517647
 31
0.0
  0
LINE
  5
D8
330
CB
100
AcDbEntity
  8
0
  6
Continuous
 62
     7
370
     0
100
AcDbLine
 10
6.0109139098
 20
10.8942455116
 30
0.0
 11
15.5330584597
 21
10.8942455116
 31
0.0
  0
LINE
  5
D9
330
CB
100
AcDbEntity
  8
0
  6
Continuous
 62
     7
370
     0
100
AcDbLine
 10
15.4330584597
 20
12.0868517647
 30
0.0
 11
15.4330584597
 21
12.7218517647
 31
0.0
  0
LINE
  5
DA
330
CB
100
AcDbEntity
  8
0
  6
Continuous
 62
     7
370
     0
100
AcDbLine
 10
15.4330584597
 20
12.0868517647
 30
0.0
 11
15.4330584597
 21
10.8942455116
 31
0.0
  0
LINE
  5
DB
330
CB
100
AcDbEntity
  8
0
  6
Continuous
 62
     7
370
     0
100
AcDbLine
 10
15.4330584597
 20
10.8942455116
 30
0.0
 11
15.4330584597
 21
10.2592455116
 31
0.0
  0
MTEXT
  5
DC
330
CB
100
AcDbEntity
  8
0
  6
Continuous
 62
     7
370
     0
100
AcDbMText
 10
14.9765376263
 20
10.8302600045
 30
3.925377136
 40
0.35
 41
0.0
 71
     1
 72
     1
  1

  7
SLDTEXTSTYLE0
 11
-7.044195017643634E-15
 21
1.0
 31
0.0
 73
     1
 44
1.0
  0
MTEXT
  5
DD
330
CB
100
AcDbEntity
  8
0
  6
Continuous
 62
     7
370
     0
100
AcDbMText
 10
14.251114035
 20
11.0415968156
 30
3.925377136
 40
0.35
 41
0.0
 71
     1
 72
     1
  1
2
  7
SLDTEXTSTYLE0
 11
-7.044195017643634E-15
 21
1.0
 31
0.0
 73
     1
 44
1.0
  0
MTEXT
  5
DE
330
CB
100
AcDbEntity
  8
0
  6
Continuous
 62
     7
370
     0
100
AcDbMText
 10
13.9953952835
 20
11.4027773889
 30
3.925377136
 40
0.35
 41
0.0
 71
     1
 72
     1
  1
3
  7
SLDTEXTSTYLE0
 11
-7.044195017643634E-15
 21
1.0
 31
0.0
 73
     1
 44
1.0
  0
MTEXT
  5
DF
330
CB
100
AcDbEntity
  8
0
  6
Continuous
 62
     7
370
     0
100
AcDbMText
 10
14.4582216809
 20
11.4027773889
 30
3.925377136
 40
0.35
 41
0.0
 71
     1
 72
     1
  1
8
  7
SLDTEXTSTYLE0
 11
-7.044195017643634E-15
 21
1.0
 31
0.0
 73
     1
 44
1.0
  0
MTEXT
  5
E0
330
CB
100
AcDbEntity
  8
0
  6
Continuous
 62
     7
370
     0
100
AcDbMText
 10
14.251114035
 20
11.7639579854
 30
3.925377136
 40
0.35
 41
0.0
 71
     1
 72
     1
  1
"
  7
SLDTEXTSTYLE0
 11
-7.044195017643634E-15
 21
1.0
 31
0.0
 73
     1
 44
1.0
  0
MTEXT
  5
E1
330
CB
100
AcDbEntity
  8
0
  6
Continuous
 62
     7
370
     0
100
AcDbMText
 10
14.9818848905
 20
11.203471855
 30
3.925377136
 40
0.35
 41
0.0
 71
     1
 72
     1
  1
6
  7
SLDTEXTSTYLE0
 11
-7.044195017643634E-15
 21
1.0
 31
0.0
 73
     1
 44
1.0
  0
MTEXT
  5
E2
330
CB
100
AcDbEntity
  8
0
  6
Continuous
 62
     7
370
     0
100
AcDbMText
 10
14.9765376263
 20
12.252864271
 30
3.925377136
 40
0.35
 41
0.0
 71
     1
 72
     1
  1

  7
SLDTEXTSTYLE0
 11
-7.044195017643634E-15
 21
1.0
 31
0.0
 73
     1
 44
1.0
  0
ENDBLK
  5
CD
330
CB
100
AcDbEntity
  8
0
100
AcDbBlockEnd
  0
ENDSEC
  0
SECTION
  2
ENTITIES
  0
LINE
  5
45
330
1F
100
AcDbEntity
  8
0
  6
Continuous
 62
     7
370
    40
100
AcDbLine
 10
1.0078843565
 20
0.5214780157
 30
0.0
 11
20.5078843565
 21
0.5214780157
 31
0.0
  0
LINE
  5
46
330
1F
100
AcDbEntity
  8
0
  6
Continuous
 62
     7
370
    40
100
AcDbLine
 10
0.0078843565
 20
0.0214780157
 30
0.0
 11
21.0078843565
 21
0.0214780157
 31
0.0
  0
LINE
  5
47
330
1F
100
AcDbEntity
  8
0
  6
Continuous
 62
     7
370
    40
100
AcDbLine
 10
0.0078843565
 20
0.0214780157
 30
0.0
 11
0.0078843565
 21
29.7214780157
 31
0.0
  0
LINE
  5
48
330
1F
100
AcDbEntity
  8
0
  6
Continuous
 62
     7
370
    40
100
AcDbLine
 10
0.0078843565
 20
29.7214780157
 30
0.0
 11
21.0078843565
 21
29.7214780157
 31
0.0
  0
LINE
  5
49
330
1F
100
AcDbEntity
  8
0
  6
Continuous
 62
     7
370
    40
100
AcDbLine
 10
21.0078843565
 20
0.0214780157
 30
0.0
 11
21.0078843565
 21
29.7214780157
 31
0.0
  0
LINE
  5
4A
330
1F
100
AcDbEntity
  8
0
  6
Continuous
 62
     7
370
    40
100
AcDbLine
 10
1.0078843565
 20
29.2214780157
 30
0.0
 11
20.5078843565
 21
29.2214780157
 31
0.0
  0
LINE
  5
4B
330
1F
100
AcDbEntity
  8
0
  6
Continuous
 62
     7
370
    40
100
AcDbLine
 10
20.5078843565
 20
0.5214780157
 30
0.0
 11
18.0988311848
 21
0.5214780157
 31
0.0
  0
LINE
  5
4C
330
1F
100
AcDbEntity
  8
0
  6
Continuous
 62
     7
370
    40
100
AcDbLine
 10
1.0078843565
 20
0.5214780157
 30
0.0
 11
1.0078843565
 21
29.2214780157
 31
0.0
  0
LINE
  5
4D
330
1F
100
AcDbEntity
  8
0
  6
Continuous
 62
     7
370
    40
100
AcDbLine
 10
1.0110820912
 20
0.9370927258
 30
0.0
 11
20.5078843565
 21
0.9370927258
 31
0.0
  0
LINE
  5
4E
330
1F
100
AcDbEntity
  8
0
  6
Continuous
 62
     7
370
    40
100
AcDbLine
 10
20.5078843565
 20
4.3370927258
 30
0.0
 11
1.0110820912
 21
4.3370927258
 31
0.0
  0
LINE
  5
4F
330
1F
100
AcDbEntity
  8
0
  6
Continuous
 62
     7
370
    40
100
AcDbLine
 10
1.0110820912
 20
6.0370927258
 30
0.0
 11
20.5078843565
 21
6.0370927258
 31
0.0
  0
LINE
  5
50
330
1F
100
AcDbEntity
  8
0
  6
Continuous
 62
     7
370
    40
100
AcDbLine
 10
21.0078843565
 20
29.2214780157
 30
0.0
 11
21.0078843565
 21
29.7214780157
 31
0.0
  0
LINE
  5
51
330
1F
100
AcDbEntity
  8
0
  6
Continuous
 62
     7
370
    40
100
AcDbLine
 10
3.7101773345
 20
4.3370927258
 30
0.0
 11
3.7101773345
 21
0.5120927258
 31
0.0
  0
LINE
  5
52
330
1F
100
AcDbEntity
  8
0
  6
Continuous
 62
     7
370
    40
100
AcDbLine
 10
10.8910820912
 20
2.6370927258
 30
0.0
 11
1.0110820912
 21
2.6370927258
 31
0.0
  0
LINE
  5
53
330
1F
100
AcDbEntity
  8
0
  6
Continuous
 62
     7
370
    40
100
AcDbLine
 10
10.8910820912
 20
3.0620927258
 30
0.0
 11
1.0110820912
 21
3.0620927258
 31
0.0
  0
LINE
  5
54
330
1F
100
AcDbEntity
  8
0
  6
Continuous
 62
     7
370
    40
100
AcDbLine
 10
10.8910820912
 20
3.4870927258
 30
0.0
 11
1.0110820912
 21
3.4870927258
 31
0.0
  0
LINE
  5
55
330
1F
100
AcDbEntity
  8
0
  6
Continuous
 62
     7
370
    40
100
AcDbLine
 10
10.8910820912
 20
3.9120927258
 30
0.0
 11
1.0110820912
 21
3.9120927258
 31
0.0
  0
LINE
  5
56
330
1F
100
AcDbEntity
  8
0
  6
Continuous
 62
     7
370
    40
100
AcDbLine
 10
6.4710820912
 20
0.5120927258
 30
0.0
 11
6.4710820912
 21
4.3370927258
 31
0.0
  0
LINE
  5
57
330
1F
100
AcDbEntity
  8
0
  6
Continuous
 62
     7
370
    40
100
AcDbLine
 10
1.0110820912
 20
6.0370927258
 30
0.0
 11
1.0110820912
 21
0.5120927258
 31
0.0
  0
LINE
  5
58
330
1F
100
AcDbEntity
  8
0
  6
Continuous
 62
     7
370
    40
100
AcDbLine
 10
2.3529807256
 20
4.3370927258
 30
0.0
 11
2.3529807256
 21
0.5214780157
 31
0.0
  0
LINE
  5
59
330
1F
100
AcDbEntity
  8
0
  6
Continuous
 62
     7
370
    40
100
AcDbLine
 10
4.3910820912
 20
4.3370927258
 30
0.0
 11
4.3910820912
 21
6.0370927258
 31
0.0
  0
LINE
  5
5A
330
1F
100
AcDbEntity
  8
0
  6
Continuous
 62
     7
370
    40
100
AcDbLine
 10
5.4509747075
 20
4.3370927258
 30
0.0
 11
5.4509747075
 21
0.5120927258
 31
0.0
  0
LINE
  5
5B
330
1F
100
AcDbEntity
  8
0
  6
Continuous
 62
     7
370
    40
100
AcDbLine
 10
7.5110820912
 20
2.6370927258
 30
0.0
 11
7.5110820912
 21
4.3370927258
 31
0.0
  0
LINE
  5
5C
330
1F
100
AcDbEntity
  8
0
  6
Continuous
 62
     7
370
    40
100
AcDbLine
 10
6.4710820912
 20
1.3620927258
 30
0.0
 11
1.0110820912
 21
1.3620927258
 31
0.0
  0
LINE
  5
5D
330
1F
100
AcDbEntity
  8
0
  6
Continuous
 62
     7
370
    40
100
AcDbLine
 10
9.0710820912
 20
6.0370927258
 30
0.0
 11
9.0710820912
 21
2.2120927258
 31
0.0
  0
LINE
  5
5E
330
1F
100
AcDbEntity
  8
0
  6
Continuous
 62
     7
370
    40
100
AcDbLine
 10
6.4710820912
 20
1.7870855258
 30
0.0
 11
1.0110820912
 21
1.7870855258
 31
0.0
  0
LINE
  5
5F
330
1F
100
AcDbEntity
  8
0
  6
Continuous
 62
     7
370
    40
100
AcDbLine
 10
6.4710820912
 20
2.2120927258
 30
0.0
 11
1.0110820912
 21
2.2120927258
 31
0.0
  0
LINE
  5
60
330
1F
100
AcDbEntity
  8
0
  6
Continuous
 62
     7
370
    40
100
AcDbLine
 10
6.4710820912
 20
2.2120927258
 30
0.0
 11
20.5078843565
 21
2.2120927258
 31
0.0
  0
LINE
  5
61
330
1F
100
AcDbEntity
  8
0
  6
Continuous
 62
     7
370
    40
100
AcDbLine
 10
10.8910820912
 20
6.0370927258
 30
0.0
 11
10.8910820912
 21
0.5120927258
 31
0.0
  0
LINE
  5
62
330
1F
100
AcDbEntity
  8
0
  6
Continuous
 62
     7
370
    40
100
AcDbLine
 10
16.0878843565
 20
0.5214780157
 30
0.0
 11
16.0878843565
 21
0.9464780157
 31
0.0
  0
LINE
  5
63
330
1F
100
AcDbEntity
  8
0
  6
Continuous
 62
     7
370
    40
100
AcDbLine
 10
16.8678843565
 20
5.4089780157
 30
0.0
 11
16.8678843565
 21
6.0464780157
 31
0.0
  0
LINE
  5
64
330
1F
100
AcDbEntity
  8
0
  6
Continuous
 62
     7
370
    40
100
AcDbLine
 10
19.2078843565
 20
0.9464780157
 30
0.0
 11
19.2078843565
 21
2.2214780157
 31
0.0
  0
LINE
  5
65
330
1F
100
AcDbEntity
  8
0
  6
Continuous
 62
     7
370
    40
100
AcDbLine
 10
20.5078843565
 20
5.3995927258
 30
0.0
 11
10.8910820912
 21
5.3995927258
 31
0.0
  0
LINE
  5
66
330
1F
100
AcDbEntity
  8
0
  6
Continuous
 62
     7
370
    40
100
AcDbLine
 10
20.5078843565
 20
1.3714780157
 30
0.0
 11
19.2078843565
 21
1.3714780157
 31
0.0
  0
LINE
  5
67
330
1F
100
AcDbEntity
  8
0
  6
Continuous
 62
     7
370
    40
100
AcDbLine
 10
20.5078843565
 20
0.5214780157
 30
0.0
 11
20.5078843565
 21
29.2214780157
 31
0.0
  0
MTEXT
  5
69
330
1F
100
AcDbEntity
  8
0
  6
Continuous
 62
     7
370
     0
100
AcDbMText
 10
15.7458736745
 20
3.5849896778
 30
0.0
 40
0.5291666667
 41
0.0
 71
     2
 72
     1
  1
$PRPSHEET:\{Descrizione\}
  7
SLDTEXTSTYLE0
 73
     1
 44
1.0
  0
MTEXT
  5
6A
330
1F
100
AcDbEntity
  8
0
  6
Continuous
 62
     7
370
     0
100
AcDbMText
 10
15.8060921265
 20
1.9846518799
 30
0.0
 40
0.635
 41
0.0
 71
     2
 72
     1
  1
Disegno31
  7
SLDTEXTSTYLE0
 73
     1
 44
1.0
  0
MTEXT
  5
6B
330
1F
100
AcDbEntity
  8
0
  6
Continuous
 62
     7
370
     0
100
AcDbMText
 10
6.572863204
 20
0.8070239161
 30
0.0
 40
0.14986
 41
0.0
 71
     1
 72
     1
  1
PESO: $PRPSHEET:\{Peso\}
  7
SLDTEXTSTYLE0
 73
     1
 44
1.0
  0
MTEXT
  5
6C
330
1F
100
AcDbEntity
  8
0
  6
Continuous
 62
     7
370
     0
100
AcDbMText
 10
6.917245415
 20
5.3102097813
 30
0.0
 40
0.238125
 41
0.0
 71
     2
 72
     1
  1
$PRPSHEET:\{Fine\}
  7
SLDTEXTSTYLE0
 73
     1
 44
1.0
  0
MTEXT
  5
6D
330
1F
100
AcDbEntity
  8
0
  6
Continuous
 62
     7
370
     0
100
AcDbMText
 10
8.9081811541
 20
1.6606492949
 30
0.0
 40
0.238125
 41
0.0
 71
     2
 72
     1
  1
$PRPSHEET:\{Materiale\}
  7
SLDTEXTSTYLE0
 73
     1
 44
1.0
  0
MTEXT
  5
6E
330
1F
100
AcDbEntity
  8
0
  6
Continuous
 62
     7
370
     0
100
AcDbMText
 10
19.5999828412
 20
1.9515224668
 30
0.0
 40
0.2910416667
 41
0.0
 71
     1
 72
     1
  1
A4
  7
SLDTEXTSTYLE0
 73
     1
 44
1.0
  0
MTEXT
  5
70
330
1F
100
AcDbEntity
  8
0
  6
Continuous
 62
     7
370
     0
100
AcDbMText
 10
16.2357137993
 20
0.8114867431
 30
0.0
 40
0.15
 41
0.0
 71
     1
 72
     1
  1
FOGLIO 1 DI 1
  7
SLDTEXTSTYLE1
 73
     1
 44
1.0
  0
MTEXT
  5
71
330
1F
100
AcDbEntity
  8
0
  6
Continuous
 62
     7
370
     0
100
AcDbMText
 10
11.0184787029
 20
0.8021014532
 30
0.0
 40
0.15
 41
0.0
 71
     1
 72
     1
  1
SCALA:1:5
  7
SLDTEXTSTYLE0
 73
     1
 44
1.0
  0
MTEXT
  5
72
330
1F
100
AcDbEntity
  8
0
  6
Continuous
 62
     7
370
     0
100
AcDbMText
 10
11.0184787029
 20
1.9989565085
 30
0.0
 40
0.15
 41
0.0
 71
     1
 72
     1
  1
N. DISEGNO
  7
SLDTEXTSTYLE0
 73
     1
 44
1.0
  0
MTEXT
  5
73
330
1F
100
AcDbEntity
  8
0
  6
Continuous
 62
     7
370
     0
100
AcDbMText
 10
11.0067007848
 20
4.1399261544
 30
0.0
 40
0.15
 41
0.0
 71
     1
 72
     1
  1
TITOLO:
  7
SLDTEXTSTYLE0
 73
     1
 44
1.0
  0
MTEXT
  5
74
330
1F
100
AcDbEntity
  8
0
  6
Continuous
 62
     7
370
     0
100
AcDbMText
 10
17.1206425265
 20
5.7549688837
 30
0.0
 40
0.15
 41
0.0
 71
     1
 72
     1
  1
REVISIONE
  7
SLDTEXTSTYLE0
 73
     1
 44
1.0
  0
MTEXT
  5
75
330
1F
100
AcDbEntity
  8
0
  6
Continuous
 62
     7
370
     0
100
AcDbMText
 10
13.0493484088
 20
5.7747773732
 30
0.0
 40
0.15
 41
0.0
 71
     1
 72
     1
  1
NON SCALARE IL DISEGNO
  7
SLDTEXTSTYLE0
 73
     1
 44
1.0
  0
MTEXT
  5
76
330
1F
100
AcDbEntity
  8
0
  6
Continuous
 62
     7
370
     0
100
AcDbMText
 10
6.575668322
 20
2.1106983547
 30
0.0
 40
0.15
 41
0.0
 71
     1
 72
     1
  1
MATERIALE:
  7
SLDTEXTSTYLE0
 73
     1
 44
1.0
  0
MTEXT
  5
77
330
1F
100
AcDbEntity
  8
0
  6
Continuous
 62
     7
370
     0
100
AcDbMText
 10
5.7325522877
 20
4.1697106479
 30
0.0
 40
0.15
 41
0.0
 71
     1
 72
     1
  1
DATA
  7
SLDTEXTSTYLE0
 73
     1
 44
1.0
  0
MTEXT
  5
78
330
1F
100
AcDbEntity
  8
0
  6
Continuous
 62
     7
370
     0
100
AcDbMText
 10
4.0144408475
 20
4.1682683637
 30
0.0
 40
0.15
 41
0.0
 71
     1
 72
     1
  1
FIRMA
  7
SLDTEXTSTYLE0
 73
     1
 44
1.0
  0
MTEXT
  5
79
330
1F
100
AcDbEntity
  8
0
  6
Continuous
 62
     7
370
     0
100
AcDbMText
 10
2.4433060129
 20
4.1622409891
 30
0.0
 40
0.15
 41
0.0
 71
     1
 72
     1
  1
NOME
  7
SLDTEXTSTYLE0
 73
     1
 44
1.0
  0
INSERT
  5
80
330
1F
100
AcDbEntity
  8
0
  6
Continuous
 62
     7
370
     0
100
AcDbBlockReference
  2
SW_NOTE_0
 10
9.1420036598
 20
5.7190416901
 30
0.0
  0
MTEXT
  5
81
330
1F
100
AcDbEntity
  8
0
  6
Continuous
 62
     7
370
     0
100
AcDbMText
 10
4.4482113078
 20
5.9040199253
 30
0.0
 40
0.15
 41
0.0
 71
     1
 72
     1
  1
FINITURA:
  7
SLDTEXTSTYLE0
 73
     1
 44
1.0
  0
INSERT
  5
8B
330
1F
100
AcDbEntity
  8
0
  6
Continuous
 62
     7
370
     0
100
AcDbBlockReference
  2
SW_NOTE_1
 10
1.0704489657
 20
5.7108297132
 30
0.0
  0
MTEXT
  5
8C
330
1F
100
AcDbEntity
  8
0
  6
Continuous
 62
     7
370
     0
100
AcDbMText
 10
1.0779863774
 20
2.0470576465
 30
0.0
 40
0.15
 41
0.0
 71
     1
 72
     1
  1
QUALITA'
  7
SLDTEXTSTYLE0
 73
     1
 44
1.0
  0
MTEXT
  5
8D
330
1F
100
AcDbEntity
  8
0
  6
Continuous
 62
     7
370
     0
100
AcDbMText
 10
1.0566007411
 20
2.4854631908
 30
0.0
 40
0.15
 41
0.0
 71
     1
 72
     1
  1
FATTO
  7
SLDTEXTSTYLE0
 73
     1
 44
1.0
  0
MTEXT
  5
8E
330
1F
100
AcDbEntity
  8
0
  6
Continuous
 62
     7
370
     0
100
AcDbMText
 10
1.051254332
 20
2.9185223261
 30
0.0
 40
0.15
 41
0.0
 71
     1
 72
     1
  1
APPROVATO
  7
SLDTEXTSTYLE0
 73
     1
 44
1.0
  0
MTEXT
  5
8F
330
1F
100
AcDbEntity
  8
0
  6
Continuous
 62
     7
370
     0
100
AcDbMText
 10
1.0521289779
 20
3.3275334418
 30
0.0
 40
0.15
 41
0.0
 71
     1
 72
     1
  1
VERIFICATO
  7
SLDTEXTSTYLE0
 73
     1
 44
1.0
  0
MTEXT
  5
90
330
1F
100
AcDbEntity
  8
0
  6
Continuous
 62
     7
370
     0
100
AcDbMText
 10
1.0322970156
 20
3.7550642144
 30
0.0
 40
0.15
 41
0.0
 71
     1
 72
     1
  1
DISEGNATO
  7
SLDTEXTSTYLE0
 73
     1
 44
1.0
  0
LINE
  5
91
330
1F
100
AcDbEntity
  8
0
  6
Continuous
 62
     7
370
    15
100
AcDbLine
 10
9.8608523367
 20
16.1838657588
 30
0.0
 11
9.8719861847
 21
16.1838657588
 31
0.0
  0
LINE
  5
92
330
1F
100
AcDbEntity
  8
0
  6
Continuous
 62
     7
370
    15
100
AcDbLine
 10
9.8719861847
 20
24.1838657588
 30
0.0
 11
9.8608523367
 21
24.1838657588
 31
0.0
  0
SPLINE
  5
93
330
1F
100
AcDbEntity
  8
0
  6
Continuous
 62
     7
370
    15
100
AcDbSpline
210
0.0
220
0.0
230
1.0
 70
     8
 71
     3
 72
    29
 73
    25
 74
     0
 42
0.00000001
 43
0.00000001
 40
0.0
 40
0.0
 40
0.0
 40
0.0
 40
0.0477503146506821
 40
0.0908181530186354
 40
0.1280832440558139
 40
0.1587538185196074
 40
0.2139121134510703
 40
0.2716727495527547
 40
0.3301041907897291
 40
0.3865941698594133
 40
0.4405041453641347
 40
0.4919689698226696
 40
0.5428530149871863
 40
0.5960230011230091
 40
0.6506316563511677
 40
0.7055266105078962
 40
0.7327057250003289
 40
0.7595499023480698
 40
0.7861689617282506
 40
0.8174536165990876
 40
0.8552369736669142
 40
0.8989267116297326
 40
0.9476007636602122
 40
0.9999999999999999
 40
0.9999999999999999
 40
0.9999999999999999
 40
0.9999999999999999
 10
9.871501514006694
 20
19.65482402357632
 30
0.0
 10
9.900984145759518
 20
19.65611868805553
 30
0.0
 10
9.957058292736567
 20
19.65858106003445
 30
0.0
 10
10.03441151431342
 20
19.67668705545375
 30
0.0
 10
10.09899595625992
 20
19.7001223297901
 30
0.0
 10
10.16739669157935
 20
19.73387968124674
 30
0.0
 10
10.24155274919186
 20
19.78396152115549
 30
0.0
 10
10.31826572116095
 20
19.85870984961463
 30
0.0
 10
10.38087065535579
 20
19.94707917647867
 30
0.0
 10
10.42582433387341
 20
20.04320816764391
 30
0.0
 10
10.45265553679584
 20
20.14150061427182
 30
0.0
 10
10.46285896071028
 20
20.23938645381958
 30
0.0
 10
10.45758726046305
 20
20.33719713249451
 30
0.0
 10
10.43633668189804
 20
20.43482032135796
 30
0.0
 10
10.39830395005374
 20
20.52977260238708
 30
0.0
 10
10.35337049240279
 20
20.60285864479457
 30
0.0
 10
10.31069897844775
 20
20.65570065638036
 30
0.0
 10
10.27595637469833
 20
20.69197337992489
 30
0.0
 10
10.23643652814099
 20
20.72684210274114
 30
0.0
 10
10.18846134980357
 20
20.76193557332575
 30
0.0
 10
10.12781208359456
 20
20.79689385373316
 30
0.0
 10
10.05326394973307
 20
20.82760321409823
 30
0.0
 10
9.966258959004078
 20
20.85024623525924
 30
0.0
 10
9.90385400032144
 20
20.85326100481318
 30
0.0
 10
9.871501514006694
 20
20.85482394616905
 30
0.0
  0
SPLINE
  5
94
330
1F
100
AcDbEntity
  8
0
  6
Continuous
 62
     7
370
    15
100
AcDbSpline
210
0.0
220
0.0
230
1.0
 70
     8
 71
     3
 72
    10
 73
     6
 74
     0
 42
0.00000001
 43
0.00000001
 40
0.0
 40
0.0
 40
0.0
 40
0.0
 40
0.4455849611176242
 40
0.8341967648543824
 40
1.0
 40
1.0
 40
1.0
 40
1.0
 10
9.871501514006727
 20
20.85482394616905
 30
0.0
 10
9.83508389158327
 20
20.8527026892444
 30
0.0
 10
9.766905058228781
 20
20.84873140246773
 30
0.0
 10
9.687048772439596
 20
20.82733674343302
 30
0.0
 10
9.645872813690806
 20
20.80804154437269
 30
0.0
 10
9.633558740853728
 20
20.80227112654018
 30
0.0
  0
SPLINE
  5
95
330
1F
100
AcDbEntity
  8
0
  6
Continuous
 62
     7
370
    15
100
AcDbSpline
210
0.0
220
0.0
230
1.0
 70
     8
 71
     3
 72
    10
 73
     6
 74
     0
 42
0.00000001
 43
0.00000001
 40
0.0
 40
0.0
 40
0.0
 40
0.0
 40
0.0750235611878916
 40
0.5126384105289397
 40
1.0
 40
1.0
 40
1.0
 40
1.0
 10
9.634003498390767
 20
19.70700799426014
 30
0.0
 10
9.639452151040453
 20
19.70417545291441
 30
0.0
 10
9.67668297012773
 20
19.68482060664686
 30
0.0
 10
9.75653259976429
 20
19.66251156849096
 30
0.0
 10
9.8318286937166
 20
19.65747679793607
 30
0.0
 10
9.871501514006694
 20
19.65482402357632
 30
0.0
  0
LWPOLYLINE
  5
96
330
1F
100
AcDbEntity
  8
0
  6
Continuous
 62
     7
370
    15
100
AcDbPolyline
 90
      151
 70
   128
 43
0.0
 10
13.8219246116
 20
20.1838657588
 10
13.8184500783
 20
20.3513683737
 10
13.8080325736
 20
20.5185771321
 10
13.7906903736
 20
20.685198693
 10
13.7664539023
 20
20.8509407456
 10
13.7353656788
 20
21.015512522
 10
13.6974802422
 20
21.1786253074
 10
13.6528640566
 20
21.3399929465
 10
13.6015953939
 20
21.4993323457
 10
13.5437641968
 20
21.6563639695
 10
13.4794719209
 20
21.8108123311
 10
13.4088313565
 20
21.9624064755
 10
13.3319664314
 20
22.1108804552
 10
13.2490119926
 20
22.2559737962
 10
13.1601135705
 20
22.3974319557
 10
13.0654271231
 20
22.5350067679
 10
12.9651187625
 20
22.6684568799
 10
12.8593644639
 20
22.7975481747
 10
12.7483497561
 20
22.9220541825
 10
12.6322693966
 20
23.0417564773
 10
12.5113270298
 20
23.1564450607
 10
12.3857348299
 20
23.2659187299
 10
12.255713128
 20
23.3699854309
 10
12.1214900266
 20
23.4684625953
 10
11.9833009984
 20
23.5611774608
 10
11.8413884741
 20
23.6479673739
 10
11.6960014165
 20
23.7286800757
 10
11.5473948837
 20
23.8031739686
 10
11.3958295823
 20
23.8713183651
 10
11.2415714091
 20
23.9329937167
 10
11.0848909856
 20
23.9880918239
 10
10.9260631823
 20
24.0365160259
 10
10.7653666372
 20
24.0781813702
 10
10.6030832667
 20
24.1130147617
 10
10.4394977709
 20
24.1409550906
 10
10.2748971345
 20
24.1619533402
 10
10.1095701227
 20
24.1759726725
 10
9.9438067754
 20
24.1829884927
 10
9.7778978979
 20
24.1829884927
 10
9.6121345506
 20
24.1759726725
 10
9.4468075389
 20
24.1619533402
 10
9.2822069024
 20
24.1409550906
 10
9.1186214066
 20
24.1130147617
 10
8.9563380361
 20
24.0781813702
 10
8.795641491
 20
24.0365160259
 10
8.6368136877
 20
23.9880918239
 10
8.4801332642
 20
23.9329937167
 10
8.325875091
 20
23.8713183651
 10
8.1743097896
 20
23.8031739686
 10
8.0257032568
 20
23.7286800757
 10
7.8803161992
 20
23.6479673739
 10
7.7384036749
 20
23.5611774608
 10
7.6002146468
 20
23.4684625953
 10
7.4659915453
 20
23.3699854309
 10
7.3359698435
 20
23.2659187299
 10
7.2103776435
 20
23.1564450607
 10
7.0894352767
 20
23.0417564773
 10
6.9733549173
 20
22.9220541825
 10
6.8623402094
 20
22.7975481747
 10
6.7565859108
 20
22.6684568799
 10
6.6562775503
 20
22.5350067679
 10
6.5615911029
 20
22.3974319557
 10
6.4726926807
 20
22.2559737962
 10
6.389738242
 20
22.1108804552
 10
6.3128733168
 20
21.9624064755
 10
6.2422327525
 20
21.8108123311
 10
6.1779404765
 20
21.6563639695
 10
6.1201092794
 20
21.4993323457
 10
6.0688406167
 20
21.3399929465
 10
6.0242244311
 20
21.1786253074
 10
5.9863389946
 20
21.015512522
 10
5.955250771
 20
20.8509407456
 10
5.9310142997
 20
20.685198693
 10
5.9136720997
 20
20.5185771321
 10
5.9032545951
 20
20.3513683737
 10
5.8997800617
 20
20.1838657588
 10
5.9032545951
 20
20.0163631438
 10
5.9136720997
 20
19.8491543854
 10
5.9310142997
 20
19.6825328245
 10
5.955250771
 20
19.5167907719
 10
5.9863389946
 20
19.3522189955
 10
6.0242244311
 20
19.1891062101
 10
6.0688406167
 20
19.027738571
 10
6.1201092794
 20
18.8683991718
 10
6.1779404765
 20
18.711367548
 10
6.2422327525
 20
18.5569191865
 10
6.3128733168
 20
18.405325042
 10
6.389738242
 20
18.2568510623
 10
6.4726926807
 20
18.1117577213
 10
6.5615911029
 20
17.9702995618
 10
6.6562775503
 20
17.8327247496
 10
6.7565859108
 20
17.6992746376
 10
6.8623402094
 20
17.5701833428
 10
6.9733549173
 20
17.445677335
 10
7.0894352767
 20
17.3259750402
 10
7.2103776435
 20
17.2112864568
 10
7.3359698435
 20
17.1018127877
 10
7.4659915453
 20
16.9977460867
 10
7.6002146468
 20
16.8992689222
 10
7.7384036749
 20
16.8065540567
 10
7.8803161992
 20
16.7197641436
 10
8.0257032568
 20
16.6390514418
 10
8.1743097896
 20
16.5645575489
 10
8.325875091
 20
16.4964131524
 10
8.4801332642
 20
16.4347378008
 10
8.6368136877
 20
16.3796396936
 10
8.795641491
 20
16.3312154916
 10
8.9563380361
 20
16.2895501473
 10
9.1186214066
 20
16.2547167558
 10
9.2822069024
 20
16.2267764269
 10
9.4468075389
 20
16.2057781773
 10
9.6121345506
 20
16.191758845
 10
9.7778978979
 20
16.1847430249
 10
9.9438067754
 20
16.1847430249
 10
10.1095701227
 20
16.191758845
 10
10.2748971345
 20
16.2057781773
 10
10.4394977709
 20
16.2267764269
 10
10.6030832667
 20
16.2547167558
 10
10.7653666372
 20
16.2895501473
 10
10.9260631823
 20
16.3312154916
 10
11.0848909856
 20
16.3796396936
 10
11.2415714091
 20
16.4347378008
 10
11.3958295823
 20
16.4964131524
 10
11.5473948837
 20
16.5645575489
 10
11.6960014165
 20
16.6390514418
 10
11.8413884741
 20
16.7197641436
 10
11.9833009984
 20
16.8065540567
 10
12.1214900266
 20
16.8992689222
 10
12.255713128
 20
16.9977460867
 10
12.3857348299
 20
17.1018127877
 10
12.5113270298
 20
17.2112864568
 10
12.6322693966
 20
17.3259750402
 10
12.7483497561
 20
17.445677335
 10
12.8593644639
 20
17.5701833428
 10
12.9651187625
 20
17.6992746376
 10
13.0654271231
 20
17.8327247496
 10
13.1601135705
 20
17.9702995618
 10
13.2490119926
 20
18.1117577213
 10
13.3319664314
 20
18.2568510623
 10
13.4088313565
 20
18.405325042
 10
13.4794719209
 20
18.5569191865
 10
13.5437641968
 20
18.711367548
 10
13.6015953939
 20
18.8683991718
 10
13.6528640566
 20
19.027738571
 10
13.6974802422
 20
19.1891062101
 10
13.7353656788
 20
19.3522189955
 10
13.7664539023
 20
19.5167907719
 10
13.7906903736
 20
19.6825328245
 10
13.8080325736
 20
19.8491543854
 10
13.8184500783
 20
20.0163631438
 10
13.8219246116
 20
20.1838657588
  0
LWPOLYLINE
  5
97
330
1F
100
AcDbEntity
  8
0
  6
Continuous
 62
     7
370
    15
100
AcDbPolyline
 90
       39
 70
   128
 43
0.0
 10
13.8330584597
 20
20.1838657588
 10
13.8295839263
 20
20.3513683737
 10
13.8191664217
 20
20.5185771321
 10
13.8018242217
 20
20.685198693
 10
13.7775877504
 20
20.8509407456
 10
13.7464995268
 20
21.015512522
 10
13.7086140903
 20
21.1786253074
 10
13.6639979047
 20
21.3399929465
 10
13.612729242
 20
21.4993323457
 10
13.5548980449
 20
21.6563639695
 10
13.4906057689
 20
21.8108123311
 10
13.4199652046
 20
21.9624064755
 10
13.3431002794
 20
22.1108804552
 10
13.2601458407
 20
22.2559737962
 10
13.1712474185
 20
22.3974319557
 10
13.0765609711
 20
22.5350067679
 10
12.9762526106
 20
22.6684568799
 10
12.870498312
 20
22.7975481747
 10
12.7594836041
 20
22.9220541825
 10
12.6434032447
 20
23.0417564773
 10
12.5224608779
 20
23.1564450607
 10
12.3968686779
 20
23.2659187299
 10
12.2668469761
 20
23.3699854309
 10
12.1326238746
 20
23.4684625953
 10
11.9944348465
 20
23.5611774608
 10
11.8525223222
 20
23.6479673739
 10
11.7071352646
 20
23.7286800757
 10
11.5585287318
 20
23.8031739686
 10
11.4069634304
 20
23.8713183651
 10
11.2527052572
 20
23.9329937167
 10
11.0960248337
 20
23.9880918239
 10
10.9371970304
 20
24.0365160259
 10
10.7765004853
 20
24.0781813702
 10
10.6142171148
 20
24.1130147617
 10
10.450631619
 20
24.1409550906
 10
10.2860309825
 20
24.1619533402
 10
10.1207039708
 20
24.1759726725
 10
9.9549406235
 20
24.1829884927
 10
9.8719861847
 20
24.1838657588
  0
LWPOLYLINE
  5
98
330
1F
100
AcDbEntity
  8
0
  6
Continuous
 62
     7
370
    15
100
AcDbPolyline
 90
       39
 70
   128
 43
0.0
 10
9.8719861847
 20
16.1838657588
 10
9.9549406235
 20
16.1847430249
 10
10.1207039708
 20
16.191758845
 10
10.2860309825
 20
16.2057781773
 10
10.450631619
 20
16.2267764269
 10
10.6142171148
 20
16.2547167558
 10
10.7765004853
 20
16.2895501473
 10
10.9371970304
 20
16.3312154916
 10
11.0960248337
 20
16.3796396936
 10
11.2527052572
 20
16.4347378008
 10
11.4069634304
 20
16.4964131524
 10
11.5585287318
 20
16.5645575489
 10
11.7071352646
 20
16.6390514418
 10
11.8525223222
 20
16.7197641436
 10
11.9944348465
 20
16.8065540567
 10
12.1326238746
 20
16.8992689222
 10
12.2668469761
 20
16.9977460867
 10
12.3968686779
 20
17.1018127877
 10
12.5224608779
 20
17.2112864568
 10
12.6434032447
 20
17.3259750402
 10
12.7594836041
 20
17.445677335
 10
12.870498312
 20
17.5701833428
 10
12.9762526106
 20
17.6992746376
 10
13.0765609711
 20
17.8327247496
 10
13.1712474185
 20
17.9702995618
 10
13.2601458407
 20
18.1117577213
 10
13.3431002794
 20
18.2568510623
 10
13.4199652046
 20
18.405325042
 10
13.4906057689
 20
18.5569191865
 10
13.5548980449
 20
18.711367548
 10
13.612729242
 20
18.8683991718
 10
13.6639979047
 20
19.027738571
 10
13.7086140903
 20
19.1891062101
 10
13.7464995268
 20
19.3522189955
 10
13.7775877504
 20
19.5167907719
 10
13.8018242217
 20
19.6825328245
 10
13.8191664217
 20
19.8491543854
 10
13.8295839263
 20
20.0163631438
 10
13.8330584597
 20
20.1838657588
  0
SPLINE
  5
99
330
1F
100
AcDbEntity
  8
0
  6
Continuous
 62
     8
370
    15
100
AcDbSpline
210
0.0
220
0.0
230
1.0
 70
     8
 71
     3
 72
    15
 73
    11
 74
     0
 42
0.00000001
 43
0.00000001
 40
0.0
 40
0.0
 40
0.0
 40
0.0
 40
0.0125552447435081
 40
0.0378289286628813
 40
0.0624767812615146
 40
0.0877542304902743
 40
0.189143351631417
 40
0.4592577556308559
 40
0.7298463302686159
 40
1.0
 40
1.0
 40
1.0
 40
1.0
 10
9.871501085315051
 20
19.65544740913585
 30
0.0
 10
9.870971454635436
 20
19.6553299192822
 30
0.0
 10
9.86937567839952
 20
19.65497592257538
 30
0.0
 10
9.866809948885072
 20
19.65909948688274
 30
0.0
 10
9.864217961094448
 20
19.66976874990801
 30
0.0
 10
9.862962641767881
 20
19.70211554378271
 30
0.0
 10
9.857592770629216
 20
19.78038727849588
 30
0.0
 10
9.852250265862901
 20
19.9143165101261
 30
0.0
 10
9.847400598279721
 20
20.08358847229367
 30
0.0
 10
9.84684518490157
 20
20.19777609338976
 30
0.0
 10
9.846567701564728
 20
20.25482398487269
 30
0.0
  0
SPLINE
  5
9A
330
1F
100
AcDbEntity
  8
0
  6
Continuous
 62
     8
370
    15
100
AcDbSpline
210
0.0
220
0.0
230
1.0
 70
     8
 71
     3
 72
    15
 73
    11
 74
     0
 42
0.00000001
 43
0.00000001
 40
0.0
 40
0.0
 40
0.0
 40
0.0
 40
0.2701536571119312
 40
0.5407422191099174
 40
0.8108566104917387
 40
0.912245726896775
 40
0.9375231749447727
 40
0.9621710263920528
 40
0.9874447091308375
 40
1.0
 40
1.0
 40
1.0
 40
1.0
 10
9.846567701564728
 20
20.25482398487269
 30
0.0
 10
9.846845184901605
 20
20.31187187635079
 30
0.0
 10
9.847400598279934
 20
20.42605949743723
 30
0.0
 10
9.852250265862066
 20
20.59533145967722
 30
0.0
 10
9.857592770631614
 20
20.72926069108982
 30
0.0
 10
9.862962641765696
 20
20.80753242610663
 30
0.0
 10
9.864217961096207
 20
20.83987921972011
 30
0.0
 10
9.86680994887841
 20
20.85054848331092
 30
0.0
 10
9.869375680337985
 20
20.85467204889392
 30
0.0
 10
9.870971458555447
 20
20.85431805100464
 30
0.0
 10
9.871501091209252
 20
20.85420056046648
 30
0.0
  0
POINT
  5
9B
330
1F
100
AcDbEntity
  8
0
  6
Continuous
 62
     7
370
     0
100
AcDbPoint
 10
5.8997800617
 20
20.1838657588
 30
0.0
  0
POINT
  5
9C
330
1F
100
AcDbEntity
  8
0
  6
Continuous
 62
     7
370
     0
100
AcDbPoint
 10
13.8330584597
 20
20.1838657588
 30
0.0
  0
DIMENSION
  5
9D
330
1F
100
AcDbEntity
  8
0
  6
Continuous
 62
     7
370
     0
100
AcDbDimension
  2
*D4
 10
13.8330584597
 20
14.5838657588
 30
0.0
 11
9.8770443358
 21
14.5838657588
 31
0.0
 70
   160
 71
     2
 42
-1.0
  3
SLDDIMSTYLE0
100
AcDbAlignedDimension
 13
5.8997800617
 23
20.1838657588
 33
0.0
 14
13.8330584597
 24
20.1838657588
 34
0.0
100
AcDbRotatedDimension
  0
LINE
  5
BC
330
1F
100
AcDbEntity
  8
0
  6
Continuous
 62
     7
370
    15
100
AcDbLine
 10
5.8997800617
 20
10.973466957
 30
0.0
 11
5.9109139098
 21
10.8942455116
 31
0.0
  0
LINE
  5
BD
330
1F
100
AcDbEntity
  8
0
  6
Continuous
 62
     7
370
    15
100
AcDbLine
 10
13.8330584597
 20
12.0076303192
 30
0.0
 11
13.8219246116
 21
12.0868517647
 31
0.0
  0
SPLINE
  5
BE
330
1F
100
AcDbEntity
  8
0
  6
Continuous
 62
     7
370
    15
100
AcDbSpline
210
0.0
220
0.0
230
1.0
 70
     8
 71
     3
 72
    19
 73
    15
 74
     0
 42
0.00000001
 43
0.00000001
 40
0.0
 40
0.0
 40
0.0
 40
0.0
 40
0.1771521266103402
 40
0.3197188454658199
 40
0.4274328046482421
 40
0.5125750812129792
 40
0.6022860366326835
 40
0.697486064358999
 40
0.7935363413720422
 40
0.8845100201310572
 40
0.9631962123842558
 40
0.9841819205940288
 40
0.9963419183367763
 40
1.0
 40
1.0
 40
1.0
 40
1.0
 10
9.846567701564746
 20
11.66485665519299
 30
0.0
 10
9.81158188800613
 20
11.65716443623044
 30
0.0
 10
9.748440540890096
 20
11.64328175012988
 30
0.0
 10
9.665380440532674
 20
11.61929011197471
 30
0.0
 10
9.600939930620791
 20
11.59816596648173
 30
0.0
 10
9.547227276682813
 20
11.57870108785319
 30
0.0
 10
9.496422784870385
 20
11.55870993044237
 30
0.0
 10
9.44416630890357
 20
11.53640372251152
 30
0.0
 10
9.392451552900168
 20
11.51238984716692
 30
0.0
 10
9.34415684240612
 20
11.48854096146609
 30
0.0
 10
9.310689171110676
 20
11.47008909618735
 30
0.0
 10
9.290239436309127
 20
11.45955556343727
 30
0.0
 10
9.28592255382444
 20
11.45307223308523
 30
0.0
 10
9.285197227546911
 20
11.44995388495572
 30
0.0
 10
9.285029488930348
 20
11.44923273722221
 30
0.0
  0
LWPOLYLINE
  5
BF
330
1F
100
AcDbEntity
  8
0
  6
Continuous
 62
     7
370
    15
100
AcDbPolyline
 90
       29
 70
   128
 43
0.0
 10
10.2689546601
 20
11.5875144021
 10
10.2821435285
 20
11.5901977077
 10
10.3374887333
 20
11.6014578168
 10
10.3853644804
 20
11.6111982477
 10
10.4197574715
 20
11.6181955808
 10
10.440094398
 20
11.6223809693
 10
10.4475129556
 20
11.6246016834
 10
10.4529654556
 20
11.6279944721
 10
10.4548409243
 20
11.6299620967
 10
10.4566472184
 20
11.6325545075
 10
10.458154185
 20
11.6357753124
 10
10.4592106544
 20
11.6395988529
 10
10.4602295545
 20
11.6458115022
 10
10.4603463539
 20
11.6555899981
 10
10.4579657785
 20
11.6676447887
 10
10.4536333983
 20
11.6775658365
 10
10.4486490449
 20
11.6849083606
 10
10.443080906
 20
11.6902480572
 10
10.4360451145
 20
11.6931597768
 10
10.4049391254
 20
11.6962617904
 10
10.3750050533
 20
11.6986799793
 10
10.3114944173
 20
11.7022716312
 10
10.2556985554
 20
11.7037078298
 10
10.2056871958
 20
11.7036318265
 10
10.1499247514
 20
11.7020272895
 10
10.0712236489
 20
11.6970274819
 10
9.9698005617
 20
11.6858220715
 10
9.8465677016
 20
11.6648566552
 10
9.8465677016
 20
11.6648566552
  0
LINE
  5
C0
330
1F
100
AcDbEntity
  8
0
  6
Continuous
 62
     7
370
    15
100
AcDbLine
 10
9.976277732
 20
11.2279455567
 30
0.0
 11
9.929271446
 21
11.4589888338
 31
0.0
  0
LINE
  5
C1
330
1F
100
AcDbEntity
  8
0
  6
Continuous
 62
     7
370
    15
100
AcDbLine
 10
9.8499019604
 20
11.4478341801
 30
0.0
 11
9.8978837556
 21
11.2119961219
 31
0.0
  0
LINE
  5
C2
330
1F
100
AcDbEntity
  8
0
  6
Continuous
 62
     7
370
    15
100
AcDbLine
 10
9.8978837556
 20
11.2119961219
 30
0.0
 11
9.9049595114
 21
11.2073127813
 31
0.0
  0
LINE
  5
C3
330
1F
100
AcDbEntity
  8
0
  6
Continuous
 62
     7
370
    15
100
AcDbLine
 10
9.9715943914
 20
11.2208698008
 30
0.0
 11
9.976277732
 21
11.2279455567
 31
0.0
  0
LINE
  5
C4
330
1F
100
AcDbEntity
  8
0
  6
Continuous
 62
     7
370
    15
100
AcDbLine
 10
5.9109139098
 20
10.8942455116
 30
0.0
 11
13.8330584597
 21
12.0076303192
 31
0.0
  0
LINE
  5
C5
330
1F
100
AcDbEntity
  8
0
  6
Continuous
 62
     7
370
    15
100
AcDbLine
 10
5.8997800617
 20
10.973466957
 30
0.0
 11
13.8219246116
 21
12.0868517647
 31
0.0
  0
LINE
  5
C6
330
1F
100
AcDbEntity
  8
0
  6
Continuous
 62
     7
370
    15
100
AcDbLine
 10
9.976277732
 20
11.2279455567
 30
0.0
 11
9.8978837556
 21
11.2119961219
 31
0.0
  0
LINE
  5
C7
330
1F
100
AcDbEntity
  8
0
  6
Continuous
 62
     7
370
    15
100
AcDbLine
 10
9.9715943914
 20
11.2208698008
 30
0.0
 11
9.9049595114
 21
11.2073127813
 31
0.0
  0
SPLINE
  5
C8
330
1F
100
AcDbEntity
  8
0
  6
Continuous
 62
     8
370
    15
100
AcDbSpline
210
0.0
220
0.0
230
1.0
 70
    24
 71
     3
 72
    16
 73
    12
 74
     0
 42
0.00000001
 43
0.00000001
 40
0.0
 40
0.0
 40
0.0
 40
0.0
 40
0.00358742913035
 40
0.0288833851445637
 40
0.0537391497248644
 40
0.0779794315751874
 40
0.1028388992026568
 40
0.2025514751028435
 40
0.4681993346304303
 40
0.7343135240288264
 40
1.0
 40
1.0
 40
1.0
 40
1.0
 10
9.873607463923758
 20
11.53195197711405
 30
0.0
 10
9.873459510805896
 20
11.53267918992156
 30
0.0
 10
9.872268299291772
 20
11.53853418157095
 30
0.0
 10
9.869905778625137
 20
11.55014634163631
 30
0.0
 10
9.866812676741857
 20
11.56534942310633
 30
0.0
 10
9.86421724757921
 20
11.57810636500372
 30
0.0
 10
9.862963517788897
 20
11.58426864379742
 30
0.0
 10
9.857591799055124
 20
11.6106714849017
 30
0.0
 10
9.852250618445876
 20
11.63692422632711
 30
0.0
 10
9.847400510234985
 20
11.66076326980207
 30
0.0
 10
9.846845155569033
 20
11.66349292519293
 30
0.0
 10
9.846567701564728
 20
11.66485665519299
 30
0.0
  0
DIMENSION
  5
C9
330
1F
100
AcDbEntity
  8
0
  6
Continuous
 62
     7
370
     0
100
AcDbDimension
  2
*D5
 10
15.4330584597
 20
10.8942455116
 30
0.0
 11
15.4330584597
 21
11.4749649234
 31
0.0
 70
   160
 71
     2
 42
-1.0
  3
SLDDIMSTYLE1
100
AcDbAlignedDimension
 13
13.8219246116
 23
12.0868517647
 33
0.0
 14
5.9109139098
 24
10.8942455116
 34
0.0
 50
90.0
100
AcDbRotatedDimension
  0
ENDSEC
  0
SECTION
  2
OBJECTS
  0
DICTIONARY
  5
C
330
0
100
AcDbDictionary
281
     1
  3
ACAD_GROUP
350
D
  3
ACAD_LAYOUT
350
1A
  3
ACAD_MLINESTYLE
350
17
  3
ACAD_PLOTSETTINGS
350
19
  3
ACAD_PLOTSTYLENAME
350
E
  0
DICTIONARY
  5
D
102
{ACAD_REACTORS
330
C
102
}
330
C
100
AcDbDictionary
281
     1
  0
DICTIONARY
  5
1A
102
{ACAD_REACTORS
330
C
102
}
330
C
100
AcDbDictionary
281
     1
  3
Layout1
350
1E
  3
Layout2
350
26
  3
Model
350
22
  0
DICTIONARY
  5
17
102
{ACAD_REACTORS
330
C
102
}
330
C
100
AcDbDictionary
281
     1
  3
Standard
350
18
  0
DICTIONARY
  5
19
102
{ACAD_REACTORS
330
C
102
}
330
C
100
AcDbDictionary
281
     1
  0
ACDBDICTIONARYWDFLT
  5
E
102
{ACAD_REACTORS
330
C
102
}
330
C
100
AcDbDictionary
281
     1
  3
Normal
350
F
100
AcDbDictionaryWithDefault
340
F
  0
LAYOUT
  5
1E
102
{ACAD_REACTORS
330
1A
102
}
330
1A
100
AcDbPlotSettings
  1

  2
none_device
  4

  6

 40
0.0
 41
0.0
 42
0.0
 43
0.0
 44
0.0
 45
0.0
 46
0.0
 47
0.0
 48
0.0
 49
0.0
140
0.0
141
0.0
142
1.0
143
1.0
 70
   688
 72
     0
 73
     0
 74
     5
  7

 75
    16
147
1.0
148
0.0
149
0.0
100
AcDbLayout
  1
Layout1
 70
     1
 71
     1
 10
0.0
 20
0.0
 11
420.0
 21
297.0
 12
0.0
 22
0.0
 32
0.0
 14
1.0000000000E+20
 24
1.0000000000E+20
 34
1.0000000000E+20
 15
-1.0000000000E+20
 25
-1.0000000000E+20
 35
-1.0000000000E+20
146
0.0
 13
0.0
 23
0.0
 33
0.0
 16
1.0
 26
0.0
 36
0.0
 17
0.0
 27
1.0
 37
0.0
 76
     0
330
1B
  0
LAYOUT
  5
26
102
{ACAD_REACTORS
330
1A
102
}
330
1A
100
AcDbPlotSettings
  1

  2
none_device
  4

  6

 40
0.0
 41
0.0
 42
0.0
 43
0.0
 44
0.0
 45
0.0
 46
0.0
 47
0.0
 48
0.0
 49
0.0
140
0.0
141
0.0
142
1.0
143
1.0
 70
   688
 72
     0
 73
     0
 74
     5
  7

 75
    16
147
1.0
148
0.0
149
0.0
100
AcDbLayout
  1
Layout2
 70
     1
 71
     2
 10
0.0
 20
0.0
 11
0.0
 21
0.0
 12
0.0
 22
0.0
 32
0.0
 14
0.0
 24
0.0
 34
0.0
 15
0.0
 25
0.0
 35
0.0
146
0.0
 13
0.0
 23
0.0
 33
0.0
 16
1.0
 26
0.0
 36
0.0
 17
0.0
 27
1.0
 37
0.0
 76
     0
330
23
  0
LAYOUT
  5
22
102
{ACAD_REACTORS
330
1A
102
}
330
1A
100
AcDbPlotSettings
  1

  2
none_device
  4

  6

 40
0.0
 41
0.0
 42
0.0
 43
0.0
 44
0.0
 45
0.0
 46
0.0
 47
0.0
 48
0.0
 49
0.0
140
0.0
141
0.0
142
1.0
143
1.0
 70
  1712
 72
     0
 73
     0
 74
     0
  7

 75
     0
147
1.0
148
0.0
149
0.0
100
AcDbLayout
  1
Model
 70
     1
 71
     0
 10
0.0
 20
0.0
 11
21.0
 21
29.7
 12
0.0
 22
0.0
 32
0.0
 14
0.0
 24
0.0
 34
0.0
 15
21.0
 25
29.7
 35
0.0
146
0.0
 13
0.0
 23
0.0
 33
0.0
 16
1.0
 26
0.0
 36
0.0
 17
0.0
 27
1.0
 37
0.0
 76
     0
330
1F
331
29
  0
MLINESTYLE
  5
18
102
{ACAD_REACTORS
330
17
102
}
330
17
100
AcDbMlineStyle
  2
Standard
 70
     0
  3

 62
   256
 51
90.0
 52
90.0
 71
     2
 49
0.5
 62
   256
  6
BYLAYER
 49
-0.5
 62
   256
  6
BYLAYER
  0
ACDBPLACEHOLDER
  5
F
102
{ACAD_REACTORS
330
E
102
}
330
E
  0
ENDSEC
  0
EOF
