  0
SECTION
  2
HEADER
  9
$ACADVER
  1
AC1015
  9
$ACADMAINTVER
 70
     6
  9
$DWGCODEPAGE
  3
ANSI_1252
  9
$INSBASE
 10
0.0
 20
0.0
 30
0.0
  9
$EXTMIN
 10
0.0
 20
0.0
 30
0.0
  9
$EXTMAX
 10
118.9
 20
84.1
 30
0.0
  9
$LIMMIN
 10
0.0
 20
0.0
  9
$LIMMAX
 10
118.9
 20
84.1
  9
$ORTHOMODE
 70
     0
  9
$REGENMODE
 70
     1
  9
$FILLMODE
 70
     1
  9
$QTEXTMODE
 70
     0
  9
$MIRRTEXT
 70
     1
  9
$LTSCALE
 40
1.0
  9
$ATTMODE
 70
     1
  9
$TEXTSIZE
 40
0.35
  9
$TRACEWID
 40
1.0
  9
$TEXTSTYLE
  7
Standard
  9
$CLAYER
  8
0
  9
$CELTYPE
  6
ByLayer
  9
$CECOLOR
 62
   256
  9
$CELTSCALE
 40
1.0
  9
$DISPSILH
 70
     0
  9
$DIMSCALE
 40
1.0
  9
$DIMASZ
 40
0.3302
  9
$DIMEXO
 40
0.1
  9
$DIMDLI
 40
3.75
  9
$DIMRND
 40
0.0
  9
$DIMDLE
 40
0.0
  9
$DIMEXE
 40
0.1
  9
$DIMTP
 40
0.0
  9
$DIMTM
 40
0.0
  9
$DIMTXT
 40
0.35
  9
$DIMCEN
 40
2.5
  9
$DIMTSZ
 40
0.0
  9
$DIMTOL
 70
     0
  9
$DIMLIM
 70
     0
  9
$DIMTIH
 70
     1
  9
$DIMTOH
 70
     1
  9
$DIMSE1
 70
     0
  9
$DIMSE2
 70
     0
  9
$DIMTAD
 70
     1
  9
$DIMZIN
 70
     0
  9
$DIMBLK
  1

  9
$DIMASO
 70
     1
  9
$DIMSHO
 70
     1
  9
$DIMPOST
  1

  9
$DIMAPOST
  1

  9
$DIMALT
 70
     0
  9
$DIMALTD
 70
     3
  9
$DIMALTF
 40
0.3937007874
  9
$DIMLFAC
 40
2.0
  9
$DIMTOFL
 70
     1
  9
$DIMTVP
 40
0.0
  9
$DIMTIX
 70
     0
  9
$DIMSOXD
 70
     0
  9
$DIMSAH
 70
     0
  9
$DIMBLK1
  1

  9
$DIMBLK2
  1

  9
$DIMSTYLE
  2
ISO-25
  9
$DIMCLRD
 70
     0
  9
$DIMCLRE
 70
     0
  9
$DIMCLRT
 70
     0
  9
$DIMTFAC
 40
1.0
  9
$DIMGAP
 40
0.1524
  9
$DIMJUST
 70
     0
  9
$DIMSD1
 70
     0
  9
$DIMSD2
 70
     0
  9
$DIMTOLJ
 70
     0
  9
$DIMTZIN
 70
     0
  9
$DIMALTZ
 70
     0
  9
$DIMALTTZ
 70
     0
  9
$DIMUPT
 70
     0
  9
$DIMDEC
 70
     0
  9
$DIMTDEC
 70
     0
  9
$DIMALTU
 70
     2
  9
$DIMALTTD
 70
     3
  9
$DIMTXSTY
  7
Standard
  9
$DIMAUNIT
 70
     0
  9
$DIMADEC
 70
     2
  9
$DIMALTRND
 40
0.0
  9
$DIMAZIN
 70
     0
  9
$DIMDSEP
 70
    44
  9
$DIMATFIT
 70
     3
  9
$DIMFRAC
 70
     0
  9
$DIMLDRBLK
  1

  9
$DIMLUNIT
 70
     2
  9
$DIMLWD
 70
    -2
  9
$DIMLWE
 70
    -2
  9
$DIMTMOVE
 70
     0
  9
$LUNITS
 70
     2
  9
$LUPREC
 70
     2
  9
$SKETCHINC
 40
1.0
  9
$FILLETRAD
 40
10.0
  9
$AUNITS
 70
     0
  9
$AUPREC
 70
     2
  9
$MENU
  1
.
  9
$ELEVATION
 40
0.0
  9
$PELEVATION
 40
0.0
  9
$THICKNESS
 40
0.0
  9
$LIMCHECK
 70
     0
  9
$CHAMFERA
 40
10.0
  9
$CHAMFERB
 40
10.0
  9
$CHAMFERC
 40
20.0
  9
$CHAMFERD
 40
0.0
  9
$SKPOLY
 70
     0
  9
$TDCREATE
 40
2455992.495599954
  9
$TDUCREATE
 40
2455992.453933287
  9
$TDUPDATE
 40
2455992.495601991
  9
$TDUUPDATE
 40
2455992.453935324
  9
$TDINDWG
 40
0.0000000116
  9
$TDUSRTIMER
 40
0.0000000116
  9
$USRTIMER
 70
     1
  9
$ANGBASE
 50
0.0
  9
$ANGDIR
 70
     0
  9
$PDMODE
 70
     0
  9
$PDSIZE
 40
-1.0
  9
$PLINEWID
 40
0.0
  9
$SPLFRAME
 70
     0
  9
$SPLINETYPE
 70
     6
  9
$SPLINESEGS
 70
     8
  9
$HANDSEED
  5
241
  9
$SURFTAB1
 70
     6
  9
$SURFTAB2
 70
     6
  9
$SURFTYPE
 70
     6
  9
$SURFU
 70
     6
  9
$SURFV
 70
     6
  9
$UCSBASE
  2

  9
$UCSNAME
  2

  9
$UCSORG
 10
0.0
 20
0.0
 30
0.0
  9
$UCSXDIR
 10
1.0
 20
0.0
 30
0.0
  9
$UCSYDIR
 10
0.0
 20
1.0
 30
0.0
  9
$UCSORTHOREF
  2

  9
$UCSORTHOVIEW
 70
     0
  9
$UCSORGTOP
 10
0.0
 20
0.0
 30
0.0
  9
$UCSORGBOTTOM
 10
0.0
 20
0.0
 30
0.0
  9
$UCSORGLEFT
 10
0.0
 20
0.0
 30
0.0
  9
$UCSORGRIGHT
 10
0.0
 20
0.0
 30
0.0
  9
$UCSORGFRONT
 10
0.0
 20
0.0
 30
0.0
  9
$UCSORGBACK
 10
0.0
 20
0.0
 30
0.0
  9
$PUCSBASE
  2

  9
$PUCSNAME
  2

  9
$PUCSORG
 10
0.0
 20
0.0
 30
0.0
  9
$PUCSXDIR
 10
1.0
 20
0.0
 30
0.0
  9
$PUCSYDIR
 10
0.0
 20
1.0
 30
0.0
  9
$PUCSORTHOREF
  2

  9
$PUCSORTHOVIEW
 70
     0
  9
$PUCSORGTOP
 10
0.0
 20
0.0
 30
0.0
  9
$PUCSORGBOTTOM
 10
0.0
 20
0.0
 30
0.0
  9
$PUCSORGLEFT
 10
0.0
 20
0.0
 30
0.0
  9
$PUCSORGRIGHT
 10
0.0
 20
0.0
 30
0.0
  9
$PUCSORGFRONT
 10
0.0
 20
0.0
 30
0.0
  9
$PUCSORGBACK
 10
0.0
 20
0.0
 30
0.0
  9
$USERI1
 70
     0
  9
$USERI2
 70
     0
  9
$USERI3
 70
     0
  9
$USERI4
 70
     0
  9
$USERI5
 70
     0
  9
$USERR1
 40
0.0
  9
$USERR2
 40
0.0
  9
$USERR3
 40
0.0
  9
$USERR4
 40
0.0
  9
$USERR5
 40
0.0
  9
$WORLDVIEW
 70
     1
  9
$SHADEDGE
 70
     3
  9
$SHADEDIF
 70
    70
  9
$TILEMODE
 70
     1
  9
$MAXACTVP
 70
    64
  9
$PINSBASE
 10
0.0
 20
0.0
 30
0.0
  9
$PLIMCHECK
 70
     0
  9
$PEXTMIN
 10
1.0000000000E+20
 20
1.0000000000E+20
 30
1.0000000000E+20
  9
$PEXTMAX
 10
-1.0000000000E+20
 20
-1.0000000000E+20
 30
-1.0000000000E+20
  9
$PLIMMIN
 10
0.0
 20
0.0
  9
$PLIMMAX
 10
420.0
 20
297.0
  9
$UNITMODE
 70
     0
  9
$VISRETAIN
 70
     1
  9
$PLINEGEN
 70
     0
  9
$PSLTSCALE
 70
     1
  9
$TREEDEPTH
 70
  3020
  9
$CMLSTYLE
  2
Standard
  9
$CMLJUST
 70
     0
  9
$CMLSCALE
 40
20.0
  9
$PROXYGRAPHICS
 70
     1
  9
$MEASUREMENT
 70
     1
  9
$CELWEIGHT
370
    -1
  9
$ENDCAPS
280
     0
  9
$JOINSTYLE
280
     0
  9
$LWDISPLAY
290
     1
  9
$INSUNITS
 70
     4
  9
$HYPERLINKBASE
  1

  9
$STYLESHEET
  1

  9
$XEDIT
290
     1
  9
$CEPSNTYPE
380
     0
  9
$PSTYLEMODE
290
     1
  9
$FINGERPRINTGUID
  2
{8BA071F1-64B4-4402-8F17-FDF61FE90024}
  9
$VERSIONGUID
  2
{FAEB1C32-E019-11D5-929B-00C0DF256EC4}
  9
$EXTNAMES
290
     1
  9
$PSVPSCALE
 40
0.0
  9
$OLESTARTUP
290
     0
  0
ENDSEC
  0
SECTION
  2
CLASSES
  0
CLASS
  1
ACDBDICTIONARYWDFLT
  2
AcDbDictionaryWithDefault
  3
ObjectDBX Classes
 90
        0
280
     0
281
     0
  0
CLASS
  1
VISUALSTYLE
  2
AcDbVisualStyle
  3
ObjectDBX Classes
 90
     4095
280
     0
281
     0
  0
CLASS
  1
MATERIAL
  2
AcDbMaterial
  3
ObjectDBX Classes
 90
     1153
280
     0
281
     0
  0
CLASS
  1
ACDBPLACEHOLDER
  2
AcDbPlaceHolder
  3
ObjectDBX Classes
 90
        0
280
     0
281
     0
  0
CLASS
  1
LAYOUT
  2
AcDbLayout
  3
ObjectDBX Classes
 90
        0
280
     0
281
     0
  0
ENDSEC
  0
SECTION
  2
TABLES
  0
TABLE
  2
VPORT
  5
8
330
0
100
AcDbSymbolTable
 70
     1
  0
VPORT
  5
29
330
8
100
AcDbSymbolTableRecord
100
AcDbViewportTableRecord
  2
*Active
 70
     0
 10
0.0
 20
0.0
 11
1.0
 21
1.0
 12
59.45
 22
42.05
 13
0.0
 23
0.0
 14
10.0
 24
10.0
 15
10.0
 25
10.0
 16
0.0
 26
0.0
 36
1.0
 17
0.0
 27
0.0
 37
0.0
 40
84.1
 41
1.4137931034
 42
50.0
 43
0.0
 44
0.0
 50
0.0
 51
0.0
 71
     0
 72
  2000
 73
     1
 74
     3
 75
     0
 76
     0
 77
     0
 78
     0
281
     0
 65
     1
110
0.0
120
0.0
130
0.0
111
1.0
121
0.0
131
0.0
112
0.0
122
1.0
132
0.0
 79
     0
146
0.0
  0
ENDTAB
  0
TABLE
  2
LTYPE
  5
5
330
0
100
AcDbSymbolTable
 70
     6
  0
LTYPE
  5
14
330
5
100
AcDbSymbolTableRecord
100
AcDbLinetypeTableRecord
  2
ByBlock
 70
     0
  3

 72
    65
 73
     0
 40
0.0
  0
LTYPE
  5
15
330
5
100
AcDbSymbolTableRecord
100
AcDbLinetypeTableRecord
  2
ByLayer
 70
     0
  3

 72
    65
 73
     0
 40
0.0
  0
LTYPE
  5
16
330
5
100
AcDbSymbolTableRecord
100
AcDbLinetypeTableRecord
  2
Continuous
 70
     0
  3
Solid line
 72
    65
 73
     0
 40
0.0
  0
LTYPE
  5
3F
330
5
100
AcDbSymbolTableRecord
100
AcDbLinetypeTableRecord
  2
HIDDEN
 70
     0
  3
Hidden __ __ __ __ __ __ __ __ __ __ __ __ __ __
 72
    65
 73
     2
 40
0.1905
 49
0.127
 74
     0
 49
-0.0635
 74
     0
  0
LTYPE
  5
40
330
5
100
AcDbSymbolTableRecord
100
AcDbLinetypeTableRecord
  2
PHANTOM
 70
     0
  3
Phantom ______  __  __  ______  __  __  ______
 72
    65
 73
     6
 40
1.27
 49
0.635
 74
     0
 49
-0.127
 74
     0
 49
0.127
 74
     0
 49
-0.127
 74
     0
 49
0.127
 74
     0
 49
-0.127
 74
     0
  0
LTYPE
  5
41
330
5
100
AcDbSymbolTableRecord
100
AcDbLinetypeTableRecord
  2
CENTER
 70
     0
  3
Center ____ _ ____ _ ____ _ ____ _ ____ _ ____
 72
    65
 73
     4
 40
1.016
 49
0.635
 74
     0
 49
-0.127
 74
     0
 49
0.127
 74
     0
 49
-0.127
 74
     0
  0
LTYPE
  5
42
330
5
100
AcDbSymbolTableRecord
100
AcDbLinetypeTableRecord
  2
CENTERX2
 70
     0
  3
Center (2x) ________  __  ________  __  _____
 72
    65
 73
     4
 40
2.032
 49
1.27
 74
     0
 49
-0.254
 74
     0
 49
0.254
 74
     0
 49
-0.254
 74
     0
  0
LTYPE
  5
43
330
5
100
AcDbSymbolTableRecord
100
AcDbLinetypeTableRecord
  2
DOT2
 70
     0
  3
Dot (.5x) ........................................
 72
    65
 73
     2
 40
0.0635
 49
0.0
 74
     0
 49
-0.0635
 74
     0
  0
ENDTAB
  0
TABLE
  2
LAYER
  5
2
330
0
100
AcDbSymbolTable
 70
     2
  0
LAYER
  5
10
330
2
100
AcDbSymbolTableRecord
100
AcDbLayerTableRecord
  2
0
 70
     0
 62
     7
  6
Continuous
370
    -3
390
F
  0
LAYER
  5
44
330
2
100
AcDbSymbolTableRecord
100
AcDbLayerTableRecord
  2
FORMAT
 70
     0
 62
     7
  6
Continuous
370
    -3
390
F
  0
ENDTAB
  0
TABLE
  2
STYLE
  5
3
330
0
100
AcDbSymbolTable
 70
     3
  0
STYLE
  5
11
330
3
100
AcDbSymbolTableRecord
100
AcDbTextStyleTableRecord
  2
Standard
 70
     0
 40
0.0
 41
1.0
 50
0.0
 71
     0
 42
0.35
  3
txt
  4

  0
STYLE
  5
67
330
3
100
AcDbSymbolTableRecord
100
AcDbTextStyleTableRecord
  2
SLDTEXTSTYLE0
 70
     0
 40
0.0
 41
0.75
 50
0.0
 71
     0
 42
0.2
  3
TXT
  4

  0
STYLE
  5
6D
330
3
100
AcDbSymbolTableRecord
100
AcDbTextStyleTableRecord
  2
SLDTEXTSTYLE1
 70
     0
 40
0.0
 41
0.6923076923
 50
0.0
 71
     0
 42
0.2
  3
TXT
  4

  0
ENDTAB
  0
TABLE
  2
VIEW
  5
6
330
0
100
AcDbSymbolTable
 70
     0
  0
ENDTAB
  0
TABLE
  2
UCS
  5
7
330
0
100
AcDbSymbolTable
 70
     0
  0
ENDTAB
  0
TABLE
  2
APPID
  5
9
330
0
100
AcDbSymbolTable
 70
     1
  0
APPID
  5
12
330
9
100
AcDbSymbolTableRecord
100
AcDbRegAppTableRecord
  2
ACAD
 70
     0
  0
ENDTAB
  0
TABLE
  2
DIMSTYLE
  5
A
330
0
100
AcDbSymbolTable
 70
     2
100
AcDbDimStyleTable
  0
DIMSTYLE
105
27
330
A
100
AcDbSymbolTableRecord
100
AcDbDimStyleTableRecord
  2
ISO-25
 70
     0
 41
2.5
 42
0.625
 43
3.75
 44
1.25
 73
     0
 74
     0
 77
     1
 78
     8
140
2.5
141
2.5
143
0.0393700787
147
0.625
171
     3
172
     1
178
     0
271
     2
272
     2
274
     3
278
    44
283
     0
284
     8
340
11
  0
DIMSTYLE
105
CF
102
{ACAD_REACTORS
330
CE
330
E6
330
16E
102
}
330
A
100
AcDbSymbolTableRecord
100
AcDbDimStyleTableRecord
  2
SLDDIMSTYLE0
 70
     0
 41
0.3302
 44
0.0
 45
0.000000001
 73
     0
 74
     0
 77
     1
 78
    12
 79
     3
140
0.35
143
0.3937007874
147
0.0875
148
0.000000001
170
     1
173
     1
178
     0
271
     0
272
     0
276
     2
284
    12
340
67
  0
ENDTAB
  0
TABLE
  2
BLOCK_RECORD
  5
1
330
0
100
AcDbSymbolTable
 70
     6
  0
BLOCK_RECORD
  5
1F
330
1
100
AcDbSymbolTableRecord
100
AcDbBlockTableRecord
  2
*Model_Space
340
22
  0
BLOCK_RECORD
  5
1B
330
1
100
AcDbSymbolTableRecord
100
AcDbBlockTableRecord
  2
*Paper_Space
340
1E
  0
BLOCK_RECORD
  5
23
330
1
100
AcDbSymbolTableRecord
100
AcDbBlockTableRecord
  2
*Paper_Space0
340
26
  0
BLOCK_RECORD
  5
78
330
1
100
AcDbSymbolTableRecord
100
AcDbBlockTableRecord
  2
SW_NOTE_0
340
0
102
{BLKREFS
331
7D
102
}
  0
BLOCK_RECORD
  5
7F
330
1
100
AcDbSymbolTableRecord
100
AcDbBlockTableRecord
  2
SW_NOTE_1
340
0
102
{BLKREFS
331
88
102
}
  0
BLOCK_RECORD
  5
D0
330
1
100
AcDbSymbolTableRecord
100
AcDbBlockTableRecord
  2
_D
340
0
  0
BLOCK_RECORD
  5
E7
330
1
100
AcDbSymbolTableRecord
100
AcDbBlockTableRecord
  2
_D_1
340
0
  0
BLOCK_RECORD
  5
16F
330
1
100
AcDbSymbolTableRecord
100
AcDbBlockTableRecord
  2
_D_2
340
0
  0
ENDTAB
  0
ENDSEC
  0
SECTION
  2
BLOCKS
  0
BLOCK
  5
20
330
1F
100
AcDbEntity
  8
0
100
AcDbBlockBegin
  2
*Model_Space
 70
     0
 10
0.0
 20
0.0
 30
0.0
  3
*Model_Space
  1

  0
ENDBLK
  5
21
330
1F
100
AcDbEntity
  8
0
100
AcDbBlockEnd
  0
BLOCK
  5
1C
330
1B
100
AcDbEntity
 67
     1
  8
0
100
AcDbBlockBegin
  2
*Paper_Space
 70
     0
 10
0.0
 20
0.0
 30
0.0
  3
*Paper_Space
  1

  0
ENDBLK
  5
1D
330
1B
100
AcDbEntity
 67
     1
  8
0
100
AcDbBlockEnd
  0
BLOCK
  5
24
330
23
100
AcDbEntity
  8
0
100
AcDbBlockBegin
  2
*Paper_Space0
 70
     0
 10
0.0
 20
0.0
 30
0.0
  3
*Paper_Space0
  1

  0
ENDBLK
  5
25
330
23
100
AcDbEntity
  8
0
100
AcDbBlockEnd
  0
BLOCK
  5
79
330
78
100
AcDbEntity
  8
0
100
AcDbBlockBegin
  2
SW_NOTE_0
 70
     0
 10
0.0
 20
0.0
 30
0.0
  3
SW_NOTE_0
  1

  0
MTEXT
  5
7B
330
78
100
AcDbEntity
  8
0
  6
Continuous
 62
     0
370
     0
100
AcDbMText
 10
0.0
 20
0.193360161
 30
0.0
 40
0.15
 41
0.0
 71
     1
 72
     1
  1
INTERRUZIONE
  7
SLDTEXTSTYLE0
 73
     1
 44
1.0
  0
MTEXT
  5
7C
330
78
100
AcDbEntity
  8
0
  6
Continuous
 62
     0
370
     0
100
AcDbMText
 10
0.0
 20
-0.0566398334
 30
0.0
 40
0.15
 41
0.0
 71
     1
 72
     1
  1
BORDI NETTI
  7
SLDTEXTSTYLE0
 73
     1
 44
1.0
  0
ENDBLK
  5
7A
330
78
100
AcDbEntity
  8
0
100
AcDbBlockEnd
  0
BLOCK
  5
80
330
7F
100
AcDbEntity
  8
0
100
AcDbBlockBegin
  2
SW_NOTE_1
 70
     0
 10
0.0
 20
0.0
 30
0.0
  3
SW_NOTE_1
  1

  0
MTEXT
  5
82
330
7F
100
AcDbEntity
  8
0
  6
Continuous
 62
     0
370
     0
100
AcDbMText
 10
0.0
 20
0.193360161
 30
0.0
 40
0.15
 41
0.0
 71
     1
 72
     1
  1
SE NON SPECIFICATO:
  7
SLDTEXTSTYLE0
 73
     1
 44
1.0
  0
MTEXT
  5
83
330
7F
100
AcDbEntity
  8
0
  6
Continuous
 62
     0
370
     0
100
AcDbMText
 10
0.0
 20
-0.0566398334
 30
0.0
 40
0.15
 41
0.0
 71
     1
 72
     1
  1
QUOTE IN MILLIMETRI
  7
SLDTEXTSTYLE0
 73
     1
 44
1.0
  0
MTEXT
  5
84
330
7F
100
AcDbEntity
  8
0
  6
Continuous
 62
     0
370
     0
100
AcDbMText
 10
0.0
 20
-0.3066398279
 30
0.0
 40
0.15
 41
0.0
 71
     1
 72
     1
  1
FINITURA SUPERFICIE:
  7
SLDTEXTSTYLE0
 73
     1
 44
1.0
  0
MTEXT
  5
85
330
7F
100
AcDbEntity
  8
0
  6
Continuous
 62
     0
370
     0
100
AcDbMText
 10
0.0
 20
-0.5566398223
 30
0.0
 40
0.15
 41
0.0
 71
     1
 72
     1
  1
TOLLERANZE:
  7
SLDTEXTSTYLE0
 73
     1
 44
1.0
  0
MTEXT
  5
86
330
7F
100
AcDbEntity
  8
0
  6
Continuous
 62
     0
370
     0
100
AcDbMText
 10
0.16875
 20
-0.8066398167
 30
0.0
 40
0.15
 41
0.0
 71
     1
 72
     1
  1
LINEARE:
  7
SLDTEXTSTYLE0
 73
     1
 44
1.0
  0
MTEXT
  5
87
330
7F
100
AcDbEntity
  8
0
  6
Continuous
 62
     0
370
     0
100
AcDbMText
 10
0.16875
 20
-1.0566398111
 30
0.0
 40
0.15
 41
0.0
 71
     1
 72
     1
  1
ANGOLARE:
  7
SLDTEXTSTYLE0
 73
     1
 44
1.0
  0
ENDBLK
  5
81
330
7F
100
AcDbEntity
  8
0
100
AcDbBlockEnd
  0
BLOCK
  5
D1
330
D0
100
AcDbEntity
  8
0
100
AcDbBlockBegin
  2
_D
 70
     0
 10
0.0
 20
0.0
 30
0.0
  3
_D
  1

  0
SOLID
  5
D3
330
D0
100
AcDbEntity
  8
0
  6
Continuous
 62
     9
370
     0
100
AcDbTrace
 10
36.1830826816
 20
30.9489504445
 30
0.0
 11
36.5132826816
 21
30.8981504445
 31
0.0
 12
36.5132826816
 22
30.9997504445
 32
0.0
 13
36.5132826816
 23
30.9997504445
 33
0.0
  0
SOLID
  5
D4
330
D0
100
AcDbEntity
  8
0
  6
Continuous
 62
     9
370
     0
100
AcDbTrace
 10
53.6169380319
 20
30.9489504445
 30
0.0
 11
53.2867380319
 21
30.9997504445
 31
0.0
 12
53.2867380319
 22
30.8981504445
 32
0.0
 13
53.2867380319
 23
30.8981504445
 33
0.0
  0
LINE
  5
D5
330
D0
100
AcDbEntity
  8
0
  6
Continuous
 62
     9
370
     0
100
AcDbLine
 10
44.5249027674
 20
32.388009458
 30
0.0
 11
44.453809013
 21
32.388009458
 31
0.0
  0
LINE
  5
D6
330
D0
100
AcDbEntity
  8
0
  6
Continuous
 62
     9
370
     0
100
AcDbLine
 10
44.453809013
 20
32.388009458
 30
0.0
 11
44.453809013
 21
31.472613617
 31
0.0
  0
LINE
  5
D7
330
D0
100
AcDbEntity
  8
0
  6
Continuous
 62
     9
370
     0
100
AcDbLine
 10
44.453809013
 20
31.472613617
 30
0.0
 11
44.5249027674
 21
31.472613617
 31
0.0
  0
LINE
  5
D8
330
D0
100
AcDbEntity
  8
0
  6
Continuous
 62
     9
370
     0
100
AcDbLine
 10
45.5693733282
 20
32.388009458
 30
0.0
 11
45.6404670825
 21
32.388009458
 31
0.0
  0
LINE
  5
D9
330
D0
100
AcDbEntity
  8
0
  6
Continuous
 62
     9
370
     0
100
AcDbLine
 10
45.6404670825
 20
32.388009458
 30
0.0
 11
45.6404670825
 21
31.472613617
 31
0.0
  0
LINE
  5
DA
330
D0
100
AcDbEntity
  8
0
  6
Continuous
 62
     9
370
     0
100
AcDbLine
 10
45.6404670825
 20
31.472613617
 30
0.0
 11
45.5693733282
 21
31.472613617
 31
0.0
  0
LINE
  5
DB
330
D0
100
AcDbEntity
  8
0
  6
Continuous
 62
     9
370
     0
100
AcDbLine
 10
44.9236657921
 20
31.9662108388
 30
0.0
 11
45.284846377
 21
31.9662108388
 31
0.0
  0
LINE
  5
DC
330
D0
100
AcDbEntity
  8
0
  6
Continuous
 62
     9
370
     0
100
AcDbLine
 10
36.1830826816
 20
58.3737878536
 30
0.0
 11
36.1830826816
 21
30.8489504445
 31
0.0
  0
LINE
  5
DD
330
D0
100
AcDbEntity
  8
0
  6
Continuous
 62
     9
370
     0
100
AcDbLine
 10
53.6169380319
 20
58.3737878536
 30
0.0
 11
53.6169380319
 21
30.8489504445
 31
0.0
  0
LINE
  5
DE
330
D0
100
AcDbEntity
  8
0
  6
Continuous
 62
     9
370
     0
100
AcDbLine
 10
36.1830826816
 20
30.9489504445
 30
0.0
 11
53.6169380319
 21
30.9489504445
 31
0.0
  0
MTEXT
  5
DF
330
D0
100
AcDbEntity
  8
0
  6
Continuous
 62
     9
370
     0
100
AcDbMText
 10
44.2785963419
 20
31.405471278
 30
0.01
 40
0.35
 41
0.0
 71
     1
 72
     1
  1

  7
SLDTEXTSTYLE0
 73
     1
 44
1.0
  0
MTEXT
  5
E0
330
D0
100
AcDbEntity
  8
0
  6
Continuous
 62
     9
370
     0
100
AcDbMText
 10
44.6137699517
 20
32.1308949623
 30
0.01
 40
0.35
 41
0.0
 71
     1
 72
     1
  1
6
  7
SLDTEXTSTYLE0
 73
     1
 44
1.0
  0
MTEXT
  5
E1
330
D0
100
AcDbEntity
  8
0
  6
Continuous
 62
     9
370
     0
100
AcDbMText
 10
44.9749505249
 20
32.3866137139
 30
0.01
 40
0.35
 41
0.0
 71
     1
 72
     1
  1
3
  7
SLDTEXTSTYLE0
 73
     1
 44
1.0
  0
MTEXT
  5
E2
330
D0
100
AcDbEntity
  8
0
  6
Continuous
 62
     9
370
     0
100
AcDbMText
 10
44.9749505249
 20
31.9237873165
 30
0.01
 40
0.35
 41
0.0
 71
     1
 72
     1
  1
4
  7
SLDTEXTSTYLE0
 73
     1
 44
1.0
  0
MTEXT
  5
E3
330
D0
100
AcDbEntity
  8
0
  6
Continuous
 62
     9
370
     0
100
AcDbMText
 10
45.3361311214
 20
32.1308949623
 30
0.01
 40
0.35
 41
0.0
 71
     1
 72
     1
  1
"
  7
SLDTEXTSTYLE0
 73
     1
 44
1.0
  0
MTEXT
  5
E4
330
D0
100
AcDbEntity
  8
0
  6
Continuous
 62
     9
370
     0
100
AcDbMText
 10
44.2766519016
 20
31.4001241069
 30
0.01
 40
0.35
 41
0.0
 71
     1
 72
     1
  1
17cm
  7
SLDTEXTSTYLE0
 73
     1
 44
1.0
  0
MTEXT
  5
E5
330
D0
100
AcDbEntity
  8
0
  6
Continuous
 62
     9
370
     0
100
AcDbMText
 10
45.9488742056
 20
31.405471278
 30
0.01
 40
0.35
 41
0.0
 71
     1
 72
     1
  1

  7
SLDTEXTSTYLE0
 73
     1
 44
1.0
  0
ENDBLK
  5
D2
330
D0
100
AcDbEntity
  8
0
100
AcDbBlockEnd
  0
BLOCK
  5
E8
330
E7
100
AcDbEntity
  8
0
100
AcDbBlockBegin
  2
_D_1
 70
     0
 10
0.0
 20
0.0
 30
0.0
  3
_D_1
  1

  0
SOLID
  5
EA
330
E7
100
AcDbEntity
  8
0
  6
Continuous
 62
     9
370
     0
100
AcDbTrace
 10
26.4739316683
 20
78.4078351796
 30
0.0
 11
26.4231316683
 21
78.0776351796
 31
0.0
 12
26.5247316683
 22
78.0776351796
 32
0.0
 13
26.5247316683
 23
78.0776351796
 33
0.0
  0
SOLID
  5
EB
330
E7
100
AcDbEntity
  8
0
  6
Continuous
 62
     9
370
     0
100
AcDbTrace
 10
26.4739316683
 20
36.1594844101
 30
0.0
 11
26.5247316683
 21
36.4896844101
 31
0.0
 12
26.4231316683
 22
36.4896844101
 32
0.0
 13
26.4231316683
 23
36.4896844101
 33
0.0
  0
LINE
  5
EC
330
E7
100
AcDbEntity
  8
0
  6
Continuous
 62
     9
370
     0
100
AcDbLine
 10
25.0348726548
 20
57.054449767
 30
0.0
 11
25.0348726548
 21
56.9833560126
 31
0.0
  0
LINE
  5
ED
330
E7
100
AcDbEntity
  8
0
  6
Continuous
 62
     9
370
     0
100
AcDbLine
 10
25.0348726548
 20
56.9833560126
 30
0.0
 11
25.9502684958
 21
56.9833560126
 31
0.0
  0
LINE
  5
EE
330
E7
100
AcDbEntity
  8
0
  6
Continuous
 62
     9
370
     0
100
AcDbLine
 10
25.9502684958
 20
56.9833560126
 30
0.0
 11
25.9502684958
 21
57.054449767
 31
0.0
  0
LINE
  5
EF
330
E7
100
AcDbEntity
  8
0
  6
Continuous
 62
     9
370
     0
100
AcDbLine
 10
25.0348726548
 20
58.3575314704
 30
0.0
 11
25.0348726548
 21
58.4286252247
 31
0.0
  0
LINE
  5
F0
330
E7
100
AcDbEntity
  8
0
  6
Continuous
 62
     9
370
     0
100
AcDbLine
 10
25.0348726548
 20
58.4286252247
 30
0.0
 11
25.9502684958
 21
58.4286252247
 31
0.0
  0
LINE
  5
F1
330
E7
100
AcDbEntity
  8
0
  6
Continuous
 62
     9
370
     0
100
AcDbLine
 10
25.9502684958
 20
58.4286252247
 30
0.0
 11
25.9502684958
 21
58.3575314704
 31
0.0
  0
LINE
  5
F2
330
E7
100
AcDbEntity
  8
0
  6
Continuous
 62
     9
370
     0
100
AcDbLine
 10
25.456671274
 20
57.7118239111
 30
0.0
 11
25.456671274
 21
58.0730044959
 31
0.0
  0
LINE
  5
F3
330
E7
100
AcDbEntity
  8
0
  6
Continuous
 62
     9
370
     0
100
AcDbLine
 10
38.4972345357
 20
78.4078351796
 30
0.0
 11
26.3739316683
 21
78.4078351796
 31
0.0
  0
LINE
  5
F4
330
E7
100
AcDbEntity
  8
0
  6
Continuous
 62
     9
370
     0
100
AcDbLine
 10
44.8000103568
 20
36.1594844101
 30
0.0
 11
26.3739316683
 21
36.1594844101
 31
0.0
  0
LINE
  5
F5
330
E7
100
AcDbEntity
  8
0
  6
Continuous
 62
     9
370
     0
100
AcDbLine
 10
26.4739316683
 20
78.4078351796
 30
0.0
 11
26.4739316683
 21
36.1594844101
 31
0.0
  0
MTEXT
  5
F6
330
E7
100
AcDbEntity
  8
0
  6
Continuous
 62
     9
370
     0
100
AcDbMText
 10
26.0174108348
 20
56.9319801401
 30
0.01
 40
0.35
 41
0.0
 71
     1
 72
     1
  1

  7
SLDTEXTSTYLE0
 11
-7.044195017643634E-15
 21
1.0
 31
0.0
 73
     1
 44
1.0
  0
MTEXT
  5
F7
330
E7
100
AcDbEntity
  8
0
  6
Continuous
 62
     9
370
     0
100
AcDbMText
 10
25.2919871505
 20
57.1433169512
 30
0.01
 40
0.35
 41
0.0
 71
     1
 72
     1
  1
16
  7
SLDTEXTSTYLE0
 11
-7.044195017643634E-15
 21
1.0
 31
0.0
 73
     1
 44
1.0
  0
MTEXT
  5
F8
330
E7
100
AcDbEntity
  8
0
  6
Continuous
 62
     9
370
     0
100
AcDbMText
 10
25.0362683989
 20
57.7631086438
 30
0.01
 40
0.35
 41
0.0
 71
     1
 72
     1
  1
3
  7
SLDTEXTSTYLE0
 11
-7.044195017643634E-15
 21
1.0
 31
0.0
 73
     1
 44
1.0
  0
MTEXT
  5
F9
330
E7
100
AcDbEntity
  8
0
  6
Continuous
 62
     9
370
     0
100
AcDbMText
 10
25.4990947963
 20
57.7631086438
 30
0.01
 40
0.35
 41
0.0
 71
     1
 72
     1
  1
4
  7
SLDTEXTSTYLE0
 11
-7.044195017643634E-15
 21
1.0
 31
0.0
 73
     1
 44
1.0
  0
MTEXT
  5
FA
330
E7
100
AcDbEntity
  8
0
  6
Continuous
 62
     9
370
     0
100
AcDbMText
 10
25.2919871505
 20
58.1242892636
 30
0.01
 40
0.35
 41
0.0
 71
     1
 72
     1
  1
"
  7
SLDTEXTSTYLE0
 11
-7.044195017643634E-15
 21
1.0
 31
0.0
 73
     1
 44
1.0
  0
MTEXT
  5
FB
330
E7
100
AcDbEntity
  8
0
  6
Continuous
 62
     9
370
     0
100
AcDbMText
 10
26.0227580059
 20
56.9355044725
 30
0.01
 40
0.35
 41
0.0
 71
     1
 72
     1
  1
42cm
  7
SLDTEXTSTYLE0
 11
-7.044195017643634E-15
 21
1.0
 31
0.0
 73
     1
 44
1.0
  0
MTEXT
  5
FC
330
E7
100
AcDbEntity
  8
0
  6
Continuous
 62
     9
370
     0
100
AcDbMText
 10
26.0174108348
 20
58.6131954561
 30
0.01
 40
0.35
 41
0.0
 71
     1
 72
     1
  1

  7
SLDTEXTSTYLE0
 11
-7.044195017643634E-15
 21
1.0
 31
0.0
 73
     1
 44
1.0
  0
ENDBLK
  5
E9
330
E7
100
AcDbEntity
  8
0
100
AcDbBlockEnd
  0
BLOCK
  5
170
330
16F
100
AcDbEntity
  8
0
100
AcDbBlockBegin
  2
_D_2
 70
     0
 10
0.0
 20
0.0
 30
0.0
  3
_D_2
  1

  0
SOLID
  5
172
330
16F
100
AcDbEntity
  8
0
  6
Continuous
 62
     9
370
     0
100
AcDbTrace
 10
69.3396313112
 20
30.9489504445
 30
0.0
 11
69.6698313112
 21
30.8981504445
 31
0.0
 12
69.6698313112
 22
30.9997504445
 32
0.0
 13
69.6698313112
 23
30.9997504445
 33
0.0
  0
SOLID
  5
173
330
16F
100
AcDbEntity
  8
0
  6
Continuous
 62
     9
370
     0
100
AcDbTrace
 10
93.4580490962
 20
30.9489504445
 30
0.0
 11
93.1278490962
 21
30.9997504445
 31
0.0
 12
93.1278490962
 22
30.8981504445
 32
0.0
 13
93.1278490962
 23
30.8981504445
 33
0.0
  0
LINE
  5
174
330
16F
100
AcDbEntity
  8
0
  6
Continuous
 62
     9
370
     0
100
AcDbLine
 10
82.7099651193
 20
32.388009458
 30
0.0
 11
82.6388713649
 21
32.388009458
 31
0.0
  0
LINE
  5
175
330
16F
100
AcDbEntity
  8
0
  6
Continuous
 62
     9
370
     0
100
AcDbLine
 10
82.6388713649
 20
32.388009458
 30
0.0
 11
82.6388713649
 21
31.472613617
 31
0.0
  0
LINE
  5
176
330
16F
100
AcDbEntity
  8
0
  6
Continuous
 62
     9
370
     0
100
AcDbLine
 10
82.6388713649
 20
31.472613617
 30
0.0
 11
82.7099651193
 21
31.472613617
 31
0.0
  0
LINE
  5
177
330
16F
100
AcDbEntity
  8
0
  6
Continuous
 62
     9
370
     0
100
AcDbLine
 10
83.75443568
 20
32.388009458
 30
0.0
 11
83.8255294344
 21
32.388009458
 31
0.0
  0
LINE
  5
178
330
16F
100
AcDbEntity
  8
0
  6
Continuous
 62
     9
370
     0
100
AcDbLine
 10
83.8255294344
 20
32.388009458
 30
0.0
 11
83.8255294344
 21
31.472613617
 31
0.0
  0
LINE
  5
179
330
16F
100
AcDbEntity
  8
0
  6
Continuous
 62
     9
370
     0
100
AcDbLine
 10
83.8255294344
 20
31.472613617
 30
0.0
 11
83.75443568
 21
31.472613617
 31
0.0
  0
LINE
  5
17A
330
16F
100
AcDbEntity
  8
0
  6
Continuous
 62
     9
370
     0
100
AcDbLine
 10
83.108728144
 20
31.9662108388
 30
0.0
 11
83.4699087289
 21
31.9662108388
 31
0.0
  0
LINE
  5
17B
330
16F
100
AcDbEntity
  8
0
  6
Continuous
 62
     9
370
     0
100
AcDbLine
 10
69.3396313112
 20
44.7600535175
 30
0.0
 11
69.3396313112
 21
30.8489504445
 31
0.0
  0
LINE
  5
17C
330
16F
100
AcDbEntity
  8
0
  6
Continuous
 62
     9
370
     0
100
AcDbLine
 10
93.4580490962
 20
58.3622510936
 30
0.0
 11
93.4580490962
 21
30.8489504445
 31
0.0
  0
LINE
  5
17D
330
16F
100
AcDbEntity
  8
0
  6
Continuous
 62
     9
370
     0
100
AcDbLine
 10
69.3396313112
 20
30.9489504445
 30
0.0
 11
93.4580490962
 21
30.9489504445
 31
0.0
  0
MTEXT
  5
17E
330
16F
100
AcDbEntity
  8
0
  6
Continuous
 62
     9
370
     0
100
AcDbMText
 10
82.4636586937
 20
31.405471278
 30
0.01
 40
0.35
 41
0.0
 71
     1
 72
     1
  1

  7
SLDTEXTSTYLE0
 73
     1
 44
1.0
  0
MTEXT
  5
17F
330
16F
100
AcDbEntity
  8
0
  6
Continuous
 62
     9
370
     0
100
AcDbMText
 10
82.7988323035
 20
32.1308949623
 30
0.01
 40
0.35
 41
0.0
 71
     1
 72
     1
  1
9
  7
SLDTEXTSTYLE0
 73
     1
 44
1.0
  0
MTEXT
  5
180
330
16F
100
AcDbEntity
  8
0
  6
Continuous
 62
     9
370
     0
100
AcDbMText
 10
83.1600128767
 20
32.3866137139
 30
0.01
 40
0.35
 41
0.0
 71
     1
 72
     1
  1
1
  7
SLDTEXTSTYLE0
 73
     1
 44
1.0
  0
MTEXT
  5
181
330
16F
100
AcDbEntity
  8
0
  6
Continuous
 62
     9
370
     0
100
AcDbMText
 10
83.1600128767
 20
31.9237873165
 30
0.01
 40
0.35
 41
0.0
 71
     1
 72
     1
  1
2
  7
SLDTEXTSTYLE0
 73
     1
 44
1.0
  0
MTEXT
  5
182
330
16F
100
AcDbEntity
  8
0
  6
Continuous
 62
     9
370
     0
100
AcDbMText
 10
83.5211934733
 20
32.1308949623
 30
0.01
 40
0.35
 41
0.0
 71
     1
 72
     1
  1
"
  7
SLDTEXTSTYLE0
 73
     1
 44
1.0
  0
MTEXT
  5
183
330
16F
100
AcDbEntity
  8
0
  6
Continuous
 62
     9
370
     0
100
AcDbMText
 10
82.4617142534
 20
31.4001241069
 30
0.01
 40
0.35
 41
0.0
 71
     1
 72
     1
  1
24cm
  7
SLDTEXTSTYLE0
 73
     1
 44
1.0
  0
MTEXT
  5
184
330
16F
100
AcDbEntity
  8
0
  6
Continuous
 62
     9
370
     0
100
AcDbMText
 10
84.1339365575
 20
31.405471278
 30
0.01
 40
0.35
 41
0.0
 71
     1
 72
     1
  1

  7
SLDTEXTSTYLE0
 73
     1
 44
1.0
  0
ENDBLK
  5
171
330
16F
100
AcDbEntity
  8
0
100
AcDbBlockEnd
  0
ENDSEC
  0
SECTION
  2
ENTITIES
  0
LINE
  5
45
330
1F
100
AcDbEntity
  8
0
  6
Continuous
 62
     7
370
    40
100
AcDbLine
 10
2.5078843565
 20
1.0214780157
 30
0.0
 11
2.5078843565
 21
83.1214780157
 31
0.0
  0
LINE
  5
46
330
1F
100
AcDbEntity
  8
0
  6
Continuous
 62
     7
370
    40
100
AcDbLine
 10
0.0078843565
 20
0.0214780157
 30
0.0
 11
118.9078843565
 21
0.0214780157
 31
0.0
  0
LINE
  5
47
330
1F
100
AcDbEntity
  8
0
  6
Continuous
 62
     7
370
    40
100
AcDbLine
 10
0.0078843565
 20
0.0214780157
 30
0.0
 11
0.0078843565
 21
84.1214780157
 31
0.0
  0
LINE
  5
48
330
1F
100
AcDbEntity
  8
0
  6
Continuous
 62
     7
370
    40
100
AcDbLine
 10
0.0078843565
 20
84.1214780157
 30
0.0
 11
118.9078843565
 21
84.1214780157
 31
0.0
  0
LINE
  5
49
330
1F
100
AcDbEntity
  8
0
  6
Continuous
 62
     7
370
    40
100
AcDbLine
 10
118.9078843565
 20
0.0214780157
 30
0.0
 11
118.9078843565
 21
84.1214780157
 31
0.0
  0
LINE
  5
4A
330
1F
100
AcDbEntity
  8
0
  6
Continuous
 62
     7
370
    40
100
AcDbLine
 10
2.5078843565
 20
83.1214780157
 30
0.0
 11
117.9078843565
 21
83.1214780157
 31
0.0
  0
LINE
  5
4B
330
1F
100
AcDbEntity
  8
0
  6
Continuous
 62
     7
370
    40
100
AcDbLine
 10
117.9078843565
 20
1.0214780157
 30
0.0
 11
117.9078843565
 21
83.1214780157
 31
0.0
  0
LINE
  5
4C
330
1F
100
AcDbEntity
  8
0
  6
Continuous
 62
     7
370
    40
100
AcDbLine
 10
2.5078843565
 20
1.0214780157
 30
0.0
 11
117.9078843565
 21
1.0214780157
 31
0.0
  0
LINE
  5
4D
330
1F
100
AcDbEntity
  8
0
  6
Continuous
 62
     7
370
    40
100
AcDbLine
 10
117.9078843565
 20
6.5464780157
 30
0.0
 11
117.9078843565
 21
1.0214780157
 31
0.0
  0
LINE
  5
4E
330
1F
100
AcDbEntity
  8
0
  6
Continuous
 62
     7
370
    40
100
AcDbLine
 10
99.1878843565
 20
1.4464780157
 30
0.0
 11
117.9078843565
 21
1.4464780157
 31
0.0
  0
LINE
  5
4F
330
1F
100
AcDbEntity
  8
0
  6
Continuous
 62
     7
370
    40
100
AcDbLine
 10
117.9078843565
 20
4.8464780157
 30
0.0
 11
99.1878843565
 21
4.8464780157
 31
0.0
  0
LINE
  5
50
330
1F
100
AcDbEntity
  8
0
  6
Continuous
 62
     7
370
    40
100
AcDbLine
 10
99.1878843565
 20
6.5464780157
 30
0.0
 11
117.9078843565
 21
6.5464780157
 31
0.0
  0
LINE
  5
51
330
1F
100
AcDbEntity
  8
0
  6
Continuous
 62
     7
370
    40
100
AcDbLine
 10
101.8869795999
 20
4.8464780157
 30
0.0
 11
101.8869795999
 21
1.0214780157
 31
0.0
  0
LINE
  5
52
330
1F
100
AcDbEntity
  8
0
  6
Continuous
 62
     7
370
    40
100
AcDbLine
 10
109.0678843565
 20
3.1464780157
 30
0.0
 11
99.1878843565
 21
3.1464780157
 31
0.0
  0
LINE
  5
53
330
1F
100
AcDbEntity
  8
0
  6
Continuous
 62
     7
370
    40
100
AcDbLine
 10
109.0678843565
 20
3.5714780157
 30
0.0
 11
99.1878843565
 21
3.5714780157
 31
0.0
  0
LINE
  5
54
330
1F
100
AcDbEntity
  8
0
  6
Continuous
 62
     7
370
    40
100
AcDbLine
 10
109.0678843565
 20
3.9964780157
 30
0.0
 11
99.1878843565
 21
3.9964780157
 31
0.0
  0
LINE
  5
55
330
1F
100
AcDbEntity
  8
0
  6
Continuous
 62
     7
370
    40
100
AcDbLine
 10
109.0678843565
 20
4.4214780157
 30
0.0
 11
99.1878843565
 21
4.4214780157
 31
0.0
  0
LINE
  5
56
330
1F
100
AcDbEntity
  8
0
  6
Continuous
 62
     7
370
    40
100
AcDbLine
 10
104.6478843565
 20
1.0214780157
 30
0.0
 11
104.6478843565
 21
4.8464780157
 31
0.0
  0
LINE
  5
57
330
1F
100
AcDbEntity
  8
0
  6
Continuous
 62
     7
370
    40
100
AcDbLine
 10
99.1878843565
 20
6.5464780157
 30
0.0
 11
99.1878843565
 21
1.0214780157
 31
0.0
  0
LINE
  5
58
330
1F
100
AcDbEntity
  8
0
  6
Continuous
 62
     7
370
    40
100
AcDbLine
 10
99.9678843565
 20
4.8464780157
 30
0.0
 11
99.9678843565
 21
1.0214780157
 31
0.0
  0
LINE
  5
59
330
1F
100
AcDbEntity
  8
0
  6
Continuous
 62
     7
370
    40
100
AcDbLine
 10
102.5678843565
 20
4.8464780157
 30
0.0
 11
102.5678843565
 21
6.5464780157
 31
0.0
  0
LINE
  5
5A
330
1F
100
AcDbEntity
  8
0
  6
Continuous
 62
     7
370
    40
100
AcDbLine
 10
103.6277769729
 20
4.8464780157
 30
0.0
 11
103.6277769729
 21
1.0214780157
 31
0.0
  0
LINE
  5
5B
330
1F
100
AcDbEntity
  8
0
  6
Continuous
 62
     7
370
    40
100
AcDbLine
 10
105.6878843565
 20
3.1464780157
 30
0.0
 11
105.6878843565
 21
4.8464780157
 31
0.0
  0
LINE
  5
5C
330
1F
100
AcDbEntity
  8
0
  6
Continuous
 62
     7
370
    40
100
AcDbLine
 10
104.6478843565
 20
1.8714780157
 30
0.0
 11
99.1878843565
 21
1.8714780157
 31
0.0
  0
LINE
  5
5D
330
1F
100
AcDbEntity
  8
0
  6
Continuous
 62
     7
370
    40
100
AcDbLine
 10
107.2478843565
 20
6.5464780157
 30
0.0
 11
107.2478843565
 21
2.7214780157
 31
0.0
  0
LINE
  5
5E
330
1F
100
AcDbEntity
  8
0
  6
Continuous
 62
     7
370
    40
100
AcDbLine
 10
104.6478843565
 20
2.2964708157
 30
0.0
 11
99.1878843565
 21
2.2964708157
 31
0.0
  0
LINE
  5
5F
330
1F
100
AcDbEntity
  8
0
  6
Continuous
 62
     7
370
    40
100
AcDbLine
 10
104.6478843565
 20
2.7214780157
 30
0.0
 11
99.1878843565
 21
2.7214780157
 31
0.0
  0
LINE
  5
60
330
1F
100
AcDbEntity
  8
0
  6
Continuous
 62
     7
370
    40
100
AcDbLine
 10
104.6478843565
 20
2.7214780157
 30
0.0
 11
117.9078843565
 21
2.7214780157
 31
0.0
  0
LINE
  5
61
330
1F
100
AcDbEntity
  8
0
  6
Continuous
 62
     7
370
    40
100
AcDbLine
 10
109.0678843565
 20
6.5464780157
 30
0.0
 11
109.0678843565
 21
1.0214780157
 31
0.0
  0
LINE
  5
62
330
1F
100
AcDbEntity
  8
0
  6
Continuous
 62
     7
370
    40
100
AcDbLine
 10
113.4878843565
 20
1.0214780157
 30
0.0
 11
113.4878843565
 21
1.4464780157
 31
0.0
  0
LINE
  5
63
330
1F
100
AcDbEntity
  8
0
  6
Continuous
 62
     7
370
    40
100
AcDbLine
 10
114.2678843565
 20
5.9089780157
 30
0.0
 11
114.2678843565
 21
6.5464780157
 31
0.0
  0
LINE
  5
64
330
1F
100
AcDbEntity
  8
0
  6
Continuous
 62
     7
370
    40
100
AcDbLine
 10
116.6078843565
 20
1.4464780157
 30
0.0
 11
116.6078843565
 21
2.7214780157
 31
0.0
  0
LINE
  5
65
330
1F
100
AcDbEntity
  8
0
  6
Continuous
 62
     7
370
    40
100
AcDbLine
 10
117.9078843565
 20
5.9089780157
 30
0.0
 11
109.0678843565
 21
5.9089780157
 31
0.0
  0
LINE
  5
66
330
1F
100
AcDbEntity
  8
0
  6
Continuous
 62
     7
370
    40
100
AcDbLine
 10
117.9078843565
 20
1.8714780157
 30
0.0
 11
116.6078843565
 21
1.8714780157
 31
0.0
  0
MTEXT
  5
68
330
1F
100
AcDbEntity
  8
0
  6
Continuous
 62
     7
370
     0
100
AcDbMText
 10
113.517251698
 20
4.1249679598
 30
0.0
 40
0.635
 41
0.0
 71
     2
 72
     1
  1
Assieme lampada cablata
  7
SLDTEXTSTYLE0
 73
     1
 44
1.0
  0
MTEXT
  5
69
330
1F
100
AcDbEntity
  8
0
  6
Continuous
 62
     7
370
     0
100
AcDbMText
 10
113.2184394159
 20
2.4846518566
 30
0.0
 40
0.635
 41
0.0
 71
     2
 72
     1
  1
birdie parete
  7
SLDTEXTSTYLE0
 73
     1
 44
1.0
  0
MTEXT
  5
6A
330
1F
100
AcDbEntity
  8
0
  6
Continuous
 62
     7
370
     0
100
AcDbMText
 10
104.7496654693
 20
1.316409206
 30
0.0
 40
0.14986
 41
0.0
 71
     1
 72
     1
  1
PESO:
  7
SLDTEXTSTYLE0
 73
     1
 44
1.0
  0
MTEXT
  5
6B
330
1F
100
AcDbEntity
  8
0
  6
Continuous
 62
     7
370
     0
100
AcDbMText
 10
106.9057559846
 20
2.1700345964
 30
0.0
 40
0.238125
 41
0.0
 71
     2
 72
     1
  1
Vedi distinta base
  7
SLDTEXTSTYLE0
 73
     1
 44
1.0
  0
MTEXT
  5
6C
330
1F
100
AcDbEntity
  8
0
  6
Continuous
 62
     7
370
     0
100
AcDbMText
 10
116.9999828412
 20
2.451522461
 30
0.0
 40
0.2910416667
 41
0.0
 71
     1
 72
     1
  1
A0
  7
SLDTEXTSTYLE0
 73
     1
 44
1.0
  0
MTEXT
  5
6E
330
1F
100
AcDbEntity
  8
0
  6
Continuous
 62
     7
370
     0
100
AcDbMText
 10
113.6357137993
 20
1.3114867664
 30
0.0
 40
0.15
 41
0.0
 71
     1
 72
     1
  1
FOGLIO 1 DI 1
  7
SLDTEXTSTYLE1
 73
     1
 44
1.0
  0
MTEXT
  5
6F
330
1F
100
AcDbEntity
  8
0
  6
Continuous
 62
     7
370
     0
100
AcDbMText
 10
109.1952809683
 20
1.3114867664
 30
0.0
 40
0.15
 41
0.0
 71
     1
 72
     1
  1
SCALA:1:2
  7
SLDTEXTSTYLE0
 73
     1
 44
1.0
  0
MTEXT
  5
70
330
1F
100
AcDbEntity
  8
0
  6
Continuous
 62
     7
370
     0
100
AcDbMText
 10
109.1952809683
 20
2.5083418217
 30
0.0
 40
0.15
 41
0.0
 71
     1
 72
     1
  1
N. DISEGNO
  7
SLDTEXTSTYLE0
 73
     1
 44
1.0
  0
MTEXT
  5
71
330
1F
100
AcDbEntity
  8
0
  6
Continuous
 62
     7
370
     0
100
AcDbMText
 10
109.1835030502
 20
4.6493114675
 30
0.0
 40
0.15
 41
0.0
 71
     1
 72
     1
  1
TITOLO:
  7
SLDTEXTSTYLE0
 73
     1
 44
1.0
  0
MTEXT
  5
72
330
1F
100
AcDbEntity
  8
0
  6
Continuous
 62
     7
370
     0
100
AcDbMText
 10
114.5206425265
 20
6.254968907
 30
0.0
 40
0.15
 41
0.0
 71
     1
 72
     1
  1
REVISIONE
  7
SLDTEXTSTYLE0
 73
     1
 44
1.0
  0
MTEXT
  5
73
330
1F
100
AcDbEntity
  8
0
  6
Continuous
 62
     7
370
     0
100
AcDbMText
 10
110.4493484088
 20
6.2747773965
 30
0.0
 40
0.15
 41
0.0
 71
     1
 72
     1
  1
NON SCALARE DISEGNO
  7
SLDTEXTSTYLE0
 73
     1
 44
1.0
  0
MTEXT
  5
74
330
1F
100
AcDbEntity
  8
0
  6
Continuous
 62
     7
370
     0
100
AcDbMText
 10
104.7524705874
 20
2.6200836679
 30
0.0
 40
0.15
 41
0.0
 71
     1
 72
     1
  1
MATERIALE:
  7
SLDTEXTSTYLE0
 73
     1
 44
1.0
  0
MTEXT
  5
75
330
1F
100
AcDbEntity
  8
0
  6
Continuous
 62
     7
370
     0
100
AcDbMText
 10
103.9093545531
 20
4.6790959611
 30
0.0
 40
0.15
 41
0.0
 71
     1
 72
     1
  1
DATA
  7
SLDTEXTSTYLE0
 73
     1
 44
1.0
  0
MTEXT
  5
76
330
1F
100
AcDbEntity
  8
0
  6
Continuous
 62
     7
370
     0
100
AcDbMText
 10
102.1912431129
 20
4.6776536769
 30
0.0
 40
0.15
 41
0.0
 71
     1
 72
     1
  1
FIRMA
  7
SLDTEXTSTYLE0
 73
     1
 44
1.0
  0
MTEXT
  5
77
330
1F
100
AcDbEntity
  8
0
  6
Continuous
 62
     7
370
     0
100
AcDbMText
 10
100.6201082783
 20
4.6716263023
 30
0.0
 40
0.15
 41
0.0
 71
     1
 72
     1
  1
NOME
  7
SLDTEXTSTYLE0
 73
     1
 44
1.0
  0
INSERT
  5
7D
330
1F
100
AcDbEntity
  8
0
  6
Continuous
 62
     7
370
     0
100
AcDbBlockReference
  2
SW_NOTE_0
 10
107.3188059252
 20
6.2284270032
 30
0.0
  0
MTEXT
  5
7E
330
1F
100
AcDbEntity
  8
0
  6
Continuous
 62
     7
370
     0
100
AcDbMText
 10
102.6250135732
 20
6.4134052385
 30
0.0
 40
0.15
 41
0.0
 71
     1
 72
     1
  1
FINITURA:
  7
SLDTEXTSTYLE0
 73
     1
 44
1.0
  0
INSERT
  5
88
330
1F
100
AcDbEntity
  8
0
  6
Continuous
 62
     7
370
     0
100
AcDbBlockReference
  2
SW_NOTE_1
 10
99.2472512311
 20
6.2202150264
 30
0.0
  0
MTEXT
  5
89
330
1F
100
AcDbEntity
  8
0
  6
Continuous
 62
     7
370
     0
100
AcDbMText
 10
99.2547886428
 20
2.5564429597
 30
0.0
 40
0.15
 41
0.0
 71
     1
 72
     1
  1
Qual.
  7
SLDTEXTSTYLE0
 73
     1
 44
1.0
  0
MTEXT
  5
8A
330
1F
100
AcDbEntity
  8
0
  6
Continuous
 62
     7
370
     0
100
AcDbMText
 10
99.2334030064
 20
2.994848504
 30
0.0
 40
0.15
 41
0.0
 71
     1
 72
     1
  1
FABB.
  7
SLDTEXTSTYLE0
 73
     1
 44
1.0
  0
MTEXT
  5
8B
330
1F
100
AcDbEntity
  8
0
  6
Continuous
 62
     7
370
     0
100
AcDbMText
 10
99.2280565974
 20
3.4279076393
 30
0.0
 40
0.15
 41
0.0
 71
     1
 72
     1
  1
APPR.
  7
SLDTEXTSTYLE0
 73
     1
 44
1.0
  0
MTEXT
  5
8C
330
1F
100
AcDbEntity
  8
0
  6
Continuous
 62
     7
370
     0
100
AcDbMText
 10
99.2289312433
 20
3.8369187549
 30
0.0
 40
0.15
 41
0.0
 71
     1
 72
     1
  1
VERIF.
  7
SLDTEXTSTYLE0
 73
     1
 44
1.0
  0
MTEXT
  5
8D
330
1F
100
AcDbEntity
  8
0
  6
Continuous
 62
     7
370
     0
100
AcDbMText
 10
99.2090992809
 20
4.2644495275
 30
0.0
 40
0.15
 41
0.0
 71
     1
 72
     1
  1
DISEG.
  7
SLDTEXTSTYLE0
 73
     1
 44
1.0
  0
LWPOLYLINE
  5
8E
330
1F
100
AcDbEntity
  8
0
  6
Continuous
 62
     7
100
AcDbPolyline
 90
        9
 70
   128
 43
0.0
 10
44.3000103568
 20
51.2459556337
 10
44.3456826373
 20
51.0650204378
 10
44.4757462881
 20
50.9116309852
 10
44.6704002974
 20
50.8091394298
 10
44.9000103568
 20
50.7731491816
 10
45.1296204162
 20
50.8091394298
 10
45.3242744255
 20
50.9116309852
 10
45.4543380763
 20
51.0650204378
 10
45.5000103568
 20
51.2459556337
  0
LWPOLYLINE
  5
8F
330
1F
100
AcDbEntity
  8
0
  6
Continuous
 62
     7
100
AcDbPolyline
 90
        9
 70
   128
 43
0.0
 10
40.5419835006
 20
78.1127237991
 10
40.561130333
 20
78.1047333136
 10
40.5789558554
 20
78.0932778486
 10
40.595008893
 20
78.0786473487
 10
40.6088831341
 20
78.0612121207
 10
40.6202274134
 20
78.0414134604
 10
40.6287546004
 20
78.0197524838
 10
40.6342488669
 20
77.9967774429
 10
40.6365711499
 20
77.9730698497
  0
LINE
  5
90
330
1F
100
AcDbEntity
  8
0
  6
CENTERX2
 62
     7
100
AcDbLine
 10
45.5000103568
 20
51.2459556337
 30
0.0
 11
44.3000103568
 21
51.2459556337
 31
0.0
  0
LINE
  5
91
330
1F
100
AcDbEntity
  8
0
  6
Continuous
 62
     7
100
AcDbLine
 10
39.6078596963
 20
78.4066788174
 30
0.0
 11
40.5419835006
 21
78.1127237991
 31
0.0
  0
LINE
  5
92
330
1F
100
AcDbEntity
  8
0
  6
Continuous
 62
     7
100
AcDbLine
 10
40.6425950472
 20
77.7704799715
 30
0.0
 11
39.5417456864
 21
78.1169010695
 31
0.0
  0
LINE
  5
93
330
1F
100
AcDbEntity
  8
0
  6
Continuous
 62
     7
100
AcDbLine
 10
39.5417456864
 20
78.1169010695
 30
0.0
 11
39.6078596963
 21
78.4066788174
 31
0.0
  0
LINE
  5
94
330
1F
100
AcDbEntity
  8
0
  6
Continuous
 62
     7
100
AcDbLine
 10
40.6425950472
 20
77.7704799715
 30
0.0
 11
40.6365711499
 21
77.9730698497
 31
0.0
  0
LINE
  5
95
330
1F
100
AcDbEntity
  8
0
  6
CENTERX2
 62
     7
100
AcDbLine
 10
40.5089264957
 20
77.9678349252
 30
0.0
 11
39.5748026914
 21
78.2617899434
 31
0.0
  0
POINT
  5
96
330
1F
100
AcDbEntity
  8
0
  6
Continuous
 62
     7
100
AcDbPoint
 10
37.97789158
 20
77.8773643832
 30
0.0
  0
LINE
  5
97
330
1F
100
AcDbEntity
  8
0
  6
Continuous
 62
     7
370
    15
100
AcDbLine
 10
45.5000103568
 20
44.5156245745
 30
0.0
 11
45.5000103568
 21
49.7656245745
 31
0.0
  0
LINE
  5
98
330
1F
100
AcDbEntity
  8
0
  6
Continuous
 62
     7
370
    15
100
AcDbLine
 10
44.3000103568
 20
49.7656245745
 30
0.0
 11
44.3000103568
 21
44.5156245745
 31
0.0
  0
ARC
  5
99
330
1F
100
AcDbEntity
  8
0
  6
Continuous
 62
     7
370
    15
100
AcDbCircle
 10
45.4000103568
 20
44.5156245745
 30
0.0
 40
0.1000000000000014
100
AcDbArc
 50
270.0
 51
0.0
  0
ARC
  5
9A
330
1F
100
AcDbEntity
  8
0
  6
Continuous
 62
     7
370
    15
100
AcDbCircle
 10
44.4000103568
 20
44.5156245745
 30
0.0
 40
0.1000000000000014
100
AcDbArc
 50
180.0
 51
270.0
  0
SPLINE
  5
9B
330
1F
100
AcDbEntity
  8
0
  6
Continuous
 62
     7
370
    15
100
AcDbSpline
210
0.0
220
0.0
230
1.0
 70
     8
 71
     3
 72
    12
 73
     8
 74
     0
 42
0.00000001
 43
0.00000001
 12
1.0
 22
0.0
 32
0.0
 13
1.0
 23
0.0
 33
0.0
 40
0.0
 40
0.0
 40
0.0
 40
0.0
 40
0.2007829687178
 40
0.4345958139366468
 40
0.7040550410055478
 40
0.850246860501519
 40
0.9999999999999999
 40
0.9999999999999999
 40
0.9999999999999999
 40
0.9999999999999999
 10
36.18069079291811
 20
58.46225109414874
 30
0.0
 10
36.17891162729843
 20
58.44838789853899
 30
0.0
 10
36.17506061376104
 20
58.41838093720031
 30
0.0
 10
36.1893774409469
 20
58.36406900560568
 30
0.0
 10
36.22241617962963
 20
58.32116735571991
 30
0.0
 10
36.26204766347276
 20
58.29499467887717
 30
0.0
 10
36.28593722452374
 20
58.2882232846226
 30
0.0
 10
36.2980257452432
 20
58.28479684494999
 30
0.0
  0
SPLINE
  5
9C
330
1F
100
AcDbEntity
  8
0
  6
Continuous
 62
     7
370
    15
100
AcDbSpline
210
0.0
220
0.0
230
1.0
 70
     8
 71
     3
 72
    12
 73
     8
 74
     0
 42
0.00000001
 43
0.00000001
 12
1.0
 22
0.0
 32
0.0
 13
1.0
 23
0.0
 33
0.0
 40
0.0
 40
0.0
 40
0.0
 40
0.0
 40
0.1497531382924501
 40
0.2959449567999704
 40
0.565404182955867
 40
0.7992170289210789
 40
1.0
 40
1.0
 40
1.0
 40
1.0
 10
53.5019949681834
 20
58.28479684497992
 30
0.0
 10
53.51408348892519
 20
58.28822328465938
 30
0.0
 10
53.53797305003554
 20
58.29499467893184
 30
0.0
 10
53.57760453399534
 20
58.3211673558738
 30
0.0
 10
53.61064327274872
 20
58.36406900598458
 30
0.0
 10
53.62496009980367
 20
58.41838093777447
 30
0.0
 10
53.62110908619292
 20
58.44838789899158
 30
0.0
 10
53.61932992053116
 20
58.46225109460905
 30
0.0
  0
SPLINE
  5
9D
330
1F
100
AcDbEntity
  8
0
  6
Continuous
 62
     7
370
    15
100
AcDbSpline
210
0.0
220
0.0
230
1.0
 70
     8
 71
     3
 72
    11
 73
     7
 74
     0
 42
0.00000001
 43
0.00000001
 12
1.0
 22
0.0
 32
0.0
 13
1.0
 23
0.0
 33
0.0
 40
0.0
 40
0.0
 40
0.0
 40
0.0
 40
0.2947327077693077
 40
0.5732815045218861
 40
0.8122464918304905
 40
1.0
 40
1.0
 40
1.0
 40
1.0
 10
36.27848806590661
 20
58.2924093415075
 30
0.0
 10
36.28238021553225
 20
58.29012359828099
 30
0.0
 10
36.28995079502476
 20
58.28567762305903
 30
0.0
 10
36.3767434897437
 20
58.28288473279839
 30
0.0
 10
36.48746146660164
 20
58.28178517589114
 30
0.0
 10
36.58035163671672
 20
58.28170042461585
 30
0.0
 10
36.62122273909073
 20
58.28166313457703
 30
0.0
  0
SPLINE
  5
9E
330
1F
100
AcDbEntity
  8
0
  6
Continuous
 62
     7
370
    15
100
AcDbSpline
210
0.0
220
0.0
230
1.0
 70
     8
 71
     3
 72
    12
 73
     8
 74
     0
 42
0.00000001
 43
0.00000001
 12
1.0
 22
0.0
 32
0.0
 13
1.0
 23
0.0
 33
0.0
 40
0.0
 40
0.0
 40
0.0
 40
0.0
 40
0.1043826396129341
 40
0.2921549445043737
 40
0.5039666565156361
 40
0.7399030826050706
 40
1.0
 40
1.0
 40
1.0
 40
1.0
 10
52.88896013601321
 20
58.28164927233318
 30
0.0
 10
52.92542566555126
 20
58.28165212254851
 30
0.0
 10
53.02748846831251
 20
58.28166009997181
 30
0.0
 10
53.17049091911479
 20
58.28170009354498
 30
0.0
 10
53.31613308671418
 20
58.2817886210707
 30
0.0
 10
53.43155390505181
 20
58.28194135575957
 30
0.0
 10
53.46308717847656
 20
58.28211506530789
 30
0.0
 10
53.47962176696922
 20
58.28220615055173
 30
0.0
  0
SPLINE
  5
9F
330
1F
100
AcDbEntity
  8
0
  6
Continuous
 62
     7
370
    15
100
AcDbSpline
210
0.0
220
0.0
230
1.0
 70
     8
 71
     3
 72
    43
 73
    39
 74
     0
 42
0.00000001
 43
0.00000001
 12
1.0
 22
0.0
 32
0.0
 13
1.0
 23
0.0
 33
0.0
 40
0.0
 40
0.0
 40
0.0
 40
0.0
 40
0.0298148972653735
 40
0.0559390861785596
 40
0.0783808750230038
 40
0.0971511270747644
 40
0.1122534390643331
 40
0.1257461177502117
 40
0.1394280872332993
 40
0.1532984281836198
 40
0.191028664365494
 40
0.2289405639379799
 40
0.2668601070768125
 40
0.3047739927032789
 40
0.3426827134162239
 40
0.3806011360529704
 40
0.4185180140028116
 40
0.4564259091503943
 40
0.494341841332487
 40
0.5322608168197058
 40
0.5701703893450505
 40
0.6080830835250746
 40
0.6460026782986387
 40
0.6839158220111382
 40
0.7218250475640314
 40
0.7502709594529046
 40
0.7787176918128585
 40
0.8071025366354461
 40
0.8340495963988571
 40
0.8467691783324351
 40
0.8589918589402554
 40
0.8732285627880546
 40
0.8914806866862928
 40
0.9089801771148838
 40
0.9290618805927651
 40
0.9517345525018378
 40
0.977015021756343
 40
1.0
 40
1.0
 40
1.0
 40
1.0
 10
36.32039894633353
 20
58.28220615057283
 30
0.0
 10
36.33906016593141
 20
58.28207661759966
 30
0.0
 10
36.37407258143604
 20
58.28183358620216
 30
0.0
 10
36.50059760711961
 20
58.28169195137971
 30
0.0
 10
36.64967771729381
 20
58.28164228844626
 30
0.0
 10
36.80568822144225
 20
58.2816393195531
 30
0.0
 10
36.95689863589263
 20
58.28164188910253
 30
0.0
 10
37.1070053002811
 20
58.28164131879316
 30
0.0
 10
37.26707238877174
 20
58.2816414669478
 30
0.0
 10
37.54393037661126
 20
58.28164141091327
 30
0.0
 10
37.97999390912682
 20
58.28164144597244
 30
0.0
 10
38.63005446731723
 20
58.28164143354743
 30
0.0
 10
39.36923490117611
 20
58.28164143652623
 30
0.0
 10
40.18611134766272
 20
58.28164143576523
 30
0.0
 10
41.06925322145109
 20
58.28164143606644
 30
0.0
 10
42.00618410078129
 20
58.28164143580801
 30
0.0
 10
42.98382567755075
 20
58.28164143635266
 30
0.0
 10
43.98833940049528
 20
58.28164143651726
 30
0.0
 10
45.00569221260659
 20
58.28164143575438
 30
0.0
 10
46.02156568979088
 20
58.28164143632806
 30
0.0
 10
47.02167104452003
 20
58.28164143729865
 30
0.0
 10
47.99194449900773
 20
58.28164143592554
 30
0.0
 10
48.91881780407981
 20
58.28164143617845
 30
0.0
 10
49.78919781142513
 20
58.28164143696072
 30
0.0
 10
50.52411481736267
 20
58.28164143976466
 30
0.0
 10
51.13384919588033
 20
58.28164142772031
 30
0.0
 10
51.63299317407795
 20
58.28164146660825
 30
0.0
 10
52.07124841880925
 20
58.28164132866726
 30
0.0
 10
52.38308146516809
 20
58.28164173743408
 30
0.0
 10
52.59563122972493
 20
58.2816409565777
 30
0.0
 10
52.74343913698888
 20
58.28164331356194
 30
0.0
 10
52.89924312552847
 20
58.28163191722025
 30
0.0
 10
53.05484000827764
 20
58.2817151417178
 30
0.0
 10
53.2034452502316
 20
58.28211570427613
 30
0.0
 10
53.3348988752028
 20
58.28302396159093
 30
0.0
 10
53.44317466023608
 20
58.28485052690485
 30
0.0
 10
53.51538630112567
 20
58.2876478766115
 30
0.0
 10
53.51875744748643
 20
58.29062947677245
 30
0.0
 10
53.52036285528384
 20
58.29204937482339
 30
0.0
  0
ARC
  5
A0
330
1F
100
AcDbEntity
  8
0
  6
Continuous
 62
     7
370
    15
100
AcDbCircle
 10
-73.4623673616
 20
81.3183776908
 30
0.0
 40
112.0
100
AcDbArc
 50
348.2258826999
 51
358.4384414049
  0
ARC
  5
A1
330
1F
100
AcDbEntity
  8
0
  6
Continuous
 62
     7
370
    15
100
AcDbCircle
 10
163.2623880751
 20
81.3183776908
 30
0.0
 40
112.0
100
AcDbArc
 50
181.5615881035
 51
191.7741508625
  0
SPLINE
  5
A2
330
1F
100
AcDbEntity
  8
0
  6
Continuous
 62
     7
370
    15
100
AcDbSpline
210
0.0
220
0.0
230
1.0
 70
     8
 71
     3
 72
    11
 73
     7
 74
     0
 42
0.00000001
 43
0.00000001
 12
1.0
 22
0.0
 32
0.0
 13
1.0
 23
0.0
 33
0.0
 40
0.0
 40
0.0
 40
0.0
 40
0.0
 40
0.1990709837498635
 40
0.4311236701953762
 40
0.6997299470473565
 40
1.0
 40
1.0
 40
1.0
 40
1.0
 10
51.30362623805112
 20
78.26587810192784
 30
0.0
 10
51.30250459893455
 20
78.27771529880954
 30
0.0
 10
51.30007548966176
 20
78.303350856882
 30
0.0
 10
51.28140473403321
 20
78.34469257058178
 30
0.0
 10
51.24573758614022
 20
78.38572209811845
 30
0.0
 10
51.20946594543828
 20
78.39969760028278
 30
0.0
 10
51.19032068151424
 20
78.40707429105906
 30
0.0
  0
SPLINE
  5
A3
330
1F
100
AcDbEntity
  8
0
  6
Continuous
 62
     7
370
    15
100
AcDbSpline
210
0.0
220
0.0
230
1.0
 70
     8
 71
     3
 72
    41
 73
    37
 74
     0
 42
0.00000001
 43
0.00000001
 12
1.0
 22
0.0
 32
0.0
 13
1.0
 23
0.0
 33
0.0
 40
0.0
 40
0.0
 40
0.0
 40
0.0
 40
0.0296968478231766
 40
0.055795575724492
 40
0.0781779818565132
 40
0.0968751900686949
 40
0.1119088143156204
 40
0.1253378465809319
 40
0.1389552832172547
 40
0.1527604025723863
 40
0.1903130777538539
 40
0.228046503393758
 40
0.2657876305079565
 40
0.3035230595556842
 40
0.3412533834681408
 40
0.3789933730329306
 40
0.4167318900342941
 40
0.4544613693723801
 40
0.4921989261073174
 40
0.5299394644947276
 40
0.5676706405864713
 40
0.605404854216138
 40
0.643146036575389
 40
0.6808807049860499
 40
0.7186115357047109
 40
0.7563518899986227
 40
0.7940898153186184
 40
0.8302802871127595
 40
0.8429400667727245
 40
0.8551053513809732
 40
0.8692736367033533
 40
0.8874319154883723
 40
0.9095803395720549
 40
0.9357185198740262
 40
0.9658541925959834
 40
1.0
 40
1.0
 40
1.0
 40
1.0
 10
51.21534054874134
 20
78.39644974414335
 30
0.0
 10
51.21163375507625
 20
78.39902228414813
 30
0.0
 10
51.20466928908757
 20
78.4038556708933
 30
0.0
 10
51.13834018648243
 20
78.40782482670289
 30
0.0
 10
51.05248187367087
 20
78.40989825136411
 30
0.0
 10
50.95894078683367
 20
78.4107834855975
 30
0.0
 10
50.86833893697412
 20
78.41098690500907
 30
0.0
 10
50.77790806000066
 20
78.41094181283468
 30
0.0
 10
50.67899510449855
 20
78.41095353387695
 30
0.0
 10
50.50508025936686
 20
78.41094908520499
 30
0.0
 10
50.22370404281523
 20
78.41095180560198
 30
0.0
 10
49.79145812332567
 20
78.41095087449887
 30
0.0
 10
49.29019278092348
 20
78.41095112712564
 30
0.0
 10
48.72767957109381
 20
78.41095106192724
 30
0.0
 10
48.11079139997717
 20
78.41095107953325
 30
0.0
 10
47.44884684054103
 20
78.41095107050354
 30
0.0
 10
46.75141330928953
 20
78.41095107486511
 30
0.0
 10
46.02777684625865
 20
78.41095107985043
 30
0.0
 10
45.28823849434126
 20
78.41095107216289
 30
0.0
 10
44.54333014093026
 20
78.41095107113102
 30
0.0
 10
43.80333966739529
 20
78.41095108199433
 30
0.0
 10
43.07895594332328
 20
78.41095107750964
 30
0.0
 10
42.38006336219398
 20
78.41095106468904
 30
0.0
 10
41.71626804115443
 20
78.4109510920199
 30
0.0
 10
41.09769481678299
 20
78.41095104500766
 30
0.0
 10
40.53254312853345
 20
78.41095120633992
 30
0.0
 10
40.03505448031069
 20
78.41095055427503
 30
0.0
 10
39.70078592492165
 20
78.41095243503564
 30
0.0
 10
39.49152110846499
 20
78.41094952373618
 30
0.0
 10
39.36644093353709
 20
78.410957213957
 30
0.0
 10
39.23393530862494
 20
78.41091965194731
 30
0.0
 10
39.08749391695223
 20
78.41081388557683
 30
0.0
 10
38.93371980769732
 20
78.41063636732012
 30
0.0
 10
38.78980625772683
 20
78.4103643581307
 30
0.0
 10
38.67099496764673
 20
78.40998241976808
 30
0.0
 10
38.64050578791097
 20
78.40963477802165
 30
0.0
 10
38.62431017982723
 20
78.40945011351023
 30
0.0
  0
SPLINE
  5
A4
330
1F
100
AcDbEntity
  8
0
  6
Continuous
 62
     7
370
    15
100
AcDbSpline
210
0.0
220
0.0
230
1.0
 70
     8
 71
     3
 72
    10
 73
     6
 74
     0
 42
0.00000001
 43
0.00000001
 12
1.0
 22
0.0
 32
0.0
 13
1.0
 23
0.0
 33
0.0
 40
0.0
 40
0.0
 40
0.0
 40
0.0
 40
0.4119167051748619
 40
0.7728323730002429
 40
0.9999999999999999
 40
0.9999999999999999
 40
0.9999999999999999
 40
0.9999999999999999
 10
51.17571053427164
 20
78.40945011185126
 30
0.0
 10
51.1617598546827
 20
78.40967012923225
 30
0.0
 10
51.13558578435187
 20
78.41008292277164
 30
0.0
 10
51.05351404173438
 20
78.41047593275371
 30
0.0
 10
50.98109297540712
 20
78.41063349875196
 30
0.0
 10
50.95311781963051
 20
78.41069436409917
 30
0.0
  0
SPLINE
  5
A5
330
1F
100
AcDbEntity
  8
0
  6
Continuous
 62
     7
370
    15
100
AcDbSpline
210
0.0
220
0.0
230
1.0
 70
     8
 71
     3
 72
    11
 73
     7
 74
     0
 42
0.00000001
 43
0.00000001
 12
1.0
 22
0.0
 32
0.0
 13
1.0
 23
0.0
 33
0.0
 40
0.0
 40
0.0
 40
0.0
 40
0.0
 40
0.3002700469094696
 40
0.5688763221146917
 40
0.800929010921505
 40
1.0
 40
1.0
 40
1.0
 40
1.0
 10
38.60970003352201
 20
78.40707429289047
 30
0.0
 10
38.59055476996335
 20
78.39969760252521
 30
0.0
 10
38.55428312971397
 20
78.38572210104726
 30
0.0
 10
38.51861598161101
 20
78.34469257524394
 30
0.0
 10
38.49994522510089
 20
78.30335086268006
 30
0.0
 10
38.49751611512327
 20
78.27771530513975
 30
0.0
 10
38.49639447567122
 20
78.26587810839807
 30
0.0
  0
LINE
  5
A6
330
1F
100
AcDbEntity
  8
0
  6
Continuous
 62
     7
370
    15
100
AcDbLine
 10
45.5000103568
 20
55.2656245745
 30
0.0
 11
45.5000103568
 21
58.2816414362
 31
0.0
  0
LINE
  5
A7
330
1F
100
AcDbEntity
  8
0
  6
Continuous
 62
     7
370
    15
100
AcDbLine
 10
44.3000103568
 20
58.2816414362
 30
0.0
 11
44.3000103568
 21
55.2656245745
 31
0.0
  0
LINE
  5
A8
330
1F
100
AcDbEntity
  8
0
  6
Continuous
 62
     7
370
    15
100
AcDbLine
 10
45.5000103568
 20
49.9850985318
 30
0.0
 11
45.5000103568
 21
49.985138428
 31
0.0
  0
LINE
  5
A9
330
1F
100
AcDbEntity
  8
0
  6
Continuous
 62
     7
370
    15
100
AcDbLine
 10
44.3000103568
 20
49.985138428
 30
0.0
 11
44.3000103568
 21
49.9850985318
 31
0.0
  0
LINE
  5
AA
330
1F
100
AcDbEntity
  8
0
  6
Continuous
 62
     7
370
    15
100
AcDbLine
 10
45.5000103568
 20
55.0215017895
 30
0.0
 11
45.5000103568
 21
55.2656245745
 31
0.0
  0
LINE
  5
AB
330
1F
100
AcDbEntity
  8
0
  6
Continuous
 62
     7
370
    15
100
AcDbLine
 10
45.5000103568
 20
49.7656245745
 30
0.0
 11
45.5000103568
 21
49.9850985318
 31
0.0
  0
LINE
  5
AC
330
1F
100
AcDbEntity
  8
0
  6
Continuous
 62
     7
370
    15
100
AcDbLine
 10
44.3000103568
 20
49.9850985318
 30
0.0
 11
44.3000103568
 21
49.7656245745
 31
0.0
  0
LINE
  5
AD
330
1F
100
AcDbEntity
  8
0
  6
Continuous
 62
     7
370
    15
100
AcDbLine
 10
44.3000103568
 20
55.2656245745
 30
0.0
 11
44.3000103568
 21
55.0215017895
 31
0.0
  0
LINE
  5
AE
330
1F
100
AcDbEntity
  8
0
  6
Continuous
 62
     7
370
    15
100
AcDbLine
 10
44.3004789896
 20
45.6740851388
 30
0.0
 11
44.2726756116
 21
45.6354090796
 31
0.0
  0
LINE
  5
AF
330
1F
100
AcDbEntity
  8
0
  6
Continuous
 62
     7
370
    15
100
AcDbLine
 10
45.5287877752
 20
45.6331894738
 30
0.0
 11
45.5000103568
 21
45.6732758585
 31
0.0
  0
LINE
  5
B0
330
1F
100
AcDbEntity
  8
0
  6
Continuous
 62
     7
370
    15
100
AcDbLine
 10
45.5000103568
 20
49.7656245745
 30
0.0
 11
44.3000103568
 21
49.7656245745
 31
0.0
  0
LINE
  5
B1
330
1F
100
AcDbEntity
  8
0
  6
Continuous
 62
     7
370
    15
100
AcDbLine
 10
45.4000103568
 20
44.4156245745
 30
0.0
 11
44.4000103568
 21
44.4156245745
 31
0.0
  0
LINE
  5
B2
330
1F
100
AcDbEntity
  8
0
  6
Continuous
 62
     7
370
    15
100
AcDbLine
 10
45.5000103568
 20
55.2656245745
 30
0.0
 11
44.3000103568
 21
55.2656245745
 31
0.0
  0
LINE
  5
B3
330
1F
100
AcDbEntity
  8
0
  6
Continuous
 62
     7
370
    15
100
AcDbLine
 10
44.9000103568
 20
55.2656245745
 30
0.0
 11
44.3000103568
 21
55.2656245745
 31
0.0
  0
LINE
  5
B4
330
1F
100
AcDbEntity
  8
0
  6
Continuous
 62
     7
370
    15
100
AcDbLine
 10
45.5000103568
 20
55.2656245745
 30
0.0
 11
44.9000103568
 21
55.2656245745
 31
0.0
  0
LINE
  5
B5
330
1F
100
AcDbEntity
  8
0
  6
Continuous
 62
     7
370
    15
100
AcDbLine
 10
44.3000103568
 20
49.985138428
 30
0.0
 11
44.3000103568
 21
55.0214618933
 31
0.0
  0
LINE
  5
B6
330
1F
100
AcDbEntity
  8
0
  6
Continuous
 62
     7
370
    15
100
AcDbLine
 10
45.5000103568
 20
49.985138428
 30
0.0
 11
45.5000103568
 21
55.0214618933
 31
0.0
  0
LINE
  5
B7
330
1F
100
AcDbEntity
  8
0
  6
Continuous
 62
     7
370
    15
100
AcDbLine
 10
44.9000103568
 20
49.7656245745
 30
0.0
 11
44.3000103568
 21
49.7656245745
 31
0.0
  0
LINE
  5
B8
330
1F
100
AcDbEntity
  8
0
  6
Continuous
 62
     7
370
    15
100
AcDbLine
 10
45.5000103568
 20
49.7656245745
 30
0.0
 11
44.9000103568
 21
49.7656245745
 31
0.0
  0
SPLINE
  5
B9
330
1F
100
AcDbEntity
  8
0
  6
Continuous
 62
     7
370
    15
100
AcDbSpline
210
0.0
220
0.0
230
1.0
 70
     8
 71
     3
 72
    51
 73
    47
 74
     0
 42
0.00000001
 43
0.00000001
 12
1.0
 22
0.0
 32
0.0
 13
1.0
 23
0.0
 33
0.0
 40
0.0
 40
0.0
 40
0.0
 40
0.0
 40
0.0172502236443411
 40
0.0583535384258198
 40
0.0867154657897108
 40
0.1178363613745865
 40
0.1471635884467657
 40
0.161051669972317
 40
0.1938819531605746
 40
0.2119851698298952
 40
0.2411578185309084
 40
0.2625801226545675
 40
0.284136479520471
 40
0.3192232813586091
 40
0.3493459112924823
 40
0.3678502568148295
 40
0.3910357625071127
 40
0.408434220937402
 40
0.4335405365292449
 40
0.4564337965416933
 40
0.4725071889632541
 40
0.4963462483991217
 40
0.51777048848655
 40
0.5344263128394465
 40
0.5544736721125629
 40
0.5774649706153698
 40
0.5947107115341859
 40
0.6097019518869564
 40
0.6376631895330368
 40
0.6570288059990315
 40
0.6726441634393115
 40
0.7003010404408353
 40
0.716442506269204
 40
0.7373595556333441
 40
0.7672277150177154
 40
0.7975977399195171
 40
0.8262238100282261
 40
0.8397782605935631
 40
0.859861033323994
 40
0.8825246034693407
 40
0.8985133671060919
 40
0.9178569816023169
 40
0.938712999161191
 40
0.9612314377769746
 40
0.9789176849479615
 40
1.0
 40
1.0
 40
1.0
 40
1.0
 10
46.68241404037371
 20
47.33960460882125
 30
0.0
 10
46.74586874145056
 20
47.27820357052871
 30
0.0
 10
46.96052139836274
 20
47.0704979824006
 30
0.0
 10
47.2280932395204
 20
46.71204032664923
 30
0.0
 10
47.47388396252954
 20
46.25892453216613
 30
0.0
 10
47.6381440869346
 20
45.83368753138051
 30
0.0
 10
47.7294561381964
 20
45.46340189967254
 30
0.0
 10
47.78812636167689
 20
45.0786308309703
 30
0.0
 10
47.80563950935744
 20
44.74609060545656
 30
0.0
 10
47.78242171869397
 20
44.33659493682345
 30
0.0
 10
47.72639711727757
 20
43.98844861947703
 30
0.0
 10
47.62649684002385
 20
43.63247592016572
 30
0.0
 10
47.48100317104765
 20
43.25983677280465
 30
0.0
 10
47.26442122477535
 20
42.86965937217683
 30
0.0
 10
46.99789427478603
 20
42.53215566249645
 30
0.0
 10
46.73564048182643
 20
42.27409958917281
 30
0.0
 10
46.49760390361885
 20
42.08631735476344
 30
0.0
 10
46.21226354307627
 20
41.90788358628721
 30
0.0
 10
45.908911713165
 20
41.76396759942828
 30
0.0
 10
45.59577334641118
 20
41.6638134423623
 30
0.0
 10
45.28047203298545
 20
41.59980480312471
 30
0.0
 10
44.96681174478997
 20
41.57227004460859
 30
0.0
 10
44.64947369956003
 20
41.58515374911283
 30
0.0
 10
44.35490709039421
 20
41.62914811734923
 30
0.0
 10
44.0584638359655
 20
41.70536011460981
 30
0.0
 10
43.77026328368302
 20
41.81774639851087
 30
0.0
 10
43.51961003008787
 20
41.94913141061062
 30
0.0
 10
43.26011054908406
 20
42.11558027841082
 30
0.0
 10
43.01229871672542
 20
42.31834452826079
 30
0.0
 10
42.78972159138851
 20
42.55179572591862
 30
0.0
 10
42.58993730535751
 20
42.80276322366178
 30
0.0
 10
42.42683117980891
 20
43.06060061659068
 30
0.0
 10
42.28024628491474
 20
43.35780712035137
 30
0.0
 10
42.15609212156759
 20
43.67753704286044
 30
0.0
 10
42.05156208418794
 20
44.0807837720409
 30
0.0
 10
41.99737094198181
 20
44.53355787158036
 30
0.0
 10
42.00036623933743
 20
44.90577032123512
 30
0.0
 10
42.03146763721514
 20
45.22296255849339
 30
0.0
 10
42.07985414055936
 20
45.50730378007837
 30
0.0
 10
42.15666882420363
 20
45.79834692037597
 30
0.0
 10
42.2555372563499
 20
46.07835648491891
 30
0.0
 10
42.3713971417927
 20
46.34182952098824
 30
0.0
 10
42.52540384423047
 20
46.6238994273731
 30
0.0
 10
42.70125333197076
 20
46.88267372376315
 30
0.0
 10
42.89903320528965
 20
47.12672605615074
 30
0.0
 10
43.04128134883577
 20
47.26523039179465
 30
0.0
 10
43.11863578257915
 20
47.34054894560946
 30
0.0
  0
ARC
  5
BA
330
1F
100
AcDbEntity
  8
0
  6
Continuous
 62
     7
370
    15
100
AcDbCircle
 10
44.9000103568
 20
42.9489504445
 30
0.0
 40
6.800000000000004
100
AcDbArc
 50
0.0
 51
84.9379070357
  0
ARC
  5
BB
330
1F
100
AcDbEntity
  8
0
  6
Continuous
 62
     7
370
    15
100
AcDbCircle
 10
44.9000103568
 20
42.9489504445
 30
0.0
 40
6.800000000000004
100
AcDbArc
 50
95.0620929643
 51
0.0
  0
LINE
  5
BC
330
1F
100
AcDbEntity
  8
0
  6
Continuous
 62
     8
370
    15
100
AcDbLine
 10
45.5000103568
 20
44.5156245745
 30
0.0
 11
44.3000103568
 21
44.5156245745
 31
0.0
  0
SPLINE
  5
BD
330
1F
100
AcDbEntity
  8
0
  6
Continuous
 62
     8
370
    15
100
AcDbSpline
210
0.0
220
0.0
230
1.0
 70
    24
 71
     3
 72
    29
 73
    25
 74
     0
 42
0.00000001
 43
0.00000001
 12
1.0
 22
0.0
 32
0.0
 13
1.0
 23
0.0
 33
0.0
 40
0.0
 40
0.0
 40
0.0
 40
0.0
 40
0.0462245181254775
 40
0.0924490362509548
 40
0.1386735543764323
 40
0.1848980725019099
 40
0.2311225906273874
 40
0.2773471087528646
 40
0.3235716268783422
 40
0.3697961450038196
 40
0.416020663129297
 40
0.4622451812547743
 40
0.508469699380252
 40
0.5546942175057297
 40
0.6009187356312069
 40
0.6471432537566842
 40
0.6933677718821615
 40
0.7395922900076393
 40
0.7858168081331165
 40
0.8320413262585942
 40
0.8782658443840715
 40
0.924490362509549
 40
0.9707148806350261
 40
1.0
 40
1.0
 40
1.0
 40
1.0
 10
40.3277486676732
 20
58.46225109355759
 30
0.0
 10
40.57495419530625
 20
58.46225109355759
 30
0.0
 10
41.06936525057238
 20
58.46225109355759
 30
0.0
 10
41.85967174836973
 20
58.46225109355758
 30
0.0
 10
42.6760969145753
 20
58.46225109355759
 30
0.0
 10
43.51478669209747
 20
58.46225109355759
 30
0.0
 10
44.36658994854567
 20
58.46225109355759
 30
0.0
 10
45.22359115478914
 20
58.46225109355758
 30
0.0
 10
46.07745980459838
 20
58.46225109355759
 30
0.0
 10
46.9199933387472
 20
58.46225109355758
 30
0.0
 10
47.7430721642807
 20
58.46225109355762
 30
0.0
 10
48.53877105730626
 20
58.46225109355751
 30
0.0
 10
49.29942663640446
 20
58.46225109355759
 30
0.0
 10
50.01771336181932
 20
58.46225109355767
 30
0.0
 10
50.68671414868641
 20
58.46225109355757
 30
0.0
 10
51.29998452860087
 20
58.46225109355759
 30
0.0
 10
51.85162446405656
 20
58.46225109355759
 30
0.0
 10
52.33629862003198
 20
58.46225109355759
 30
0.0
 10
52.74942419149908
 20
58.46225109355758
 30
0.0
 10
53.08670580607775
 20
58.4622510935576
 30
0.0
 10
53.34607737455688
 20
58.46225109355751
 30
0.0
 10
53.52062928577786
 20
58.46225109355762
 30
0.0
 10
53.61237832901413
 20
58.46225109355758
 30
0.0
 10
53.61036484300899
 20
58.46225109355759
 30
0.0
 10
53.60958394695439
 20
58.46225109355759
 30
0.0
  0
SPLINE
  5
BE
330
1F
100
AcDbEntity
  8
0
  6
Continuous
 62
     8
370
    15
100
AcDbSpline
210
0.0
220
0.0
230
1.0
 70
    24
 71
     3
 72
    18
 73
    14
 74
     0
 42
0.00000001
 43
0.00000001
 12
1.0
 22
0.0
 32
0.0
 13
1.0
 23
0.0
 33
0.0
 40
0.0
 40
0.0
 40
0.0
 40
0.0
 40
0.0353504671910102
 40
0.1318154204719088
 40
0.2282803737528092
 40
0.3247453270337078
 40
0.4212102803146066
 40
0.5176752335955052
 40
0.6141401868764038
 40
0.7106051401573042
 40
0.807070093438201
 40
0.9035350467191013
 40
1.0
 40
1.0
 40
1.0
 40
1.0
 10
36.19043676659361
 20
58.46225109355756
 30
0.0
 10
36.18797609899237
 20
58.46225109355755
 30
0.0
 10
36.17880071998685
 20
58.46225109355753
 30
0.0
 10
36.24984812002418
 20
58.46225109355762
 30
0.0
 10
36.40255330097706
 20
58.46225109355758
 30
0.0
 10
36.6426306848105
 20
58.46225109355759
 30
0.0
 10
36.96075155491616
 20
58.46225109355758
 30
0.0
 10
37.35571315671995
 20
58.4622510935576
 30
0.0
 10
37.82328474102054
 20
58.46225109355758
 30
0.0
 10
38.35881062682496
 20
58.46225109355759
 30
0.0
 10
38.95817130431465
 20
58.46225109355759
 30
0.0
 10
39.61159572471728
 20
58.46225109355759
 30
0.0
 10
40.08903102002122
 20
58.46225109355759
 30
0.0
 10
40.32774866767319
 20
58.46225109355759
 30
0.0
  0
SPLINE
  5
BF
330
1F
100
AcDbEntity
  8
0
  6
Continuous
 62
     8
370
    15
100
AcDbSpline
210
0.0
220
0.0
230
1.0
 70
    24
 71
     3
 72
    15
 73
    11
 74
     0
 42
0.00000001
 43
0.00000001
 12
1.0
 22
0.0
 32
0.0
 13
1.0
 23
0.0
 33
0.0
 40
0.0
 40
0.0
 40
0.0
 40
0.0
 40
0.1284728982882891
 40
0.2569457965765771
 40
0.3854186948648662
 40
0.5138915931531548
 40
0.642364491441443
 40
0.7708373897297321
 40
0.899310288018021
 40
1.0
 40
1.0
 40
1.0
 40
1.0
 10
41.54187648159503
 20
78.26587811460747
 30
0.0
 10
41.30949383909518
 20
78.26587811460747
 30
0.0
 10
40.84472855409548
 20
78.26587811460746
 30
0.0
 10
40.23237992030572
 20
78.26587811460747
 30
0.0
 10
39.69570514813264
 20
78.26587811460746
 30
0.0
 10
39.24942754030756
 20
78.26587811460747
 30
0.0
 10
38.89862332308391
 20
78.26587811460747
 30
0.0
 10
38.65399303468659
 20
78.26587811460747
 30
0.0
 10
38.5143385185282
 20
78.26587811460747
 30
0.0
 10
38.50807326101145
 20
78.26587811460747
 30
0.0
 10
38.50532042548512
 20
78.26587811460747
 30
0.0
  0
SPLINE
  5
C0
330
1F
100
AcDbEntity
  8
0
  6
Continuous
 62
     8
370
    15
100
AcDbSpline
210
0.0
220
0.0
230
1.0
 70
    24
 71
     3
 72
    24
 73
    20
 74
     0
 42
0.00000001
 43
0.00000001
 12
1.0
 22
0.0
 32
0.0
 13
1.0
 23
0.0
 33
0.0
 40
0.0
 40
0.0
 40
0.0
 40
0.0
 40
0.013323434465948
 40
0.0749907198118262
 40
0.1366580051577045
 40
0.1983252905035829
 40
0.2599925758494608
 40
0.3216598611953392
 40
0.3833271465412176
 40
0.4449944318870956
 40
0.5066617172329739
 40
0.5683290025788524
 40
0.6299962879247304
 40
0.6916635732706088
 40
0.7533308586164873
 40
0.8149981439623651
 40
0.8766654293082435
 40
0.9383327146541219
 40
1.0
 40
1.0
 40
1.0
 40
1.0
 10
51.29470660872069
 20
78.26587811460752
 30
0.0
 10
51.29756402313789
 20
78.26587811460752
 30
0.0
 10
51.3136469306265
 20
78.26587811460752
 30
0.0
 10
51.23519241466564
 20
78.26587811460747
 30
0.0
 10
51.05534503329315
 20
78.26587811460745
 30
0.0
 10
50.76086485424685
 20
78.26587811460757
 30
0.0
 10
50.36859932694375
 20
78.26587811460746
 30
0.0
 10
49.88209605243566
 20
78.26587811460747
 30
0.0
 10
49.31052710823302
 20
78.26587811460746
 30
0.0
 10
48.66344488191929
 20
78.26587811460747
 30
0.0
 10
47.9519825202751
 20
78.26587811460746
 30
0.0
 10
47.18829509515024
 20
78.26587811460749
 30
0.0
 10
46.38546110528979
 20
78.26587811460746
 30
0.0
 10
45.55718912859225
 20
78.26587811460747
 30
0.0
 10
44.71775207007484
 20
78.26587811460747
 30
0.0
 10
43.88113729737822
 20
78.26587811460747
 30
0.0
 10
43.06306111202704
 20
78.26587811460747
 30
0.0
 10
42.27229029429122
 20
78.26587811460747
 30
0.0
 10
41.78534775249376
 20
78.26587811460747
 30
0.0
 10
41.54187648159503
 20
78.26587811460747
 30
0.0
  0
SPLINE
  5
C1
330
1F
100
AcDbEntity
  8
0
  6
Continuous
 62
     8
370
    15
100
AcDbSpline
210
0.0
220
0.0
230
1.0
 70
     8
 71
     3
 72
    65
 73
    61
 74
     0
 42
0.00000001
 43
0.00000001
 12
1.0
 22
0.0
 32
0.0
 13
1.0
 23
0.0
 33
0.0
 40
0.0
 40
0.0
 40
0.0
 40
0.0
 40
0.0215610003106803
 40
0.0432626888585321
 40
0.0660748969132334
 40
0.0889321112463672
 40
0.1119446711678224
 40
0.1350157859204847
 40
0.1562025213492942
 40
0.1774477940453256
 40
0.1988992658554625
 40
0.2204299376184188
 40
0.2390994126520506
 40
0.2578549581884285
 40
0.2768980037319365
 40
0.2960532444956149
 40
0.3124745139629523
 40
0.3290020739848576
 40
0.3459038392746728
 40
0.3629622933312346
 40
0.3743953352459871
 40
0.3858863127039328
 40
0.3975740611581282
 40
0.4093355006430126
 40
0.4240387407737117
 40
0.4348151279125056
 40
0.4456609730921408
 40
0.4567326753961854
 40
0.4678846912103617
 40
0.4826348010380754
 40
0.4937985657758223
 40
0.5050507145463062
 40
0.5165827879573065
 40
0.5282117880006809
 40
0.5423667549161247
 40
0.555298175926663
 40
0.5683561769959768
 40
0.5818037684772323
 40
0.5953793552142052
 40
0.6074198080249467
 40
0.6216792297873958
 40
0.6360608977534712
 40
0.6507961206499072
 40
0.6656422504887834
 40
0.682494796817644
 40
0.7038182228941304
 40
0.7253622769167254
 40
0.7474735428337677
 40
0.7697386427849509
 40
0.7929994384781507
 40
0.8163769184660989
 40
0.8400738040629406
 40
0.8638652388097785
 40
0.8856321657453132
 40
0.9074477619994393
 40
0.9294067136499174
 40
0.9514086289292538
 40
0.9746708747196284
 40
0.9979852722114987
 40
1.0
 40
1.0
 40
1.0
 40
1.0
 10
44.29854443779257
 20
45.67150573310877
 30
0.0
 10
44.27441095751308
 20
45.63692393767897
 30
0.0
 10
44.22598652296179
 20
45.56753469625738
 30
0.0
 10
44.15845482469673
 20
45.45550878131235
 30
0.0
 10
44.09463315472578
 20
45.33709241596713
 30
0.0
 10
44.03562903497539
 20
45.21250151677251
 30
0.0
 10
43.98258144178224
 20
45.08255110333249
 30
0.0
 10
43.93753725932996
 20
44.95154968736541
 30
0.0
 10
43.90027502688029
 20
44.82093199167556
 30
0.0
 10
43.87109009228448
 20
44.68984725483689
 30
0.0
 10
43.84985431754108
 20
44.55468884672836
 30
0.0
 10
43.83771312231575
 20
44.42264496447105
 30
0.0
 10
43.83460263815584
 20
44.29446716347665
 30
0.0
 10
43.84046329734061
 20
44.17015077244464
 30
0.0
 10
43.85572535040021
 20
44.04425231980331
 30
0.0
 10
43.88002265537644
 20
43.92387304803239
 30
0.0
 10
43.91339258946585
 20
43.81011430908232
 30
0.0
 10
43.95440267331275
 20
43.70327783096997
 30
0.0
 10
44.0054986988875
 20
43.59818390971741
 30
0.0
 10
44.06105317290272
 20
43.50777494742108
 30
0.0
 10
44.11686725441984
 20
43.43217781162556
 30
0.0
 10
44.16993030657357
 20
43.36998809387274
 30
0.0
 10
44.22838050962388
 20
43.31113465654376
 30
0.0
 10
44.29731634741659
 20
43.25178299509127
 30
0.0
 10
44.36998536106814
 20
43.19992135090311
 30
0.0
 10
44.4453245316595
 20
43.15579918098085
 30
0.0
 10
44.51623850550204
 20
43.12142338452225
 30
0.0
 10
44.59073563103394
 20
43.09252426947781
 30
0.0
 10
44.67654348384401
 20
43.06710752335037
 30
0.0
 10
44.76491314794696
 20
43.05016975489158
 30
0.0
 10
44.85473193504889
 20
43.04199727572613
 30
0.0
 10
44.93714785968229
 20
43.04161402376737
 30
0.0
 10
45.0203932561156
 20
43.04850698117445
 30
0.0
 10
45.10957926860534
 20
43.06390822415444
 30
0.0
 10
45.20003217757516
 20
43.08886722567117
 30
0.0
 10
45.29050768082934
 20
43.12394968490334
 30
0.0
 10
45.37543224282081
 20
43.16666824413775
 30
0.0
 10
45.45693380433135
 20
43.21793187357068
 30
0.0
 10
45.53098124055452
 20
43.27493864993362
 30
0.0
 10
45.60088241828563
 20
43.3391496527212
 30
0.0
 10
45.66594496476552
 20
43.41025455789793
 30
0.0
 10
45.72777382549754
 20
43.49151088848717
 30
0.0
 10
45.78274462490226
 20
43.57840523696225
 30
0.0
 10
45.83230003237271
 20
43.67407015188545
 30
0.0
 10
45.87891149407663
 20
43.78681495276423
 30
0.0
 10
45.91892415075929
 20
43.9170497341749
 30
0.0
 10
45.94711758414207
 20
44.06035749157611
 30
0.0
 10
45.96252140066521
 20
44.20608815646905
 30
0.0
 10
45.96549941416405
 20
44.35454305257775
 30
0.0
 10
45.95597705050084
 20
44.50301298361131
 30
0.0
 10
45.93579830685799
 20
44.65202253116793
 30
0.0
 10
45.90544872153722
 20
44.79846790665245
 30
0.0
 10
45.86684802160786
 20
44.93693640128431
 30
0.0
 10
45.82228497149624
 20
45.06834628718691
 30
0.0
 10
45.77273388794647
 20
45.19252116792815
 30
0.0
 10
45.71723011464602
 20
45.31257325793598
 30
0.0
 10
45.65508674615907
 20
45.43167303545735
 30
0.0
 10
45.58527523142464
 20
45.54831041441461
 30
0.0
 10
45.53370631437733
 20
45.6285916229487
 30
0.0
 10
45.5037523664918
 20
45.66783356449579
 30
0.0
 10
45.50136977133653
 20
45.67095494469486
 30
0.0
  0
LINE
  5
C2
330
1F
100
AcDbEntity
  8
0
  6
Continuous
 62
     8
370
    15
100
AcDbLine
 10
46.6824140404
 20
47.3396046088
 30
0.0
 11
45.5000103568
 21
46.0528907196
 31
0.0
  0
LINE
  5
C3
330
1F
100
AcDbEntity
  8
0
  6
Continuous
 62
     8
370
    15
100
AcDbLine
 10
44.3000103568
 20
46.0534926787
 30
0.0
 11
43.1186357826
 21
47.3405489456
 31
0.0
  0
SPLINE
  5
C4
330
1F
100
AcDbEntity
  8
0
  6
Continuous
 62
     8
370
    15
100
AcDbSpline
210
0.0
220
0.0
230
1.0
 70
     8
 71
     3
 72
    13
 73
     9
 74
     0
 42
0.00000001
 43
0.00000001
 12
1.0
 22
0.0
 32
0.0
 13
1.0
 23
0.0
 33
0.0
 40
0.0
 40
0.0
 40
0.0
 40
0.0
 40
0.1189867758308937
 40
0.3593164787984152
 40
0.4807857557624746
 40
0.6355436742632556
 40
0.9498330456374877
 40
1.0
 40
1.0
 40
1.0
 40
1.0
 10
43.11863578257915
 20
47.34054894560946
 30
0.0
 10
43.15863600600962
 20
47.3758527910972
 30
0.0
 10
43.27942875237841
 20
47.48246340694184
 30
0.0
 10
43.45702182910662
 20
47.60602389260708
 30
0.0
 10
43.6581052662189
 20
47.72110650087096
 30
0.0
 10
43.89731630613509
 20
47.8345332791088
 30
0.0
 10
44.11786455636953
 20
47.91439835152071
 30
0.0
 10
44.27797179672353
 20
47.94700082844271
 30
0.0
 10
44.30001035677241
 20
47.9514885183423
 30
0.0
  0
SPLINE
  5
C5
330
1F
100
AcDbEntity
  8
0
  6
Continuous
 62
     8
370
    15
100
AcDbSpline
210
0.0
220
0.0
230
1.0
 70
     8
 71
     3
 72
    14
 73
    10
 74
     0
 42
0.00000001
 43
0.00000001
 12
1.0
 22
0.0
 32
0.0
 13
1.0
 23
0.0
 33
0.0
 40
0.0
 40
0.0
 40
0.0
 40
0.0
 40
0.0425088584242292
 40
0.2114164624749796
 40
0.3841805420753113
 40
0.5583226215405773
 40
0.6678161707035977
 40
0.8885913526713578
 40
1.0
 40
1.0
 40
1.0
 40
1.0
 10
45.50001035677241
 20
47.95154420159922
 30
0.0
 10
45.51873505571544
 20
47.94785815912599
 30
0.0
 10
45.61186175349536
 20
47.92952574350464
 30
0.0
 10
45.7768027103161
 20
47.87753756491807
 30
0.0
 10
45.99296653386084
 20
47.79436473086103
 30
0.0
 10
46.17661282181784
 20
47.70268952213397
 30
0.0
 10
46.37123527555444
 20
47.58696150586587
 30
0.0
 10
46.53333517436912
 20
47.47164641504385
 30
0.0
 10
46.64497274981526
 20
47.37276702657462
 30
0.0
 10
46.68241404037371
 20
47.33960460882125
 30
0.0
  0
ARC
  5
C6
330
1F
100
AcDbEntity
  8
0
  6
Continuous
 62
     8
370
    15
100
AcDbCircle
 10
44.9000103568
 20
42.9489504445
 30
0.0
 40
6.58949649543429
100
AcDbArc
 50
0.0
 51
84.7757542934
  0
ARC
  5
C7
330
1F
100
AcDbEntity
  8
0
  6
Continuous
 62
     8
370
    15
100
AcDbCircle
 10
44.9000103568
 20
42.9489504445
 30
0.0
 40
6.58949649543429
100
AcDbArc
 50
95.2242457066
 51
0.0
  0
ARC
  5
C8
330
1F
100
AcDbEntity
  8
0
  6
Continuous
 62
     8
370
    15
100
AcDbCircle
 10
44.9000103568
 20
42.9489504445
 30
0.0
 40
6.789466034465572
100
AcDbArc
 50
95.06996743
 51
180.0
  0
ARC
  5
C9
330
1F
100
AcDbEntity
  8
0
  6
Continuous
 62
     8
370
    15
100
AcDbCircle
 10
44.9000103568
 20
42.9489504445
 30
0.0
 40
6.789466034465572
100
AcDbArc
 50
180.0
 51
84.93003257
  0
POINT
  5
CA
330
1F
100
AcDbEntity
  8
0
  6
Continuous
 62
     9
370
    60
100
AcDbPoint
 10
38.5972345357
 20
78.4078351796
 30
0.0
  0
POINT
  5
CB
330
1F
100
AcDbEntity
  8
0
  6
Continuous
 62
     9
370
    60
100
AcDbPoint
 10
44.9000103568
 20
36.1594844101
 30
0.0
  0
POINT
  5
CC
330
1F
100
AcDbEntity
  8
0
  6
Continuous
 62
     9
370
    60
100
AcDbPoint
 10
53.6169380319
 20
58.4737878536
 30
0.0
  0
POINT
  5
CD
330
1F
100
AcDbEntity
  8
0
  6
Continuous
 62
     9
370
    60
100
AcDbPoint
 10
36.1830826816
 20
58.4737878536
 30
0.0
  0
DIMENSION
  5
CE
330
1F
100
AcDbEntity
  8
0
  6
Continuous
 62
     9
370
     0
100
AcDbDimension
  2
_D
 10
53.6169380319
 20
30.9489504445
 30
0.0
 11
45.0471380594
 21
30.9489504445
 31
0.0
 70
   160
  1
<>
 71
     2
 42
-1.0
  3
SLDDIMSTYLE0
100
AcDbAlignedDimension
 13
36.1830826816
 23
58.4737878536
 33
0.0
 14
53.6169380319
 24
58.4737878536
 34
0.0
100
AcDbRotatedDimension
  0
DIMENSION
  5
E6
330
1F
100
AcDbEntity
  8
0
  6
Continuous
 62
     9
370
     0
100
AcDbDimension
  2
_D_1
 10
26.4739316683
 20
36.1594844101
 30
0.0
 11
26.4739316683
 21
57.7059905838
 31
0.0
 70
   160
  1
<>
 71
     2
 42
-1.0
  3
SLDDIMSTYLE0
100
AcDbAlignedDimension
 13
38.5972345357
 23
78.4078351796
 33
0.0
 14
44.9000103568
 24
36.1594844101
 34
0.0
 50
90.0
100
AcDbRotatedDimension
  0
LWPOLYLINE
  5
FD
330
1F
100
AcDbEntity
  8
0
  6
Continuous
 62
     7
100
AcDbPolyline
 90
        9
 70
   128
 43
0.0
 10
82.1826520722
 20
78.1127237991
 10
82.1944435649
 20
78.1047333136
 10
82.2054213347
 20
78.0932778486
 10
82.2153075275
 20
78.0786473487
 10
82.223851918
 20
78.0612121207
 10
82.2308382426
 20
78.0414134604
 10
82.2360896733
 20
78.0197524838
 10
82.2394732933
 20
77.9967774429
 10
82.240903461
 20
77.9730698497
  0
LINE
  5
FE
330
1F
100
AcDbEntity
  8
0
  6
Continuous
 62
     7
100
AcDbLine
 10
84.8665237922
 20
53.2656245745
 30
0.0
 11
81.7665237922
 21
50.8436391323
 31
0.0
  0
LINE
  5
FF
330
1F
100
AcDbEntity
  8
0
  6
CENTERX2
 62
     7
100
AcDbLine
 10
73.2169805342
 20
44.1640038716
 30
0.0
 11
74.9896313112
 21
45.5489504445
 31
0.0
  0
LINE
  5
100
330
1F
100
AcDbEntity
  8
0
  6
Continuous
 62
     7
100
AcDbLine
 10
81.6073760255
 20
78.4066788174
 30
0.0
 11
82.1826520722
 21
78.1127237991
 31
0.0
  0
LINE
  5
101
330
1F
100
AcDbEntity
  8
0
  6
Continuous
 62
     7
100
AcDbLine
 10
82.2446132518
 20
77.7704799715
 30
0.0
 11
81.5666600025
 21
78.1169010695
 31
0.0
  0
LINE
  5
102
330
1F
100
AcDbEntity
  8
0
  6
Continuous
 62
     7
100
AcDbLine
 10
81.5666600025
 20
78.1169010695
 30
0.0
 11
81.6073760255
 21
78.4066788174
 31
0.0
  0
LINE
  5
103
330
1F
100
AcDbEntity
  8
0
  6
Continuous
 62
     7
100
AcDbLine
 10
82.2446132518
 20
77.7704799715
 30
0.0
 11
82.240903461
 21
77.9730698497
 31
0.0
  0
LINE
  5
104
330
1F
100
AcDbEntity
  8
0
  6
CENTERX2
 62
     7
100
AcDbLine
 10
82.1622940607
 20
77.9678349252
 30
0.0
 11
81.587018014
 21
78.2617899434
 31
0.0
  0
POINT
  5
105
330
1F
100
AcDbEntity
  8
0
  6
Continuous
 62
     7
100
AcDbPoint
 10
80.6035673119
 20
77.8773643832
 30
0.0
  0
ARC
  5
106
330
1F
100
AcDbEntity
  8
0
  6
Continuous
 62
     7
370
    15
100
AcDbCircle
 10
85.3665237922
 20
44.5156245745
 30
0.0
 40
0.0999999999999943
100
AcDbArc
 50
270.0
 51
0.0
  0
ARC
  5
107
330
1F
100
AcDbEntity
  8
0
  6
Continuous
 62
     7
370
    15
100
AcDbCircle
 10
84.3665237922
 20
44.5156245745
 30
0.0
 40
0.1000000000000085
100
AcDbArc
 50
180.0
 51
270.0
  0
LINE
  5
108
330
1F
100
AcDbEntity
  8
0
  6
Continuous
 62
     7
370
    15
100
AcDbLine
 10
85.4665237922
 20
44.5156245745
 30
0.0
 11
85.4665237922
 21
49.7656245745
 31
0.0
  0
LINE
  5
109
330
1F
100
AcDbEntity
  8
0
  6
Continuous
 62
     7
370
    15
100
AcDbLine
 10
84.2665237922
 20
49.7656245745
 30
0.0
 11
84.2665237922
 21
44.5156245745
 31
0.0
  0
LINE
  5
10A
330
1F
100
AcDbEntity
  8
0
  6
Continuous
 62
     7
370
    15
100
AcDbLine
 10
74.3796313112
 20
46.0265412131
 30
0.0
 11
74.3796313112
 21
46.0446440555
 31
0.0
  0
LINE
  5
10B
330
1F
100
AcDbEntity
  8
0
  6
Continuous
 62
     7
370
    15
100
AcDbLine
 10
74.3796313112
 20
46.0446440555
 30
0.0
 11
74.3496313112
 21
46.0746440555
 31
0.0
  0
LINE
  5
10C
330
1F
100
AcDbEntity
  8
0
  6
Continuous
 62
     7
370
    15
100
AcDbLine
 10
74.6818005735
 20
45.9429558213
 30
0.0
 11
74.7056362694
 21
45.8981273972
 31
0.0
  0
LINE
  5
10D
330
1F
100
AcDbEntity
  8
0
  6
Continuous
 62
     7
370
    15
100
AcDbLine
 10
75.2597315972
 20
45.1889177189
 30
0.0
 11
75.2974620488
 21
45.1549450677
 31
0.0
  0
SPLINE
  5
10E
330
1F
100
AcDbEntity
  8
0
  6
Continuous
 62
     7
370
    15
100
AcDbSpline
210
0.0
220
0.0
230
1.0
 70
     8
 71
     3
 72
    12
 73
     8
 74
     0
 42
0.00000001
 43
0.00000001
 12
1.0
 22
0.0
 32
0.0
 13
1.0
 23
0.0
 33
0.0
 40
0.0
 40
0.0
 40
0.0
 40
0.0
 40
0.2007829724577593
 40
0.4345958188850202
 40
0.7040550445227014
 40
0.8502468624436746
 40
1.0
 40
1.0
 40
1.0
 40
1.0
 10
76.14720422851656
 20
58.46225109496037
 30
0.0
 10
76.14542506282217
 20
58.44838789933448
 30
0.0
 10
76.14157404915093
 20
58.41838093817815
 30
0.0
 10
76.15589087610891
 20
58.36406900625539
 30
0.0
 10
76.18892961490076
 20
58.32116735599027
 30
0.0
 10
76.22856109893382
 20
58.29499467897708
 30
0.0
 10
76.2524506600841
 20
58.28822328469061
 30
0.0
 10
76.2645391808407
 20
58.28479684500559
 30
0.0
  0
SPLINE
  5
10F
330
1F
100
AcDbEntity
  8
0
  6
Continuous
 62
     7
370
    15
100
AcDbSpline
210
0.0
220
0.0
230
1.0
 70
     8
 71
     3
 72
    12
 73
     8
 74
     0
 42
0.00000001
 43
0.00000001
 12
1.0
 22
0.0
 32
0.0
 13
1.0
 23
0.0
 33
0.0
 40
0.0
 40
0.0
 40
0.0
 40
0.0
 40
0.1497531403234528
 40
0.2959449604835078
 40
0.5654041881506674
 40
0.7992170328562934
 40
1.0
 40
1.0
 40
1.0
 40
1.0
 10
93.46850840379327
 20
58.28479684491938
 30
0.0
 10
93.48059692449675
 20
58.2882232845863
 30
0.0
 10
93.50448648550474
 20
58.29499467882643
 30
0.0
 10
93.54411796926738
 20
58.32116735559511
 30
0.0
 10
93.57715670790559
 20
58.3640690053187
 30
0.0
 10
93.59147353519303
 20
58.41838093677686
 30
0.0
 10
93.58762252171576
 20
58.4483878981956
 30
0.0
 10
93.58584335612927
 20
58.46225109380023
 30
0.0
  0
SPLINE
  5
110
330
1F
100
AcDbEntity
  8
0
  6
Continuous
 62
     7
370
    15
100
AcDbSpline
210
0.0
220
0.0
230
1.0
 70
     8
 71
     3
 72
    11
 73
     7
 74
     0
 42
0.00000001
 43
0.00000001
 12
1.0
 22
0.0
 32
0.0
 13
1.0
 23
0.0
 33
0.0
 40
0.0
 40
0.0
 40
0.0
 40
0.0
 40
0.2947329521961229
 40
0.5732819907866331
 40
0.8122471854275394
 40
1.0
 40
1.0
 40
1.0
 40
1.0
 10
76.24500150269131
 20
58.29240934109221
 30
0.0
 10
76.24889365145724
 20
58.29012359826705
 30
0.0
 10
76.25646422942059
 20
58.28567762374173
 30
0.0
 10
76.3432569309608
 20
58.28288473509258
 30
0.0
 10
76.45397475319156
 20
58.28178517869722
 30
0.0
 10
76.54686472845567
 20
58.28170042673866
 30
0.0
 10
76.58773564068541
 20
58.28166313649448
 30
0.0
  0
SPLINE
  5
111
330
1F
100
AcDbEntity
  8
0
  6
Continuous
 62
     7
370
    15
100
AcDbSpline
210
0.0
220
0.0
230
1.0
 70
     8
 71
     3
 72
    12
 73
     8
 74
     0
 42
0.00000001
 43
0.00000001
 12
1.0
 22
0.0
 32
0.0
 13
1.0
 23
0.0
 33
0.0
 40
0.0
 40
0.0
 40
0.0
 40
0.0
 40
0.1043831793726532
 40
0.2921553700724571
 40
0.5039669531058866
 40
0.7399032357250448
 40
1.0
 40
1.0
 40
1.0
 40
1.0
 10
92.85547295772035
 20
58.28164927183285
 30
0.0
 10
92.89193870060089
 20
58.2816521219189
 30
0.0
 10
92.99400172138891
 20
58.28166009895072
 30
0.0
 10
93.1370043623459
 20
58.28170009163155
 30
0.0
 10
93.28264652134439
 20
58.28178861901703
 30
0.0
 10
93.39806734093602
 20
58.28194135512906
 30
0.0
 10
93.42960061409448
 20
58.28211506510195
 30
0.0
 10
93.44613520259996
 20
58.28220615056924
 30
0.0
  0
SPLINE
  5
112
330
1F
100
AcDbEntity
  8
0
  6
Continuous
 62
     7
370
    15
100
AcDbSpline
210
0.0
220
0.0
230
1.0
 70
     8
 71
     3
 72
    43
 73
    39
 74
     0
 42
0.00000001
 43
0.00000001
 12
1.0
 22
0.0
 32
0.0
 13
1.0
 23
0.0
 33
0.0
 40
0.0
 40
0.0
 40
0.0
 40
0.0
 40
0.0298148969742674
 40
0.0559390861609046
 40
0.0783808752265717
 40
0.0971511274054929
 40
0.1122534392182769
 40
0.1257461177691368
 40
0.1394280871094249
 40
0.1532984279042713
 40
0.191028664382297
 40
0.2289405641923759
 40
0.2668601068854156
 40
0.3047739925847412
 40
0.3426827136572679
 40
0.3806011359681949
 40
0.4185180137910364
 40
0.456425909142099
 40
0.4943418412450207
 40
0.5322608166890639
 40
0.5701703892012606
 40
0.6080830833674837
 40
0.6460026782314859
 40
0.6839158218481246
 40
0.721825047211343
 40
0.7502709592384628
 40
0.778717691883008
 40
0.8071025364900444
 40
0.8340495959608946
 40
0.8467691777816228
 40
0.8589918584549519
 40
0.8732285625067722
 40
0.8914806865620241
 40
0.9089801771659057
 40
0.9290618804480908
 40
0.9517345521165802
 40
0.9770150211277725
 40
1.0
 40
1.0
 40
1.0
 40
1.0
 10
76.28691238206491
 20
58.28220615054654
 30
0.0
 10
76.30557360138067
 20
58.28207661784286
 30
0.0
 10
76.34058601668677
 20
58.28183358694866
 30
0.0
 10
76.46711104320968
 20
58.28169195355487
 30
0.0
 10
76.61619115486661
 20
58.28164229025905
 30
0.0
 10
76.77220165902791
 20
58.2816393204322
 30
0.0
 10
76.92341207281245
 20
58.28164188928442
 30
0.0
 10
77.0735187360415
 20
58.28164131869986
 30
0.0
 10
77.23358582295556
 20
58.28164146713905
 30
0.0
 10
77.51044381152293
 20
58.28164141206062
 30
0.0
 10
77.9465073464796
 20
58.2816414486942
 30
0.0
 10
78.59656790432811
 20
58.28164143378035
 30
0.0
 10
79.33574833795046
 20
58.28164143629232
 30
0.0
 10
80.15262478588396
 20
58.28164143838561
 30
0.0
 10
81.03576666023713
 20
58.28164143715816
 30
0.0
 10
81.97269753917253
 20
58.28164143529926
 30
0.0
 10
82.95033911455133
 20
58.28164143737909
 30
0.0
 10
83.95485283775082
 20
58.28164143749731
 30
0.0
 10
84.97220565095837
 20
58.28164143555215
 30
0.0
 10
85.98807912724865
 20
58.2816414364061
 30
0.0
 10
86.98818448167552
 20
58.28164143727119
 30
0.0
 10
87.95845793698444
 20
58.28164143590251
 30
0.0
 10
88.88533124192281
 20
58.2816414362259
 30
0.0
 10
89.75571124842638
 20
58.28164143569678
 30
0.0
 10
90.49062825321197
 20
58.28164143908536
 30
0.0
 10
91.1003626329319
 20
58.28164142799914
 30
0.0
 10
91.5995066125057
 20
58.28164146604448
 30
0.0
 10
92.03776185692043
 20
58.28164132649392
 30
0.0
 10
92.34959490032084
 20
58.28164173554899
 30
0.0
 10
92.56214466303483
 20
58.2816409555309
 30
0.0
 10
92.70995257049599
 20
58.28164331314382
 30
0.0
 10
92.86575656051193
 20
58.28163191731237
 30
0.0
 10
93.02135344494367
 20
58.28171514159853
 30
0.0
 10
93.16995868762862
 20
58.28211570331837
 30
0.0
 10
93.30141231237819
 20
58.2830239597234
 30
0.0
 10
93.40968809609645
 20
58.2848505248878
 30
0.0
 10
93.48189973720145
 20
58.28764787605135
 30
0.0
 10
93.48527088385966
 20
58.29062947676844
 30
0.0
 10
93.48687629182977
 20
58.29204937511173
 30
0.0
  0
ARC
  5
113
330
1F
100
AcDbEntity
  8
0
  6
Continuous
 62
     7
370
    15
100
AcDbCircle
 10
-33.4958539261
 20
81.3183776908
 30
0.0
 40
112.0
100
AcDbArc
 50
348.2258826999
 51
358.4384414049
  0
ARC
  5
114
330
1F
100
AcDbEntity
  8
0
  6
Continuous
 62
     7
370
    15
100
AcDbCircle
 10
203.2289015105
 20
81.3183776908
 30
0.0
 40
112.0
100
AcDbArc
 50
181.5615881035
 51
191.7741508625
  0
SPLINE
  5
115
330
1F
100
AcDbEntity
  8
0
  6
Continuous
 62
     7
370
    15
100
AcDbSpline
210
0.0
220
0.0
230
1.0
 70
     8
 71
     3
 72
    11
 73
     7
 74
     0
 42
0.00000001
 43
0.00000001
 12
1.0
 22
0.0
 32
0.0
 13
1.0
 23
0.0
 33
0.0
 40
0.0
 40
0.0
 40
0.0
 40
0.0
 40
0.19907098696548
 40
0.4311236748381707
 40
0.6997299506174707
 40
0.9999999999999999
 40
0.9999999999999999
 40
0.9999999999999999
 40
0.9999999999999999
 10
91.27013967322523
 20
78.26587811128312
 30
0.0
 10
91.26901803362604
 20
78.27771530798228
 30
0.0
 10
91.26658892332114
 20
78.30335086552142
 30
0.0
 10
91.24791816641526
 20
78.34469257754064
 30
0.0
 10
91.21225101821705
 20
78.38572210249143
 30
0.0
 10
91.17597937850903
 20
78.39969760350323
 30
0.0
 10
91.156834115181
 20
78.40707429364369
 30
0.0
  0
SPLINE
  5
116
330
1F
100
AcDbEntity
  8
0
  6
Continuous
 62
     7
370
    15
100
AcDbSpline
210
0.0
220
0.0
230
1.0
 70
     8
 71
     3
 72
    41
 73
    37
 74
     0
 42
0.00000001
 43
0.00000001
 12
1.0
 22
0.0
 32
0.0
 13
1.0
 23
0.0
 33
0.0
 40
0.0
 40
0.0
 40
0.0
 40
0.0
 40
0.0296968472002889
 40
0.0557955751170454
 40
0.0781779812642509
 40
0.0968751894901277
 40
0.111908813748462
 40
0.1253378460314185
 40
0.1389552826889398
 40
0.1527604020688134
 40
0.1903130773258439
 40
0.2280465027911465
 40
0.2657876299269248
 40
0.3035230592737417
 40
0.3412533830755251
 40
0.378993372505926
 40
0.4167318897566587
 40
0.4544613691499189
 40
0.4921989256641401
 40
0.5299394641972605
 40
0.5676706404962885
 40
0.6054048538823125
 40
0.6431460362321142
 40
0.6808807048806514
 40
0.7186115355879538
 40
0.7563518898673302
 40
0.7940898151945228
 40
0.8302802870046838
 40
0.8429400666701852
 40
0.8551053512842254
 40
0.8692736366191446
 40
0.8874319154179614
 40
0.9095803395168879
 40
0.9357185198356854
 40
0.9658541925759289
 40
1.0
 40
1.0
 40
1.0
 40
1.0
 10
91.18185398090073
 20
78.3964497478642
 30
0.0
 10
91.17814718748023
 20
78.39902228757254
 30
0.0
 10
91.17118272188084
 20
78.40385567380952
 30
0.0
 10
91.10485362026964
 20
78.40782482919005
 30
0.0
 10
91.01899530791272
 20
78.4098982536577
 30
0.0
 10
90.92545422133442
 20
78.41078348783188
 30
0.0
 10
90.83485237151746
 20
78.41098690724945
 30
0.0
 10
90.74442149443756
 20
78.4109418151016
 30
0.0
 10
90.64550853880384
 20
78.41095353615668
 30
0.0
 10
90.47159369337365
 20
78.41094908748703
 30
0.0
 10
90.1902174769538
 20
78.4109518078252
 30
0.0
 10
89.75797155840787
 20
78.41095087636351
 30
0.0
 10
89.25670621546244
 20
78.41095112852037
 30
0.0
 10
88.69419300507326
 20
78.41095106301465
 30
0.0
 10
88.07730483405676
 20
78.4109510805272
 30
0.0
 10
87.41536027492528
 20
78.41095107099326
 30
0.0
 10
86.71792674303983
 20
78.41095107489646
 30
0.0
 10
85.9942902799546
 20
78.41095107984347
 30
0.0
 10
85.25475192863968
 20
78.41095107173238
 30
0.0
 10
84.50984357482722
 20
78.41095107017873
 30
0.0
 10
83.7698531010538
 20
78.41095108092325
 30
0.0
 10
83.04546937770084
 20
78.4109510760963
 30
0.0
 10
82.34657679724336
 20
78.41095106269837
 30
0.0
 10
81.68278147516274
 20
78.41095108975209
 30
0.0
 10
81.06420825018789
 20
78.41095104290218
 30
0.0
 10
80.49905656253755
 20
78.41095120419033
 30
0.0
 10
80.00156791472122
 20
78.41095055209442
 30
0.0
 10
79.66729935942105
 20
78.41095243284808
 30
0.0
 10
79.45803454301604
 20
78.41094952154758
 30
0.0
 10
79.3329543681064
 20
78.4109572117692
 30
0.0
 10
79.20044874318764
 20
78.41091964975627
 30
0.0
 10
79.05400735148856
 20
78.41081388337656
 30
0.0
 10
78.9002332422045
 20
78.41063636510434
 30
0.0
 10
78.75631969217739
 20
78.41036435588866
 30
0.0
 10
78.63750840200753
 20
78.40998241748927
 30
0.0
 10
78.60701922219633
 20
78.40963477571239
 30
0.0
 10
78.59082361407266
 20
78.40945011118481
 30
0.0
  0
SPLINE
  5
117
330
1F
100
AcDbEntity
  8
0
  6
Continuous
 62
     7
370
    15
100
AcDbSpline
210
0.0
220
0.0
230
1.0
 70
     8
 71
     3
 72
    10
 73
     6
 74
     0
 42
0.00000001
 43
0.00000001
 12
1.0
 22
0.0
 32
0.0
 13
1.0
 23
0.0
 33
0.0
 40
0.0
 40
0.0
 40
0.0
 40
0.0
 40
0.411916711395714
 40
0.7728323846690927
 40
1.0
 40
1.0
 40
1.0
 40
1.0
 10
91.14222396849487
 20
78.4094501141942
 30
0.0
 10
91.12827328892341
 20
78.40967013155758
 30
0.0
 10
91.10209921862548
 20
78.41008292506389
 30
0.0
 10
91.0200274776499
 20
78.41047593499131
 30
0.0
 10
90.94760641336744
 20
78.41063350095887
 30
0.0
 10
90.91963125952176
 20
78.41069436629171
 30
0.0
  0
SPLINE
  5
118
330
1F
100
AcDbEntity
  8
0
  6
Continuous
 62
     7
370
    15
100
AcDbSpline
210
0.0
220
0.0
230
1.0
 70
     8
 71
     3
 72
    11
 73
     7
 74
     0
 42
0.00000001
 43
0.00000001
 12
1.0
 22
0.0
 32
0.0
 13
1.0
 23
0.0
 33
0.0
 40
0.0
 40
0.0
 40
0.0
 40
0.0
 40
0.3002700503840479
 40
0.5688763266546039
 40
0.8009290140802943
 40
1.0
 40
1.0
 40
1.0
 40
1.0
 10
78.57621346723688
 20
78.40707429032855
 30
0.0
 10
78.55706820307145
 20
78.3996975993247
 30
0.0
 10
78.52079656180274
 20
78.3857220966871
 30
0.0
 10
78.48512941399018
 20
78.34469256825787
 30
0.0
 10
78.46645865875314
 20
78.3033508539756
 30
0.0
 10
78.46402954981095
 20
78.27771529588661
 30
0.0
 10
78.46290791084299
 20
78.26587809895473
 30
0.0
  0
LINE
  5
119
330
1F
100
AcDbEntity
  8
0
  6
Continuous
 62
     7
370
    15
100
AcDbLine
 10
85.4665237922
 20
55.2656245745
 30
0.0
 11
85.4665237922
 21
58.2816414362
 31
0.0
  0
LINE
  5
11A
330
1F
100
AcDbEntity
  8
0
  6
Continuous
 62
     7
370
    15
100
AcDbLine
 10
84.2665237922
 20
58.2816414368
 30
0.0
 11
84.2665237922
 21
55.2656245745
 31
0.0
  0
LINE
  5
11B
330
1F
100
AcDbEntity
  8
0
  6
Continuous
 62
     7
370
    15
100
AcDbLine
 10
75.3590281964
 20
45.0761439924
 30
0.0
 11
82.1359206774
 21
50.3708326802
 31
0.0
  0
LINE
  5
11C
330
1F
100
AcDbEntity
  8
0
  6
Continuous
 62
     7
370
    15
100
AcDbLine
 10
81.397126907
 20
51.3164455845
 30
0.0
 11
74.620234426
 21
46.0217568967
 31
0.0
  0
LINE
  5
11D
330
1F
100
AcDbEntity
  8
0
  6
Continuous
 62
     7
370
    15
100
AcDbLine
 10
70.7396313112
 20
48.9843713954
 30
0.0
 11
70.7253693265
 21
48.9701094106
 31
0.0
  0
LINE
  5
11E
330
1F
100
AcDbEntity
  8
0
  6
Continuous
 62
     7
370
    15
100
AcDbLine
 10
70.7556313112
 20
49.0043713954
 30
0.0
 11
70.7556313112
 21
48.9843713954
 31
0.0
  0
LINE
  5
11F
330
1F
100
AcDbEntity
  8
0
  6
Continuous
 62
     7
370
    15
100
AcDbLine
 10
71.5236313112
 20
48.9843713954
 30
0.0
 11
71.5236313112
 21
49.0043713954
 31
0.0
  0
LINE
  5
120
330
1F
100
AcDbEntity
  8
0
  6
Continuous
 62
     7
370
    15
100
AcDbLine
 10
85.4665237922
 20
49.7656245745
 30
0.0
 11
85.4665237922
 21
55.2656245745
 31
0.0
  0
LINE
  5
121
330
1F
100
AcDbEntity
  8
0
  6
Continuous
 62
     7
370
    15
100
AcDbLine
 10
84.2665237922
 20
49.985138428
 30
0.0
 11
84.2665237922
 21
49.7656245745
 31
0.0
  0
LINE
  5
122
330
1F
100
AcDbEntity
  8
0
  6
Continuous
 62
     7
370
    15
100
AcDbLine
 10
84.2665237922
 20
55.2656245745
 30
0.0
 11
84.2665237922
 21
55.0214618933
 31
0.0
  0
ARC
  5
123
330
1F
100
AcDbEntity
  8
0
  6
Continuous
 62
     7
370
    15
100
AcDbCircle
 10
81.2665237922
 20
55.0214618933
 30
0.0
 40
3.000000000001718
100
AcDbArc
 50
308.0
 51
0.0
  0
ARC
  5
124
330
1F
100
AcDbEntity
  8
0
  6
Continuous
 62
     7
370
    15
100
AcDbCircle
 10
83.2665237922
 20
49.985138428
 30
0.0
 40
1.000000000001508
100
AcDbArc
 50
0.0
 51
128.0
  0
LINE
  5
125
330
1F
100
AcDbEntity
  8
0
  6
Continuous
 62
     7
370
    15
100
AcDbLine
 10
83.1135082182
 20
52.6574296325
 30
0.0
 11
81.397126907
 21
51.3164455845
 31
0.0
  0
LINE
  5
126
330
1F
100
AcDbEntity
  8
0
  6
Continuous
 62
     7
370
    15
100
AcDbLine
 10
82.1359206774
 20
50.3708326802
 30
0.0
 11
82.6508623169
 21
50.7731491816
 31
0.0
  0
LINE
  5
127
330
1F
100
AcDbEntity
  8
0
  6
Continuous
 62
     7
370
    15
100
AcDbLine
 10
71.7396313112
 20
36.1489504445
 30
0.0
 11
72.3431217925
 21
36.1594844101
 31
0.0
  0
LINE
  5
128
330
1F
100
AcDbEntity
  8
0
  6
Continuous
 62
     7
370
    15
100
AcDbLine
 10
72.3431217925
 20
49.738416479
 30
0.0
 11
71.7396313112
 21
49.7489504445
 31
0.0
  0
ARC
  5
129
330
1F
100
AcDbEntity
  8
0
  6
Continuous
 62
     7
370
    15
100
AcDbCircle
 10
72.3396313112
 20
49.53844694
 30
0.0
 40
0.2000000000000083
100
AcDbArc
 50
0.0
 51
89.0
  0
ARC
  5
12A
330
1F
100
AcDbEntity
  8
0
  6
Continuous
 62
     7
370
    15
100
AcDbCircle
 10
72.3396313112
 20
36.3594539491
 30
0.0
 40
0.2000000000000012
100
AcDbArc
 50
271.0
 51
0.0
  0
LINE
  5
12B
330
1F
100
AcDbEntity
  8
0
  6
Continuous
 62
     7
370
    15
100
AcDbLine
 10
70.6823723258
 20
48.9723880761
 30
0.0
 11
69.3396313112
 21
48.9489504445
 31
0.0
  0
LINE
  5
12C
330
1F
100
AcDbEntity
  8
0
  6
Continuous
 62
     7
370
    15
100
AcDbLine
 10
71.7396313112
 20
48.9908426004
 30
0.0
 11
71.6143136969
 21
48.9886551733
 31
0.0
  0
LINE
  5
12D
330
1F
100
AcDbEntity
  8
0
  6
Continuous
 62
     7
370
    15
100
AcDbLine
 10
71.6143536851
 20
36.9092450178
 30
0.0
 11
71.7396313112
 21
36.9070582887
 31
0.0
  0
LINE
  5
12E
330
1F
100
AcDbEntity
  8
0
  6
Continuous
 62
     7
370
    15
100
AcDbLine
 10
69.3396313112
 20
36.9489504445
 30
0.0
 11
70.6811822515
 21
36.9255335858
 31
0.0
  0
ARC
  5
12F
330
1F
100
AcDbEntity
  8
0
  6
Continuous
 62
     7
370
    15
100
AcDbCircle
 10
74.5396310819
 20
41.5788897191
 30
0.0
 40
1.999999770779452
100
AcDbArc
 50
132.964810122
 51
179.8518056152
  0
ARC
  5
130
330
1F
100
AcDbEntity
  8
0
  6
Continuous
 62
     7
370
    15
100
AcDbCircle
 10
74.5396285268
 20
48.0201286903
 30
0.0
 40
1.999997215609764
100
AcDbArc
 50
180.0016549914
 51
255.2627939083
  0
SPLINE
  5
131
330
1F
100
AcDbEntity
  8
0
  6
Continuous
 62
     7
370
    15
100
AcDbSpline
210
0.0
220
0.0
230
1.0
 70
     8
 71
     3
 72
     9
 73
     5
 74
     0
 42
0.00000001
 43
0.00000001
 12
1.0
 22
0.0
 32
0.0
 13
1.0
 23
0.0
 33
0.0
 40
0.0
 40
0.0
 40
0.0
 40
0.0
 40
0.4966060941454216
 40
1.0
 40
1.0
 40
1.0
 40
1.0
 10
73.17672408519368
 20
43.04261232603588
 30
0.0
 10
73.53797235144339
 20
43.37923403621577
 30
0.0
 10
74.26540657045223
 20
44.0570785374178
 30
0.0
 10
74.99284185511819
 20
44.73492169057629
 30
0.0
 10
75.35902834432264
 20
45.07614380300153
 30
0.0
  0
LINE
  5
132
330
1F
100
AcDbEntity
  8
0
  6
Continuous
 62
     7
370
    15
100
AcDbLine
 10
85.366523732
 20
44.4156245745
 30
0.0
 11
84.3665237922
 21
44.4156245745
 31
0.0
  0
LINE
  5
133
330
1F
100
AcDbEntity
  8
0
  6
Continuous
 62
     7
370
    15
100
AcDbLine
 10
85.4665237922
 20
49.7656245745
 30
0.0
 11
84.2665237922
 21
49.7656245745
 31
0.0
  0
LINE
  5
134
330
1F
100
AcDbEntity
  8
0
  6
Continuous
 62
     7
370
    15
100
AcDbLine
 10
74.3796313112
 20
46.0446440555
 30
0.0
 11
74.1161137907
 21
46.0446440555
 31
0.0
  0
LINE
  5
135
330
1F
100
AcDbEntity
  8
0
  6
Continuous
 62
     7
370
    15
100
AcDbLine
 10
74.0296313112
 20
46.0746440555
 30
0.0
 11
74.3496313112
 21
46.0746440555
 31
0.0
  0
LINE
  5
136
330
1F
100
AcDbEntity
  8
0
  6
Continuous
 62
     7
370
    15
100
AcDbLine
 10
75.2597315972
 20
45.1889177189
 30
0.0
 11
74.7056362694
 21
45.8981273972
 31
0.0
  0
LINE
  5
137
330
1F
100
AcDbEntity
  8
0
  6
Continuous
 62
     7
370
    15
100
AcDbLine
 10
85.4665237922
 20
55.2656245745
 30
0.0
 11
84.2665237922
 21
55.2656245745
 31
0.0
  0
LINE
  5
138
330
1F
100
AcDbEntity
  8
0
  6
Continuous
 62
     7
370
    15
100
AcDbLine
 10
82.1359206774
 20
50.3708326802
 30
0.0
 11
81.397126907
 21
51.3164455845
 31
0.0
  0
LINE
  5
139
330
1F
100
AcDbEntity
  8
0
  6
Continuous
 62
     7
370
    15
100
AcDbLine
 10
75.3590281964
 20
45.0761439924
 30
0.0
 11
74.620234426
 21
46.0217568967
 31
0.0
  0
LINE
  5
13A
330
1F
100
AcDbEntity
  8
0
  6
Continuous
 62
     7
370
    15
100
AcDbLine
 10
71.1415764028
 20
48.9843713954
 30
0.0
 11
71.1723923338
 21
48.9642713379
 31
0.0
  0
LINE
  5
13B
330
1F
100
AcDbEntity
  8
0
  6
Continuous
 62
     7
370
    15
100
AcDbLine
 10
70.9906192531
 20
48.9843713954
 30
0.0
 11
71.1415764028
 21
48.9843713954
 31
0.0
  0
LINE
  5
13C
330
1F
100
AcDbEntity
  8
0
  6
Continuous
 62
     7
370
    15
100
AcDbLine
 10
70.9554665333
 20
48.9843713954
 30
0.0
 11
70.9770064977
 21
48.9732909344
 31
0.0
  0
LINE
  5
13D
330
1F
100
AcDbEntity
  8
0
  6
Continuous
 62
     7
370
    15
100
AcDbLine
 10
70.8351787101
 20
48.9843713954
 30
0.0
 11
70.9554665333
 21
48.9843713954
 31
0.0
  0
LINE
  5
13E
330
1F
100
AcDbEntity
  8
0
  6
Continuous
 62
     7
370
    15
100
AcDbLine
 10
70.749484589
 20
48.9843713954
 30
0.0
 11
70.8115465949
 21
48.9843713954
 31
0.0
  0
LINE
  5
13F
330
1F
100
AcDbEntity
  8
0
  6
Continuous
 62
     7
370
    15
100
AcDbLine
 10
70.7396313112
 20
48.9843713954
 30
0.0
 11
70.7427869112
 21
48.9843713954
 31
0.0
  0
LINE
  5
140
330
1F
100
AcDbEntity
  8
0
  6
Continuous
 62
     7
370
    15
100
AcDbLine
 10
71.539557259
 20
48.9843713954
 30
0.0
 11
71.5369446209
 21
48.9843713954
 31
0.0
  0
LINE
  5
141
330
1F
100
AcDbEntity
  8
0
  6
Continuous
 62
     7
370
    15
100
AcDbLine
 10
71.4901714046
 20
48.9843713954
 30
0.0
 11
71.5369446209
 21
48.9843713954
 31
0.0
  0
LINE
  5
142
330
1F
100
AcDbEntity
  8
0
  6
Continuous
 62
     7
370
    15
100
AcDbLine
 10
71.3604810393
 20
48.9843713954
 30
0.0
 11
71.4699259034
 21
48.9843713954
 31
0.0
  0
LINE
  5
143
330
1F
100
AcDbEntity
  8
0
  6
Continuous
 62
     7
370
    15
100
AcDbLine
 10
71.3272406753
 20
48.9843713954
 30
0.0
 11
71.3378447065
 21
48.9706190898
 31
0.0
  0
LINE
  5
144
330
1F
100
AcDbEntity
  8
0
  6
Continuous
 62
     7
370
    15
100
AcDbLine
 10
71.1801966628
 20
48.9843713954
 30
0.0
 11
71.3272406753
 21
48.9843713954
 31
0.0
  0
LINE
  5
145
330
1F
100
AcDbEntity
  8
0
  6
Continuous
 62
     7
370
    15
100
AcDbLine
 10
71.1801966628
 20
48.9843713954
 30
0.0
 11
71.1632438437
 21
48.9640467113
 31
0.0
  0
LINE
  5
146
330
1F
100
AcDbEntity
  8
0
  6
Continuous
 62
     7
370
    15
100
AcDbLine
 10
71.3182936002
 20
48.9689724764
 30
0.0
 11
71.3272406753
 21
48.9843713954
 31
0.0
  0
LINE
  5
147
330
1F
100
AcDbEntity
  8
0
  6
Continuous
 62
     7
370
    15
100
AcDbLine
 10
70.9906192531
 20
48.9843713954
 30
0.0
 11
70.9645624256
 21
48.9631617541
 31
0.0
  0
LINE
  5
148
330
1F
100
AcDbEntity
  8
0
  6
Continuous
 62
     7
370
    15
100
AcDbLine
 10
71.1173088385
 20
48.9633649375
 30
0.0
 11
71.1415764028
 21
48.9843713954
 31
0.0
  0
SPLINE
  5
149
330
1F
100
AcDbEntity
  8
0
  6
Continuous
 62
     7
370
    15
100
AcDbSpline
210
0.0
220
0.0
230
1.0
 70
     8
 71
     3
 72
     9
 73
     5
 74
     0
 42
0.00000001
 43
0.00000001
 12
1.0
 22
0.0
 32
0.0
 13
1.0
 23
0.0
 33
0.0
 40
0.0
 40
0.0
 40
0.0
 40
0.0
 40
0.6220343928423964
 40
1.0
 40
1.0
 40
1.0
 40
1.0
 10
70.92488761453495
 20
48.96367107059763
 30
0.0
 10
70.93115584971255
 20
48.96807511309981
 30
0.0
 10
70.94123284103283
 20
48.9751551757987
 30
0.0
 10
70.95156233849423
 20
48.98184345561312
 30
0.0
 10
70.95546653327385
 20
48.98437139535402
 30
0.0
  0
LINE
  5
14A
330
1F
100
AcDbEntity
  8
0
  6
Continuous
 62
     7
370
    15
100
AcDbLine
 10
71.3604810393
 20
48.9843713954
 30
0.0
 11
71.3571211038
 21
48.9708549243
 31
0.0
  0
LINE
  5
14B
330
1F
100
AcDbEntity
  8
0
  6
Continuous
 62
     7
370
    15
100
AcDbLine
 10
70.8351787101
 20
48.9843713954
 30
0.0
 11
70.8113224145
 21
48.9665885052
 31
0.0
  0
LINE
  5
14C
330
1F
100
AcDbEntity
  8
0
  6
Continuous
 62
     7
370
    15
100
AcDbLine
 10
70.7871952381
 20
48.9674467913
 30
0.0
 11
70.8115465949
 21
48.9843713954
 31
0.0
  0
LINE
  5
14D
330
1F
100
AcDbEntity
  8
0
  6
Continuous
 62
     7
370
    15
100
AcDbLine
 10
70.749484589
 20
48.9843713954
 30
0.0
 11
70.7327271409
 21
48.9697640876
 31
0.0
  0
LINE
  5
14E
330
1F
100
AcDbEntity
  8
0
  6
Continuous
 62
     7
370
    15
100
AcDbLine
 10
70.9419155102
 20
48.9683713954
 30
0.0
 11
70.9676949324
 21
48.9683713954
 31
0.0
  0
LINE
  5
14F
330
1F
100
AcDbEntity
  8
0
  6
Continuous
 62
     7
370
    15
100
AcDbLine
 10
71.1503730481
 20
48.9683713954
 30
0.0
 11
71.1669624693
 21
48.9683713954
 31
0.0
  0
LINE
  5
150
330
1F
100
AcDbEntity
  8
0
  6
Continuous
 62
     7
370
    15
100
AcDbLine
 10
70.7556313112
 20
49.0043713954
 30
0.0
 11
71.5236313112
 21
49.0043713954
 31
0.0
  0
ARC
  5
151
330
1F
100
AcDbEntity
  8
0
  6
Continuous
 62
     7
370
    15
100
AcDbCircle
 10
83.2665237922
 20
49.985138428
 30
0.0
 40
1.600000000001515
100
AcDbArc
 50
0.0
 51
128.0
  0
LINE
  5
152
330
1F
100
AcDbEntity
  8
0
  6
Continuous
 62
     7
370
    15
100
AcDbLine
 10
83.4829051034
 20
52.1846231804
 30
0.0
 11
82.2814654317
 21
51.2459556337
 31
0.0
  0
ARC
  5
153
330
1F
100
AcDbEntity
  8
0
  6
Continuous
 62
     7
370
    15
100
AcDbCircle
 10
81.2665237922
 20
55.0214618933
 30
0.0
 40
3.600000000001714
100
AcDbArc
 50
308.0
 51
0.0
  0
LINE
  5
154
330
1F
100
AcDbEntity
  8
0
  6
Continuous
 62
     7
370
    15
100
AcDbLine
 10
84.8665237922
 20
49.985138428
 30
0.0
 11
84.8665237922
 21
55.0214618933
 31
0.0
  0
LINE
  5
155
330
1F
100
AcDbEntity
  8
0
  6
Continuous
 62
     7
370
    15
100
AcDbLine
 10
71.7396313112
 20
49.7489504445
 30
0.0
 11
71.7396313112
 21
36.1489504445
 31
0.0
  0
LINE
  5
156
330
1F
100
AcDbEntity
  8
0
  6
Continuous
 62
     7
370
    15
100
AcDbLine
 10
72.5396313112
 20
49.53844694
 30
0.0
 11
72.5396313112
 21
36.3594539491
 31
0.0
  0
LINE
  5
157
330
1F
100
AcDbEntity
  8
0
  6
Continuous
 62
     7
370
    15
100
AcDbLine
 10
69.3396313112
 20
42.9489504445
 30
0.0
 11
69.3396313112
 21
48.9489504445
 31
0.0
  0
LINE
  5
158
330
1F
100
AcDbEntity
  8
0
  6
Continuous
 62
     7
370
    15
100
AcDbLine
 10
69.3396313112
 20
36.9489504445
 30
0.0
 11
69.3396313112
 21
42.9489504445
 31
0.0
  0
SPLINE
  5
159
330
1F
100
AcDbEntity
  8
0
  6
Continuous
 62
     7
370
    15
100
AcDbSpline
210
0.0
220
0.0
230
1.0
 70
     8
 71
     3
 72
    21
 73
    17
 74
     0
 42
0.00000001
 43
0.00000001
 12
1.0
 22
0.0
 32
0.0
 13
1.0
 23
0.0
 33
0.0
 40
0.0
 40
0.0
 40
0.0
 40
0.0
 40
0.0657551462518617
 40
0.1328526478524062
 40
0.2107744763993634
 40
0.2908784271948858
 40
0.3701603058359001
 40
0.4517292578109683
 40
0.5311441340749185
 40
0.6129435489907689
 40
0.6908673184725503
 40
0.7712154880787643
 40
0.84634186144973
 40
0.9238161974224336
 40
0.9961690743489242
 40
1.0
 40
1.0
 40
1.0
 40
1.0
 10
70.87708980997091
 20
48.96462317119579
 30
0.0
 10
70.89581282488243
 20
48.96421232592758
 30
0.0
 10
70.93364107481507
 20
48.96338224820971
 30
0.0
 10
70.99962815286081
 20
48.96268262370338
 30
0.0
 10
71.07332049817994
 20
48.96266378747038
 30
0.0
 10
71.15316060667062
 20
48.96363312578175
 30
0.0
 10
71.2340017163734
 20
48.96562594514992
 30
0.0
 10
71.31221282200285
 20
48.96852677979783
 30
0.0
 10
71.3864827817864
 20
48.9721604688103
 30
0.0
 10
71.45280493252555
 20
48.97613150206175
 30
0.0
 10
71.51046192537912
 20
48.98013377645917
 30
0.0
 10
71.55596998037093
 20
48.98365516859469
 30
0.0
 10
71.58991032464152
 20
48.98648751715464
 30
0.0
 10
71.6087406770441
 20
48.9881344280594
 30
0.0
 10
71.6165082257429
 20
48.98882713559316
 30
0.0
 10
71.61441914140023
 20
48.98864190246073
 30
0.0
 10
71.61431409115956
 20
48.9886325879564
 30
0.0
  0
SPLINE
  5
15A
330
1F
100
AcDbEntity
  8
0
  6
Continuous
 62
     7
370
    15
100
AcDbSpline
210
0.0
220
0.0
230
1.0
 70
     8
 71
     3
 72
    14
 73
    10
 74
     0
 42
0.00000001
 43
0.00000001
 12
1.0
 22
0.0
 32
0.0
 13
1.0
 23
0.0
 33
0.0
 40
0.0
 40
0.0
 40
0.0
 40
0.0
 40
0.0559500227483757
 40
0.2227782132193912
 40
0.3944204799622711
 40
0.5618931252704807
 40
0.7339911010313326
 40
0.8659528759956463
 40
1.0
 40
1.0
 40
1.0
 40
1.0
 10
70.68237413678472
 20
48.97228432656669
 30
0.0
 10
70.68196452805404
 20
48.97230658704139
 30
0.0
 10
70.68033357427323
 20
48.9723952223723
 30
0.0
 10
70.69030527130344
 20
48.9718513496889
 30
0.0
 10
70.7117324714983
 20
48.97073701013976
 30
0.0
 10
70.74564143146486
 20
48.96911406975557
 30
0.0
 10
70.78632436618413
 20
48.96742472522011
 30
0.0
 10
70.83070575866864
 20
48.96585347933347
 30
0.0
 10
70.86154786504397
 20
48.96503541162719
 30
0.0
 10
70.87708980997091
 20
48.96462317119579
 30
0.0
  0
SPLINE
  5
15B
330
1F
100
AcDbEntity
  8
0
  6
Continuous
 62
     7
370
    15
100
AcDbSpline
210
0.0
220
0.0
230
1.0
 70
     8
 71
     3
 72
    16
 73
    12
 74
     0
 42
0.00000001
 43
0.00000001
 12
1.0
 22
0.0
 32
0.0
 13
1.0
 23
0.0
 33
0.0
 40
0.0
 40
0.0
 40
0.0
 40
0.0
 40
0.0764155235032581
 40
0.2311574152558997
 40
0.3096246520853036
 40
0.3977585690471816
 40
0.5771960438519369
 40
0.6687561383998433
 40
0.7540565942041361
 40
0.9276913116035046
 40
1.0
 40
1.0
 40
1.0
 40
1.0
 10
70.87708980997091
 20
36.93327771785153
 30
0.0
 10
70.86814256706575
 20
36.93304847486303
 30
0.0
 10
70.8410771038089
 20
36.93235501345283
 30
0.0
 10
70.80828281431425
 20
36.93126697878789
 30
0.0
 10
70.77785513505843
 20
36.93011674497863
 30
0.0
 10
70.74820591731691
 20
36.92888865784042
 30
0.0
 10
70.72292627342527
 20
36.92770757791972
 30
0.0
 10
70.70411111225006
 20
36.92676506549215
 30
0.0
 10
70.68987269091086
 20
36.92602494822246
 30
0.0
 10
70.68175710833826
 20
36.92558310233893
 30
0.0
 10
70.68131310808323
 20
36.92555891877335
 30
0.0
 10
70.68118256961246
 20
36.92555180867457
 30
0.0
  0
SPLINE
  5
15C
330
1F
100
AcDbEntity
  8
0
  6
Continuous
 62
     7
370
    15
100
AcDbSpline
210
0.0
220
0.0
230
1.0
 70
     8
 71
     3
 72
    28
 73
    24
 74
     0
 42
0.00000001
 43
0.00000001
 12
1.0
 22
0.0
 32
0.0
 13
1.0
 23
0.0
 33
0.0
 40
0.0
 40
0.0
 40
0.0
 40
0.0
 40
0.0694779465972299
 40
0.1066280732302535
 40
0.1421355698550232
 40
0.2143193411824311
 40
0.2510699616346623
 40
0.2873128083782637
 40
0.3609548861743385
 40
0.3984250105591845
 40
0.43601288458786
 40
0.5123901428838049
 40
0.5512561293473944
 40
0.5901329242029043
 40
0.6691621564662423
 40
0.709402276628147
 40
0.7489849744455402
 40
0.7888416704752023
 40
0.8295661497323659
 40
0.8705924686399766
 40
0.9025712268717091
 40
0.9672496842274019
 40
0.9999999999999999
 40
0.9999999999999999
 40
0.9999999999999999
 40
0.9999999999999999
 10
71.61435402971892
 20
36.90926476288394
 30
0.0
 10
71.61342718611566
 20
36.90934788656944
 30
0.0
 10
71.61200475565472
 20
36.90947545681094
 30
0.0
 10
71.60193470890596
 20
36.91036135720729
 30
0.0
 10
71.58815569877106
 20
36.91155325699438
 30
0.0
 10
71.56856509149925
 20
36.91320235103015
 30
0.0
 10
71.54365332936106
 20
36.91519274212484
 30
0.0
 10
71.51511435786806
 20
36.91738570026655
 30
0.0
 10
71.48158924780327
 20
36.91979675742532
 30
0.0
 10
71.4436872965736
 20
36.92227523273637
 30
0.0
 10
71.40253422601684
 20
36.92477981482867
 30
0.0
 10
71.35743346480209
 20
36.92720089381635
 30
0.0
 10
71.30942690409377
 20
36.9293776213627
 30
0.0
 10
71.25914569862466
 20
36.93137256749522
 30
0.0
 10
71.20661678749431
 20
36.93299315691324
 30
0.0
 10
71.15331538347954
 20
36.93413911109808
 30
0.0
 10
71.11310144833274
 20
36.93475360736188
 30
0.0
 10
71.0729610888297
 20
36.93511834963692
 30
0.0
 10
71.03286661707773
 20
36.93523305865099
 30
0.0
 10
70.99613315976163
 20
36.93511042763057
 30
0.0
 10
70.95285357011593
 20
36.9347308113402
 30
0.0
 10
70.91365677545078
 20
36.93412184244436
 30
0.0
 10
70.88628928798558
 20
36.93349008181259
 30
0.0
 10
70.87708980997091
 20
36.93327771785153
 30
0.0
  0
LWPOLYLINE
  5
15D
330
1F
100
AcDbEntity
  8
0
  6
Continuous
 62
     7
370
    15
100
AcDbPolyline
 90
       13
 70
   128
 43
0.0
 10
74.7355014209
 20
45.8742209381
 10
74.457690726
 20
45.8683750959
 10
74.1814623396
 20
45.8909575742
 10
73.9121503527
 20
45.9415322954
 10
73.6549552972
 20
46.0191226396
 10
73.4148437223
 20
46.1222303032
 10
73.1964522873
 20
46.2488642324
 10
73.0039982263
 20
46.3965790705
 10
72.8411979113
 20
46.5625223794
 10
72.7111950875
 20
46.7434897214
 10
72.6165001664
 20
46.9359865379
 10
72.5589417482
 20
47.1362956314
 10
72.5396313112
 20
47.3405489456
  0
LINE
  5
15E
330
1F
100
AcDbEntity
  8
0
  6
Continuous
 62
     7
370
    15
100
AcDbLine
 10
74.6202362298
 20
46.0217545879
 30
0.0
 11
74.7355014004
 21
45.8742218973
 31
0.0
  0
SPLINE
  5
15F
330
1F
100
AcDbEntity
  8
0
  6
Continuous
 62
     7
370
    15
100
AcDbSpline
210
0.0
220
0.0
230
1.0
 70
     8
 71
     3
 72
    12
 73
     8
 74
     0
 42
0.00000001
 43
0.00000001
 12
1.0
 22
0.0
 32
0.0
 13
1.0
 23
0.0
 33
0.0
 40
0.0
 40
0.0
 40
0.0
 40
0.0
 40
0.1648095452720749
 40
0.3578876612391539
 40
0.56290752409141
 40
0.7847520302882159
 40
1.0
 40
1.0
 40
1.0
 40
1.0
 10
74.03068125407776
 20
46.08577171002212
 30
0.0
 10
74.03147737536617
 20
46.08540076774415
 30
0.0
 10
74.03320617077965
 20
46.08459525818405
 30
0.0
 10
74.05423409080859
 20
46.07515448509224
 30
0.0
 10
74.08858017661963
 20
46.0614031860046
 30
0.0
 10
74.1352197839129
 20
46.04556473181932
 30
0.0
 10
74.17167754049196
 20
46.03780860012331
 30
0.0
 10
74.18963131118447
 20
46.03398906148468
 30
0.0
  0
LINE
  5
160
330
1F
100
AcDbEntity
  8
0
  6
Continuous
 62
     7
370
    15
100
AcDbLine
 10
74.7355014004
 20
45.8742218973
 30
0.0
 11
75.3590278681
 21
45.0761444125
 31
0.0
  0
LINE
  5
161
330
1F
100
AcDbEntity
  8
0
  6
Continuous
 62
     8
370
    15
100
AcDbLine
 10
85.4665237922
 20
44.5156245745
 30
0.0
 11
84.2665237922
 21
44.5156245745
 31
0.0
  0
SPLINE
  5
162
330
1F
100
AcDbEntity
  8
0
  6
Continuous
 62
     8
370
    15
100
AcDbSpline
210
0.0
220
0.0
230
1.0
 70
    24
 71
     3
 72
    13
 73
     9
 74
     0
 42
0.00000001
 43
0.00000001
 12
1.0
 22
0.0
 32
0.0
 13
1.0
 23
0.0
 33
0.0
 40
0.0
 40
0.0
 40
0.0
 40
0.0
 40
0.1775082547729295
 40
0.3550165095458578
 40
0.5325247643187871
 40
0.7100330190917163
 40
0.887541273864646
 40
1.0
 40
1.0
 40
1.0
 40
1.0
 10
92.29088729137706
 20
58.46225109355758
 30
0.0
 10
92.43363581760242
 20
58.46225109355758
 30
0.0
 10
92.71913287005317
 20
58.46225109355759
 30
0.0
 10
93.05236303309515
 20
58.46225109355758
 30
0.0
 10
93.31282040051202
 20
58.46225109355758
 30
0.0
 10
93.48708056751872
 20
58.46225109355758
 30
0.0
 10
93.57890087252336
 20
58.46225109355758
 30
0.0
 10
93.57688082370656
 20
58.46225109355759
 30
0.0
 10
93.57609738237834
 20
58.46225109355759
 30
0.0
  0
SPLINE
  5
163
330
1F
100
AcDbEntity
  8
0
  6
Continuous
 62
     8
370
    15
100
AcDbSpline
210
0.0
220
0.0
230
1.0
 70
    24
 71
     3
 72
    34
 73
    30
 74
     0
 42
0.00000001
 43
0.00000001
 12
1.0
 22
0.0
 32
0.0
 13
1.0
 23
0.0
 33
0.0
 40
0.0
 40
0.0
 40
0.0
 40
0.0
 40
0.0138986874201719
 40
0.0518256609809341
 40
0.0897526345416973
 40
0.1276796081024598
 40
0.1656065816632223
 40
0.2035335552239848
 40
0.2414605287847477
 40
0.2793875023455105
 40
0.3173144759062729
 40
0.3552414494670352
 40
0.393168423027798
 40
0.4310953965885608
 40
0.4690223701493237
 40
0.5069493437100856
 40
0.5448763172708487
 40
0.5828032908316112
 40
0.6207302643923737
 40
0.6586572379531361
 40
0.6965842115138994
 40
0.7345111850746618
 40
0.7724381586354244
 40
0.810365132196187
 40
0.8482921057569496
 40
0.8862190793177126
 40
0.9241460528784744
 40
0.9620730264392376
 40
1.0
 40
1.0
 40
1.0
 40
1.0
 10
76.15695020201818
 20
58.46225109355759
 30
0.0
 10
76.15448953353933
 20
58.46225109355759
 30
0.0
 10
76.14531415125208
 20
58.46225109355759
 30
0.0
 10
76.2163616093162
 20
58.46225109355758
 30
0.0
 10
76.36906654067673
 20
58.46225109355759
 30
0.0
 10
76.60914484929867
 20
58.46225109355758
 30
0.0
 10
76.92726226984263
 20
58.46225109355759
 30
0.0
 10
77.32223674510476
 20
58.46225109355758
 30
0.0
 10
77.78976028513371
 20
58.46225109355762
 30
0.0
 10
78.3254654745663
 20
58.46225109355749
 30
0.0
 10
78.92415698181497
 20
58.46225109355762
 30
0.0
 10
79.58007877955353
 20
58.46225109355758
 30
0.0
 10
80.28691138340666
 20
58.46225109355759
 30
0.0
 10
81.03784830543776
 20
58.46225109355758
 30
0.0
 10
81.8256574257535
 20
58.46225109355758
 30
0.0
 10
82.64275176275356
 20
58.46225109355757
 30
0.0
 10
83.48126223457943
 20
58.46225109355767
 30
0.0
 10
84.33311354301833
 20
58.46225109355758
 30
0.0
 10
85.19010184699532
 20
58.46225109355751
 30
0.0
 10
86.04397405387975
 20
58.4622510935576
 30
0.0
 10
86.88650626199428
 20
58.46225109355758
 30
0.0
 10
87.70958683458973
 20
58.46225109355758
 30
0.0
 10
88.50528006540183
 20
58.46225109355758
 30
0.0
 10
89.26595654629186
 20
58.46225109355758
 30
0.0
 10
89.9841653267529
 20
58.46225109355758
 30
0.0
 10
90.65345699164347
 20
58.46225109355759
 30
0.0
 10
91.26564180441774
 20
58.46225109355758
 30
0.0
 10
91.82133313041076
 20
58.46225109355759
 30
0.0
 10
92.13436923772163
 20
58.46225109355758
 30
0.0
 10
92.29088729137705
 20
58.46225109355758
 30
0.0
  0
SPLINE
  5
164
330
1F
100
AcDbEntity
  8
0
  6
Continuous
 62
     8
370
    15
100
AcDbSpline
210
0.0
220
0.0
230
1.0
 70
    24
 71
     3
 72
    27
 73
    23
 74
     0
 42
0.00000001
 43
0.00000001
 12
1.0
 22
0.0
 32
0.0
 13
1.0
 23
0.0
 33
0.0
 40
0.0
 40
0.0
 40
0.0
 40
0.0
 40
0.0505465527401627
 40
0.1010931054803249
 40
0.1516396582204875
 40
0.20218621096065
 40
0.2527327637008124
 40
0.3032793164409749
 40
0.3538258691811375
 40
0.4043724219213
 40
0.4549189746614624
 40
0.5054655274016249
 40
0.5560120801417874
 40
0.6065586328819498
 40
0.6571051856221122
 40
0.7076517383622747
 40
0.7581982911024373
 40
0.8087448438425996
 40
0.8592913965827621
 40
0.9098379493229248
 40
0.9603845020630871
 40
1.0
 40
1.0
 40
1.0
 40
1.0
 10
90.31940647117271
 20
78.26587811460747
 30
0.0
 10
90.16387697427024
 20
78.26587811460747
 30
0.0
 10
89.85281798046529
 20
78.26587811460747
 30
0.0
 10
89.27591286446437
 20
78.26587811460747
 30
0.0
 10
88.63026054154308
 20
78.26587811460747
 30
0.0
 10
87.91841473812741
 20
78.26587811460747
 30
0.0
 10
87.15483117669602
 20
78.26587811460747
 30
0.0
 10
86.35196517383311
 20
78.26587811460747
 30
0.0
 10
85.52371738545195
 20
78.26587811460747
 30
0.0
 10
84.68421558667154
 20
78.26587811460747
 30
0.0
 10
83.84783558671049
 20
78.26587811460747
 30
0.0
 10
83.02888505068002
 20
78.26587811460747
 30
0.0
 10
82.2413768629259
 20
78.26587811460747
 30
0.0
 10
81.49878688098224
 20
78.26587811460745
 30
0.0
 10
80.8138151152941
 20
78.26587811460757
 30
0.0
 10
80.19820388870285
 20
78.26587811460745
 30
0.0
 10
79.66240332592432
 20
78.26587811460747
 30
0.0
 10
79.21589147332256
 20
78.26587811460752
 30
0.0
 10
78.86515002581105
 20
78.26587811460755
 30
0.0
 10
78.62050290334189
 20
78.26587811460743
 30
0.0
 10
78.48085262457377
 20
78.26587811460755
 30
0.0
 10
78.47458690115137
 20
78.2658781146075
 30
0.0
 10
78.47183386091493
 20
78.26587811460747
 30
0.0
  0
SPLINE
  5
165
330
1F
100
AcDbEntity
  8
0
  6
Continuous
 62
     8
370
    15
100
AcDbSpline
210
0.0
220
0.0
230
1.0
 70
    24
 71
     3
 72
    12
 73
     8
 74
     0
 42
0.00000001
 43
0.00000001
 12
1.0
 22
0.0
 32
0.0
 13
1.0
 23
0.0
 33
0.0
 40
0.0
 40
0.0
 40
0.0
 40
0.0
 40
0.0512454419993229
 40
0.2884340814994915
 40
0.5256227209996613
 40
0.7628113604998314
 40
1.0
 40
1.0
 40
1.0
 40
1.0
 10
91.26122004415049
 20
78.26587811460747
 30
0.0
 10
91.26407544215384
 20
78.26587811460747
 30
0.0
 10
91.28014700029199
 20
78.26587811460747
 30
0.0
 10
91.20202103172544
 20
78.26587811460747
 30
0.0
 10
91.02072733420825
 20
78.26587811460747
 30
0.0
 10
90.73158764610554
 20
78.26587811460747
 30
0.0
 10
90.45680019615033
 20
78.26587811460747
 30
0.0
 10
90.31940647117271
 20
78.26587811460747
 30
0.0
  0
SPLINE
  5
166
330
1F
100
AcDbEntity
  8
0
  6
Continuous
 62
     8
370
    15
100
AcDbSpline
210
0.0
220
0.0
230
1.0
 70
    24
 71
     3
 72
    11
 73
     7
 74
     0
 42
0.00000001
 43
0.00000001
 12
1.0
 22
0.0
 32
0.0
 13
1.0
 23
0.0
 33
0.0
 40
0.0
 40
0.0
 40
0.0
 40
0.0
 40
0.2500000000000013
 40
0.5000000000000008
 40
0.7500000000000001
 40
1.0
 40
1.0
 40
1.0
 40
1.0
 10
84.86652379219947
 20
49.98513842797539
 30
0.0
 10
84.78790156591572
 20
49.98513842797536
 30
0.0
 10
84.63065711334824
 20
49.98513842797531
 30
0.0
 10
84.43233015109008
 20
49.98513842797522
 30
0.0
 10
84.29358062321666
 20
49.98513842797517
 30
0.0
 10
84.27554273587187
 20
49.98513842797516
 30
0.0
 10
84.26652379219946
 20
49.98513842797516
 30
0.0
  0
SPLINE
  5
167
330
1F
100
AcDbEntity
  8
0
  6
Continuous
 62
     8
370
    15
100
AcDbSpline
210
0.0
220
0.0
230
1.0
 70
    24
 71
     3
 72
    11
 73
     7
 74
     0
 42
0.00000001
 43
0.00000001
 12
1.0
 22
0.0
 32
0.0
 13
1.0
 23
0.0
 33
0.0
 40
0.0
 40
0.0
 40
0.0
 40
0.0
 40
0.2499999999999999
 40
0.4999999999999991
 40
0.7499999999999987
 40
1.0
 40
1.0
 40
1.0
 40
1.0
 10
84.26652379219748
 20
55.02146189334247
 30
0.0
 10
84.27554273586988
 20
55.02146189334247
 30
0.0
 10
84.29358062321467
 20
55.02146189334248
 30
0.0
 10
84.43233015108811
 20
55.02146189334254
 30
0.0
 10
84.63065711334625
 20
55.02146189334262
 30
0.0
 10
84.78790156591374
 20
55.02146189334267
 30
0.0
 10
84.86652379219748
 20
55.02146189334272
 30
0.0
  0
LINE
  5
168
330
1F
100
AcDbEntity
  8
0
  6
Continuous
 62
     8
370
    15
100
AcDbLine
 10
83.1135082182
 20
52.6574296325
 30
0.0
 11
83.4829051034
 21
52.1846231804
 31
0.0
  0
LINE
  5
169
330
1F
100
AcDbEntity
  8
0
  6
Continuous
 62
     8
370
    15
100
AcDbLine
 10
82.2814654317
 20
51.2459556337
 30
0.0
 11
82.6508623169
 21
50.7731491816
 31
0.0
  0
LINE
  5
16A
330
1F
100
AcDbEntity
  8
0
  6
Continuous
 62
     8
370
    15
100
AcDbLine
 10
72.3431217925
 20
42.9489504445
 30
0.0
 11
72.3431217925
 21
49.738416479
 31
0.0
  0
LINE
  5
16B
330
1F
100
AcDbEntity
  8
0
  6
Continuous
 62
     8
370
    15
100
AcDbLine
 10
72.3431217925
 20
36.1594844101
 30
0.0
 11
72.3431217925
 21
42.9489504445
 31
0.0
  0
SPLINE
  5
16C
330
1F
100
AcDbEntity
  8
0
  6
Continuous
 62
     8
370
    15
100
AcDbSpline
210
0.0
220
0.0
230
1.0
 70
     8
 71
     3
 72
    40
 73
    36
 74
     0
 42
0.00000001
 43
0.00000001
 12
1.0
 22
0.0
 32
0.0
 13
1.0
 23
0.0
 33
0.0
 40
0.0
 40
0.0
 40
0.0
 40
0.0
 40
0.0035128251352314
 40
0.042894275184742
 40
0.0823758782480372
 40
0.1221217740709982
 40
0.161945691149392
 40
0.2038074789979425
 40
0.2457518561019953
 40
0.2879813017994048
 40
0.3303181991698668
 40
0.3691971459863024
 40
0.4081835122448104
 40
0.4475482664063458
 40
0.4870583572934884
 40
0.5213179783362065
 40
0.5557355439811015
 40
0.5906806896075606
 40
0.6258317202800061
 40
0.6559657475077603
 40
0.6862948243613531
 40
0.7173105906182465
 40
0.7486138902825189
 40
0.7695942168669206
 40
0.7906808586932417
 40
0.812128587253473
 40
0.8337115433324803
 40
0.8606928823401603
 40
0.8804682075123796
 40
0.9003709924098084
 40
0.9206882388535917
 40
0.94115286546831
 40
0.9682202132178112
 40
0.9887063998211453
 40
1.0
 40
1.0
 40
1.0
 40
1.0
 10
74.73550211076719
 20
45.87422098809368
 30
0.0
 10
74.73269879956132
 20
45.87151825441695
 30
0.0
 10
74.69846823081276
 20
45.83851581403978
 30
0.0
 10
74.63278752887874
 20
45.77274945766084
 30
0.0
 10
74.5398520266639
 20
45.67247251683055
 30
0.0
 10
74.44693680726348
 20
45.56750491096906
 30
0.0
 10
74.35415770671358
 20
45.45556440553531
 30
0.0
 10
74.26144749176426
 20
45.33707716835834
 30
0.0
 10
74.16793334805976
 20
45.21250563719215
 30
0.0
 10
74.07704321529985
 20
45.0825499898373
 30
0.0
 10
73.99084203889355
 20
44.95154995898315
 30
0.0
 10
73.90843392276363
 20
44.82093192133744
 30
0.0
 10
73.83108979402145
 20
44.68984727391398
 30
0.0
 10
73.75654463420875
 20
44.5546888415504
 30
0.0
 10
73.68734450564106
 20
44.42264496565645
 30
0.0
 10
73.62393973908779
 20
44.29446716317688
 30
0.0
 10
73.5666151049776
 20
44.17015077252679
 30
0.0
 10
73.51170714166429
 20
44.04425231977982
 30
0.0
 10
73.4617301400536
 20
43.92387304804156
 30
0.0
 10
73.41770967124918
 20
43.81011430906808
 30
0.0
 10
73.37842649772121
 20
43.70327783101982
 30
0.0
 10
73.3414141367609
 20
43.59818390952717
 30
0.0
 10
73.31146475796999
 20
43.50777494803757
 30
0.0
 10
73.28738028922102
 20
43.43217781014783
 30
0.0
 10
73.26810636565578
 20
43.36998809953356
 30
0.0
 10
73.25047470184123
 20
43.31113463493976
 30
0.0
 10
73.23318923114839
 20
43.25178308482818
 30
0.0
 10
73.2185455936432
 20
43.19992097113749
 30
0.0
 10
73.20636162991815
 20
43.1558001811085
 30
0.0
 10
73.19704123528834
 20
43.12141955462337
 30
0.0
 10
73.18938566178478
 20
43.09253894677644
 30
0.0
 10
73.18265861635153
 20
43.06704480923131
 30
0.0
 10
73.17835957687622
 20
43.0504554539521
 30
0.0
 10
73.17627576327335
 20
43.04248535664848
 30
0.0
 10
73.17636442118229
 20
43.04284052085101
 30
0.0
 10
73.1763959275918
 20
43.04296673574756
 30
0.0
  0
POINT
  5
16D
330
1F
100
AcDbEntity
  8
0
  6
Continuous
 62
     9
370
    60
100
AcDbPoint
 10
93.4580490962
 20
58.4622510936
 30
0.0
  0
DIMENSION
  5
16E
330
1F
100
AcDbEntity
  8
0
  6
Continuous
 62
     9
370
     0
100
AcDbDimension
  2
_D_2
 10
93.4580490962
 20
30.9489504445
 30
0.0
 11
83.2322004113
 21
30.9489504445
 31
0.0
 70
   160
  1
<>
 71
     2
 42
-1.0
  3
SLDDIMSTYLE0
100
AcDbAlignedDimension
 13
69.3396313112
 23
44.8600535175
 33
0.0
 14
93.4580490962
 24
58.4622510936
 34
0.0
100
AcDbRotatedDimension
  0
LWPOLYLINE
  5
185
330
1F
100
AcDbEntity
  8
0
  6
Continuous
 62
     7
100
AcDbPolyline
 90
        9
 70
   128
 43
0.0
 10
44.3000103568
 20
15.5229066417
 10
44.3456826373
 20
15.3815445737
 10
44.4757462881
 20
15.2617035992
 10
44.6704002974
 20
15.1816284201
 10
44.9000103568
 20
15.1535097565
 10
45.1296204162
 20
15.1816284201
 10
45.3242744255
 20
15.2617035992
 10
45.4543380763
 20
15.3815445737
 10
45.5000103568
 20
15.5229066417
  0
LINE
  5
186
330
1F
100
AcDbEntity
  8
0
  6
CENTERX2
 62
     7
100
AcDbLine
 10
45.5000103568
 20
15.5229066417
 30
0.0
 11
44.3000103568
 21
15.5229066417
 31
0.0
  0
SPLINE
  5
187
330
1F
100
AcDbEntity
  8
0
  6
Continuous
 62
     7
370
    15
100
AcDbSpline
210
0.0
220
0.0
230
1.0
 70
     8
 71
     3
 72
    40
 73
    36
 74
     0
 42
0.00000001
 43
0.00000001
 12
1.0
 22
0.0
 32
0.0
 13
1.0
 23
0.0
 33
0.0
 40
0.0
 40
0.0
 40
0.0
 40
0.0
 40
0.0100230089164785
 40
0.0393943293026042
 40
0.06536093063225
 40
0.0879224229659318
 40
0.1070767148770277
 40
0.1228227505937018
 40
0.1351777547106983
 40
0.146226225580509
 40
0.1574051656042426
 40
0.1687146895265958
 40
0.1801548891650247
 40
0.2188986158142391
 40
0.2577267232732203
 40
0.2965535729163771
 40
0.335382785496619
 40
0.3742113189753528
 40
0.4130380718228264
 40
0.4518668589687934
 40
0.4906958464630227
 40
0.5295226370792184
 40
0.5683509748201931
 40
0.6071803510475846
 40
0.6460072679441559
 40
0.6848352133619539
 40
0.7236647547456583
 40
0.76249191453608
 40
0.8013194767825121
 40
0.8401491126497073
 40
0.8789765651576427
 40
0.9178038369998144
 40
0.95663340983846
 40
0.9954612268059179
 40
1.0
 40
1.0
 40
1.0
 40
1.0
 10
50.0563463364725
 20
19.96170083585805
 30
0.0
 10
49.9824116119372
 20
20.01910495728275
 30
0.0
 10
49.69181934473361
 20
20.2447255150988
 30
0.0
 10
49.16472298729544
 20
20.55632205096444
 30
0.0
 10
48.51616393031268
 20
20.88574774109998
 30
0.0
 10
47.93009488081439
 20
21.12390085575882
 30
0.0
 10
47.4206723731428
 20
21.29289732755592
 30
0.0
 10
46.99460961444885
 20
21.40806583458025
 30
0.0
 10
46.63777127432361
 20
21.48749950880627
 30
0.0
 10
46.32015872486708
 20
21.54577067752003
 30
0.0
 10
46.01032406723014
 20
21.59122184100077
 30
0.0
 10
45.69540250211705
 20
21.62585170482507
 30
0.0
 10
45.12278770398696
 20
21.66776694240043
 30
0.0
 10
44.2894141773992
 20
21.66155096420898
 30
0.0
 10
43.2095405601186
 20
21.51797252496578
 30
0.0
 10
42.15504534846804
 20
21.24090731118891
 30
0.0
 10
41.14320493693394
 20
20.83488364363442
 30
0.0
 10
40.18979429844824
 20
20.30601081340777
 30
0.0
 10
39.30959110108843
 20
19.66265315228721
 30
0.0
 10
38.51622456371457
 20
18.91481404673155
 30
0.0
 10
37.82217610245537
 20
18.07398789357315
 30
0.0
 10
37.23807227633048
 20
17.15339451124211
 30
0.0
 10
36.77304887225653
 20
16.16726597282884
 30
0.0
 10
36.43443202504547
 20
15.13091356796077
 30
0.0
 10
36.2272873895439
 20
14.06050854997917
 30
0.0
 10
36.15500667055428
 20
12.97263346346794
 30
0.0
 10
36.21868147081534
 20
11.88423051665862
 30
0.0
 10
36.41717993332279
 20
10.81217367439799
 30
0.0
 10
36.74767483511538
 20
9.773240032259844
 30
0.0
 10
37.20470666406294
 20
8.783259737765913
 30
0.0
 10
37.78179963489345
 20
7.858667867502989
 30
0.0
 10
38.4677669693037
 20
7.009934004334101
 30
0.0
 10
39.26057515254791
 20
6.265065720467705
 30
0.0
 10
39.86361888976128
 20
5.781606411622481
 30
0.0
 10
40.2173261536069
 20
5.584452420052241
 30
0.0
 10
40.25434536682414
 20
5.563818165693945
 30
0.0
  0
LINE
  5
188
330
1F
100
AcDbEntity
  8
0
  6
Continuous
 62
     7
370
    15
100
AcDbLine
 10
44.3000103516
 20
22.8147408605
 30
0.0
 11
44.3000103516
 21
21.6390999645
 31
0.0
  0
LINE
  5
189
330
1F
100
AcDbEntity
  8
0
  6
Continuous
 62
     7
370
    15
100
AcDbLine
 10
45.500010362
 20
21.6381872684
 30
0.0
 11
45.500010362
 21
22.8147408605
 31
0.0
  0
LINE
  5
18A
330
1F
100
AcDbEntity
  8
0
  6
Continuous
 62
     7
370
    15
100
AcDbLine
 10
38.1000099872
 20
26.0647407413
 30
0.0
 11
38.1105443631
 21
25.4612502322
 31
0.0
  0
LINE
  5
18B
330
1F
100
AcDbEntity
  8
0
  6
Continuous
 62
     7
370
    15
100
AcDbLine
 10
51.6894763504
 20
25.4612502322
 30
0.0
 11
51.7000107263
 21
26.0647407413
 31
0.0
  0
ARC
  5
18C
330
1F
100
AcDbEntity
  8
0
  6
Continuous
 62
     7
370
    15
100
AcDbCircle
 10
51.4895068522
 20
25.4647407621
 30
0.0
 40
0.2000000000000084
100
AcDbArc
 50
270.0
 51
359.0
  0
ARC
  5
18D
330
1F
100
AcDbEntity
  8
0
  6
Continuous
 62
     7
370
    15
100
AcDbCircle
 10
38.3105138613
 20
25.4647407621
 30
0.0
 40
0.2000000000000028
100
AcDbArc
 50
181.0
 51
270.0
  0
LINE
  5
18E
330
1F
100
AcDbEntity
  8
0
  6
Continuous
 62
     7
370
    15
100
AcDbLine
 10
50.9419026022
 20
26.0647407413
 30
0.0
 11
50.9000102227
 21
28.4647407621
 31
0.0
  0
LINE
  5
18F
330
1F
100
AcDbEntity
  8
0
  6
Continuous
 62
     7
370
    15
100
AcDbLine
 10
38.9000104909
 20
28.4647407621
 30
0.0
 11
38.8581181114
 21
26.0647407413
 31
0.0
  0
ARC
  5
190
330
1F
100
AcDbEntity
  8
0
  6
Continuous
 62
     7
370
    15
100
AcDbCircle
 10
42.0013465735
 20
23.264740596
 30
0.0
 40
2.000000155991458
100
AcDbArc
 50
19.864390536
 51
89.9589084672
  0
ARC
  5
191
330
1F
100
AcDbEntity
  8
0
  6
Continuous
 62
     7
370
    15
100
AcDbCircle
 10
47.7982331763
 20
23.2648062713
 30
0.0
 40
1.9999343814625
100
AcDbArc
 50
90.1981799428
 51
159.9343578554
  0
SPLINE
  5
192
330
1F
100
AcDbEntity
  8
0
  6
Continuous
 62
     7
370
    15
100
AcDbSpline
210
0.0
220
0.0
230
1.0
 70
     8
 71
     3
 72
     9
 73
     5
 74
     0
 42
0.00000001
 43
0.00000001
 12
1.0
 22
0.0
 32
0.0
 13
1.0
 23
0.0
 33
0.0
 40
0.0
 40
0.0
 40
0.0
 40
0.0
 40
0.9233306709400537
 40
0.9999999999999999
 40
0.9999999999999999
 40
0.9999999999999999
 40
0.9999999999999999
 10
45.50001036198782
 20
22.7747431636197
 30
0.0
 10
45.62782357374385
 20
23.13758872407811
 30
0.0
 10
45.76624983399783
 20
23.5305633883866
 30
0.0
 10
45.91219332322152
 20
23.93042486463187
 30
0.0
 10
45.92338271262096
 20
23.96108197573251
 30
0.0
  0
SPLINE
  5
193
330
1F
100
AcDbEntity
  8
0
  6
Continuous
 62
     7
370
    15
100
AcDbSpline
210
0.0
220
0.0
230
1.0
 70
     8
 71
     3
 72
     9
 73
     5
 74
     0
 42
0.00000001
 43
0.00000001
 12
1.0
 22
0.0
 32
0.0
 13
1.0
 23
0.0
 33
0.0
 40
0.0
 40
0.0
 40
0.0
 40
0.0
 40
0.0792763132454094
 40
0.9999999999999999
 40
0.9999999999999999
 40
0.9999999999999999
 40
0.9999999999999999
 10
43.87541387053179
 20
23.96352613869733
 30
0.0
 10
43.88699731991147
 20
23.93177152675799
 30
0.0
 10
44.03311220474252
 20
23.53121541309209
 30
0.0
 10
44.17206928048174
 20
23.13735218875603
 30
0.0
 10
44.30001035155701
 20
22.77471298876829
 30
0.0
  0
ARC
  5
194
330
1F
100
AcDbEntity
  8
0
  6
Continuous
 62
     7
370
    15
100
AcDbCircle
 10
44.9000103568
 20
23.6147407621
 30
0.0
 40
0.1600000000000017
100
AcDbArc
 50
336.6448269076
 51
55.9853985742
  0
ARC
  5
195
330
1F
100
AcDbEntity
  8
0
  6
Continuous
 62
     7
370
    15
100
AcDbCircle
 10
44.9000103568
 20
23.6147407621
 30
0.0
 40
0.1599999999999997
100
AcDbArc
 50
124.020048046
 51
336.6448269076
  0
ARC
  5
196
330
1F
100
AcDbEntity
  8
0
  6
Continuous
 62
     7
370
    15
100
AcDbCircle
 10
44.9000103568
 20
23.6147407621
 30
0.0
 40
0.1900000000000058
100
AcDbArc
 50
157.2361222701
 51
336.6448269076
  0
ARC
  5
197
330
1F
100
AcDbEntity
  8
0
  6
Continuous
 62
     7
370
    15
100
AcDbCircle
 10
44.9000103568
 20
23.6147407621
 30
0.0
 40
0.1900000000000058
100
AcDbArc
 50
336.6448269076
 51
22.7713586102
  0
LINE
  5
198
330
1F
100
AcDbEntity
  8
0
  6
Continuous
 62
     7
370
    15
100
AcDbLine
 10
45.0055878429
 20
23.5691512615
 30
0.0
 11
44.9922806927
 21
23.6833787203
 31
0.0
  0
LINE
  5
199
330
1F
100
AcDbEntity
  8
0
  6
Continuous
 62
     7
370
    15
100
AcDbLine
 10
44.9922806927
 20
23.6833787203
 30
0.0
 11
44.8867032153
 21
23.7289680779
 31
0.0
  0
LINE
  5
19A
330
1F
100
AcDbEntity
  8
0
  6
Continuous
 62
     7
370
    15
100
AcDbLine
 10
44.8867032153
 20
23.7289680779
 30
0.0
 11
44.7944328707
 21
23.6603303492
 31
0.0
  0
LINE
  5
19B
330
1F
100
AcDbEntity
  8
0
  6
Continuous
 62
     7
370
    15
100
AcDbLine
 10
44.7944328707
 20
23.6603303492
 30
0.0
 11
44.8077400209
 21
23.5461025179
 31
0.0
  0
LINE
  5
19C
330
1F
100
AcDbEntity
  8
0
  6
Continuous
 62
     7
370
    15
100
AcDbLine
 10
44.8077400209
 20
23.5461025179
 30
0.0
 11
44.9133175012
 21
23.5005131603
 31
0.0
  0
LINE
  5
19D
330
1F
100
AcDbEntity
  8
0
  6
Continuous
 62
     7
370
    15
100
AcDbLine
 10
44.9133175012
 20
23.5005131603
 30
0.0
 11
45.0055878429
 21
23.5691512615
 31
0.0
  0
CIRCLE
  5
19E
330
1F
100
AcDbEntity
  8
0
  6
Continuous
 62
     7
370
    15
100
AcDbCircle
 10
44.9000103568
 20
12.9378482811
 30
0.0
 40
5.118160361725007
  0
SPLINE
  5
19F
330
1F
100
AcDbEntity
  8
0
  6
Continuous
 62
     7
370
    15
100
AcDbSpline
210
0.0
220
0.0
230
1.0
 70
     8
 71
     3
 72
    36
 73
    32
 74
     0
 42
0.00000001
 43
0.00000001
 12
1.0
 22
0.0
 32
0.0
 13
1.0
 23
0.0
 33
0.0
 40
0.0
 40
0.0
 40
0.0
 40
0.0
 40
0.0337852833273379
 40
0.1568103872414245
 40
0.4041064245732339
 40
0.651405095266831
 40
0.6593940574751248
 40
0.6677899200752617
 40
0.6766106269668357
 40
0.6858748926002372
 40
0.6956010276563285
 40
0.7058081891416556
 40
0.7165140289294487
 40
0.727736378785025
 40
0.7394932487209287
 40
0.7517998148133685
 40
0.7646696651512903
 40
0.7781149636974062
 40
0.7921420665864694
 40
0.8067543570901279
 40
0.8219456782443755
 40
0.8377026757587417
 40
0.8539950416390719
 40
0.8707755395064026
 40
0.8879657344254219
 40
0.9054469501944938
 40
0.9230352373948026
 40
0.9404466155366279
 40
0.9572350704034561
 40
0.9662146799687243
 40
1.0
 40
1.0
 40
1.0
 40
1.0
 10
51.03654173957156
 20
11.95200706425733
 30
0.0
 10
51.0318302613649
 20
11.92494940606773
 30
0.0
 10
51.00996249382512
 20
11.79936449332783
 30
0.0
 10
50.94289212208009
 20
11.47765159240104
 30
0.0
 10
50.80698232915918
 20
10.99358304329566
 30
0.0
 10
50.66054298514233
 20
10.61145071181975
 30
0.0
 10
50.57441529303494
 20
10.41516412224267
 30
0.0
 10
50.5661256045976
 20
10.39642583579313
 30
0.0
 10
50.55735294741237
 20
10.37676775979311
 30
0.0
 10
50.54807016691001
 20
10.35615325796541
 30
0.0
 10
50.53824776220218
 20
10.33454583751038
 30
0.0
 10
50.52785698600589
 20
10.311909697899
 30
0.0
 10
50.51686570812234
 20
10.28821109195557
 30
0.0
 10
50.50524234871917
 20
10.26341721085148
 30
0.0
 10
50.49295592295767
 20
10.23749730115029
 30
0.0
 10
50.47997433577333
 20
10.21042511052533
 30
0.0
 10
50.46626482434245
 20
10.18218015956072
 30
0.0
 10
50.45180158791136
 20
10.1527467617508
 30
0.0
 10
50.43655397947629
 20
10.12212105710009
 30
0.0
 10
50.42050443275139
 20
10.0903096240362
 30
0.0
 10
50.40363524986731
 20
10.05733723565693
 30
0.0
 10
50.38594857813433
 20
10.02324966729225
 30
0.0
 10
50.3674524734452
 20
9.988127465440567
 30
0.0
 10
50.34819067112574
 20
9.952092618555627
 30
0.0
 10
50.32823712752109
 20
9.915332653252317
 30
0.0
 10
50.30772763399367
 20
9.87812829523669
 30
0.0
 10
50.28688379800766
 20
9.840904039059012
 30
0.0
 10
50.26607571035272
 20
9.804306190343063
 30
0.0
 10
50.24852302198413
 20
9.773908666977455
 30
0.0
 10
50.22412903507093
 20
9.732091728470582
 30
0.0
 10
50.20627009695723
 20
9.702264801412912
 30
0.0
 10
50.19216110752868
 20
9.678700813685124
 30
0.0
  0
SPLINE
  5
1A0
330
1F
100
AcDbEntity
  8
0
  6
Continuous
 62
     7
370
    15
100
AcDbSpline
210
0.0
220
0.0
230
1.0
 70
     8
 71
     3
 72
    36
 73
    32
 74
     0
 42
0.00000001
 43
0.00000001
 12
1.0
 22
0.0
 32
0.0
 13
1.0
 23
0.0
 33
0.0
 40
0.0
 40
0.0
 40
0.0
 40
0.0
 40
0.0337855069968017
 40
0.1568101737504551
 40
0.4041061867093457
 40
0.6514055934709114
 40
0.6593942714176131
 40
0.6677897509081455
 40
0.6766107596367699
 40
0.6858749428516782
 40
0.6956010149910675
 40
0.7058079764658527
 40
0.7165138062987084
 40
0.7277363449527968
 40
0.7394929591411901
 40
0.751799459834204
 40
0.764669339340492
 40
0.7781141656509718
 40
0.7921415559220389
 40
0.8067535362344802
 40
0.8219449860604333
 40
0.8377013618035984
 40
0.8539939049609783
 40
0.8707741848308564
 40
0.887964426976598
 40
0.9054454974661873
 40
0.9230334104464087
 40
0.9404441195122978
 40
0.9572322669089776
 40
0.9662146531810641
 40
1.0
 40
1.0
 40
1.0
 40
1.0
 10
50.19216110752868
 20
9.678700813685126
 30
0.0
 10
50.17745368953202
 20
9.655505624548224
 30
0.0
 10
50.10919149735309
 20
9.547848763306602
 30
0.0
 10
49.92411074639499
 20
9.276292960729293
 30
0.0
 10
49.61330465434987
 20
8.881078928566824
 30
0.0
 10
49.33176891060398
 20
8.584082236020981
 30
0.0
 10
49.17708814037853
 20
8.435689862743875
 30
0.0
 10
49.16225700392079
 20
8.42155241315512
 30
0.0
 10
49.14663111239278
 20
8.406746158310002
 30
0.0
 10
49.13016520226667
 20
8.391253986536817
 30
0.0
 10
49.11282210341134
 20
8.375050166990263
 30
0.0
 10
49.09455965160813
 20
8.35811396632797
 30
0.0
 10
49.07533618920205
 20
8.340425279878087
 30
0.0
 10
49.05510970032658
 20
8.321966546099413
 30
0.0
 10
49.03383880546255
 20
8.302722305410457
 30
0.0
 10
49.01148608290223
 20
8.28267819002708
 30
0.0
 10
48.98801140458244
 20
8.261830127839332
 30
0.0
 10
48.96338487696148
 20
8.2401728945693
 30
0.0
 10
48.93757924939776
 20
8.217712587594987
 30
0.0
 10
48.9105773273139
 20
8.194464843460745
 30
0.0
 10
48.88237522418377
 20
8.170457742587029
 30
0.0
 10
48.85298887229628
 20
8.145735216213264
 30
0.0
 10
48.82246103935557
 20
8.120364303797853
 30
0.0
 10
48.79087597366589
 20
8.094443049148278
 30
0.0
 10
48.75837431329692
 20
8.068117023357555
 30
0.0
 10
48.72518879708034
 20
8.041593593720005
 30
0.0
 10
48.6916875779886
 20
8.015179637807949
 30
0.0
 10
48.65845760898225
 20
7.989332871642326
 30
0.0
 10
48.63060856899851
 20
7.96796373394775
 30
0.0
 10
48.59206559362514
 20
7.9386659764025
 30
0.0
 10
48.56415040187719
 20
7.917941903039938
 30
0.0
 10
48.54209815906333
 20
7.901570448313421
 30
0.0
  0
SPLINE
  5
1A1
330
1F
100
AcDbEntity
  8
0
  6
Continuous
 62
     7
370
    15
100
AcDbSpline
210
0.0
220
0.0
230
1.0
 70
     8
 71
     3
 72
    36
 73
    32
 74
     0
 42
0.00000001
 43
0.00000001
 12
1.0
 22
0.0
 32
0.0
 13
1.0
 23
0.0
 33
0.0
 40
0.0
 40
0.0
 40
0.0
 40
0.0
 40
0.0337853368404359
 40
0.1568103333961183
 40
0.4041062985256926
 40
0.6514053594566993
 40
0.659394032471079
 40
0.6677898652717954
 40
0.6766104094614197
 40
0.6858746234277796
 40
0.6956008315439307
 40
0.7058076878641739
 40
0.7165133125416794
 40
0.7277359413794329
 40
0.7394925838657036
 40
0.7517988346675029
 40
0.7646687565273127
 40
0.7781136586523592
 40
0.7921407505810621
 40
0.8067525111915864
 40
0.8219441170307586
 40
0.8377004406463711
 40
0.8539928705500661
 40
0.8707726488226415
 40
0.8879627962964339
 40
0.9054434042082604
 40
0.9230311673835119
 40
0.9404414922790019
 40
0.9572291952927668
 40
0.9662147927977083
 40
1.0
 40
1.0
 40
1.0
 40
1.0
 10
48.54209815906333
 20
7.901570448313421
 30
0.0
 10
48.51963399377728
 20
7.885769227454994
 30
0.0
 10
48.41536943472883
 20
7.812429875458049
 30
0.0
 10
48.14045792755252
 20
7.632370685533435
 30
0.0
 10
47.70206550320503
 20
7.386189028766596
 30
0.0
 10
47.32831347885805
 20
7.219516963824596
 30
0.0
 10
47.12861300463045
 20
7.141631495561845
 30
0.0
 10
47.10950245147534
 20
7.134241426214186
 30
0.0
 10
47.08939806125942
 20
7.126546981034454
 30
0.0
 10
47.06825819096233
 20
7.118532726175753
 30
0.0
 10
47.04603413330373
 20
7.110199617067056
 30
0.0
 10
47.02268094801807
 20
7.101540878810505
 30
0.0
 10
46.99815116287589
 20
7.092556917441703
 30
0.0
 10
46.97240065467596
 20
7.083243330503844
 30
0.0
 10
46.94538535185604
 20
7.073601786182551
 30
0.0
 10
46.91706274541926
 20
7.063640253513681
 30
0.0
 10
46.88739734260559
 20
7.053361195273908
 30
0.0
 10
46.8563579323031
 20
7.042775947967287
 30
0.0
 10
46.82392122638303
 20
7.031902520654487
 30
0.0
 10
46.79007856886274
 20
7.020757356590665
 30
0.0
 10
46.75483664713926
 20
7.009368776661678
 30
0.0
 10
46.71822620798799
 20
6.997774111362584
 30
0.0
 10
46.68031384181135
 20
6.986016495825129
 30
0.0
 10
46.64121348191467
 20
6.974157217214974
 30
0.0
 10
46.6011125134238
 20
6.962272010432333
 30
0.0
 10
46.56030291261297
 20
6.950469530465539
 30
0.0
 10
46.51924504743569
 20
6.93888458687687
 30
0.0
 10
46.47865425899596
 20
6.927721796328673
 30
0.0
 10
46.44474535810404
 20
6.918637116765944
 30
0.0
 10
46.39792272959455
 20
6.906317702558273
 30
0.0
 10
46.36419921658722
 20
6.897853440445148
 30
0.0
 10
46.33756058113622
 20
6.891167411242193
 30
0.0
  0
SPLINE
  5
1A2
330
1F
100
AcDbEntity
  8
0
  6
Continuous
 62
     7
370
    15
100
AcDbSpline
210
0.0
220
0.0
230
1.0
 70
     8
 71
     3
 72
    36
 73
    32
 74
     0
 42
0.00000001
 43
0.00000001
 12
1.0
 22
0.0
 32
0.0
 13
1.0
 23
0.0
 33
0.0
 40
0.0
 40
0.0
 40
0.0
 40
0.0
 40
0.0337852461569015
 40
0.1568101890974027
 40
0.4041062633411783
 40
0.6514053172541441
 40
0.659394041117935
 40
0.6677896873230722
 40
0.6766104005683651
 40
0.6858745430044224
 40
0.6956006972293591
 40
0.7058074453136544
 40
0.7165131472984175
 40
0.7277357109723999
 40
0.7394922162398924
 40
0.7517984489352446
 40
0.7646683265475436
 40
0.778113059509417
 40
0.7921401419600469
 40
0.8067518189958603
 40
0.8219432076354242
 40
0.8376994274582571
 40
0.8539916721866586
 40
0.8707712998860796
 40
0.8879612132837474
 40
0.9054416662572853
 40
0.9230289717041087
 40
0.9404389098392116
 40
0.9572262289052887
 40
0.9662147876277319
 40
1.0
 40
1.0
 40
1.0
 40
1.0
 10
46.33756058113622
 20
6.891167411242193
 30
0.0
 10
46.31075954455679
 20
6.885165951374447
 30
0.0
 10
46.18636573092262
 20
6.85731089143643
 30
0.0
 10
45.86347538047133
 20
6.796160266698334
 30
0.0
 10
45.36424367751973
 20
6.736484755429287
 30
0.0
 10
44.95515924652372
 20
6.725528437185909
 30
0.0
 10
44.7408546918038
 20
6.729992605081914
 30
0.0
 10
44.72037078016085
 20
6.730479156145797
 30
0.0
 10
44.69885226215358
 20
6.731063277226737
 30
0.0
 10
44.6762546519767
 20
6.731750241767373
 30
0.0
 10
44.65253351813265
 20
6.732555292828657
 30
0.0
 10
44.6276445301007
 20
6.733493249907008
 30
0.0
 10
44.60154397183074
 20
6.734578804433361
 30
0.0
 10
44.57418951089143
 20
6.735827655139834
 30
0.0
 10
44.54554127500046
 20
6.73726084708357
 30
0.0
 10
44.51556255852734
 20
6.738894425405697
 30
0.0
 10
44.48422184633427
 20
6.740750026065284
 30
0.0
 10
44.45149463683338
 20
6.742850032766695
 30
0.0
 10
44.41736611516808
 20
6.745216561572792
 30
0.0
 10
44.38183482052452
 20
6.747871616217783
 30
0.0
 10
44.3449177317892
 20
6.750837500981477
 30
0.0
 10
44.30665732642073
 20
6.754134479586122
 30
0.0
 10
44.26713179885689
 20
6.757780406231717
 30
0.0
 10
44.22646966448161
 20
6.761784648576991
 30
0.0
 10
44.18487378411628
 20
6.766153995374949
 30
0.0
 10
44.14265423213309
 20
6.770862754479451
 30
0.0
 10
44.10028947073366
 20
6.775874474691815
 30
0.0
 10
44.05851760391993
 20
6.781094256361311
 30
0.0
 10
44.02371153532706
 20
6.785677651529048
 30
0.0
 10
43.97573652232343
 20
6.792214275220754
 30
0.0
 10
43.94133847905384
 20
6.797299658202357
 30
0.0
 10
43.914168903697
 20
6.801316389475531
 30
0.0
  0
SPLINE
  5
1A3
330
1F
100
AcDbEntity
  8
0
  6
Continuous
 62
     7
370
    15
100
AcDbSpline
210
0.0
220
0.0
230
1.0
 70
     8
 71
     3
 72
    36
 73
    32
 74
     0
 42
0.00000001
 43
0.00000001
 12
1.0
 22
0.0
 32
0.0
 13
1.0
 23
0.0
 33
0.0
 40
0.0
 40
0.0
 40
0.0
 40
0.0
 40
0.0337852728138146
 40
0.0427732875213764
 40
0.0595606275684149
 40
0.0769704710777709
 40
0.0945578135582558
 40
0.1120383939898016
 40
0.1292282200813678
 40
0.1460079225692626
 40
0.1623002889520652
 40
0.1780565080382174
 40
0.1932479640144366
 40
0.207859629389362
 40
0.2218867961892383
 40
0.2353315922683755
 40
0.2482014236571864
 40
0.260507662807808
 40
0.2722642487482966
 40
0.2834868750331596
 40
0.2941925096942748
 40
0.3043992505652576
 40
0.3141254954574878
 40
0.3233896284737075
 40
0.3322104877842509
 40
0.3406060177026604
 40
0.3485948756692109
 40
0.5958936980061824
 40
0.8431899402368837
 40
0.9662148152103187
 40
1.0
 40
1.0
 40
1.0
 40
1.0
 10
43.914168903697
 20
6.801316389475531
 30
0.0
 10
43.88710838868534
 20
6.806012257309354
 30
0.0
 10
43.85284886988705
 20
6.811957383344749
 30
0.0
 10
43.80524054541699
 20
6.820774486838433
 30
0.0
 10
43.77075120973183
 20
6.827325883791
 30
0.0
 10
43.72944597850869
 20
6.835450569490869
 30
0.0
 10
43.68764315583091
 20
6.843960563756771
 30
0.0
 10
43.64607290062748
 20
6.852711741718521
 30
0.0
 10
43.60520185819311
 20
6.861592871876796
 30
0.0
 10
43.56533099189471
 20
6.870523998131736
 30
0.0
 10
43.52665262901315
 20
6.879443501658747
 30
0.0
 10
43.48928414541774
 20
6.888294340134429
 30
0.0
 10
43.45329606962749
 20
6.897042494882763
 30
0.0
 10
43.41872069851308
 20
6.905649144782922
 30
0.0
 10
43.38556859810435
 20
6.914093245441749
 30
0.0
 10
43.35383041086862
 20
6.922349954993459
 30
0.0
 10
43.32348527382076
 20
6.930403378138422
 30
0.0
 10
43.29450318116221
 20
6.938241284860824
 30
0.0
 10
43.26684783673689
 20
6.945854740623508
 30
0.0
 10
43.24047859156671
 20
6.953236643832525
 30
0.0
 10
43.21535084812339
 20
6.960379040978607
 30
0.0
 10
43.19142051036606
 20
6.967284213410638
 30
0.0
 10
43.16864074650529
 20
6.973949462911253
 30
0.0
 10
43.14696457614077
 20
6.980374128667127
 30
0.0
 10
43.12634708432955
 20
6.986563438786828
 30
0.0
 10
43.10674024809278
 20
6.99251364158035
 30
0.0
 10
42.90182942432675
 20
7.055425301988263
 30
0.0
 10
42.51674891210101
 20
7.193923637564792
 30
0.0
 10
42.0613350429143
 20
7.406981371209068
 30
0.0
 10
41.77384446704296
 20
7.566187450218373
 30
0.0
 10
41.66443519905811
 20
7.631603961031386
 30
0.0
 10
41.6408626531248
 20
7.645698139105505
 30
0.0
  0
SPLINE
  5
1A4
330
1F
100
AcDbEntity
  8
0
  6
Continuous
 62
     7
370
    15
100
AcDbSpline
210
0.0
220
0.0
230
1.0
 70
     8
 71
     3
 72
    36
 73
    32
 74
     0
 42
0.00000001
 43
0.00000001
 12
1.0
 22
0.0
 32
0.0
 13
1.0
 23
0.0
 33
0.0
 40
0.0
 40
0.0
 40
0.0
 40
0.0
 40
0.0337853358790895
 40
0.1568102258285985
 40
0.4041064854772859
 40
0.6514052707916622
 40
0.6593939497780689
 40
0.6677897465782135
 40
0.6766104412839492
 40
0.6858746191357533
 40
0.6956011316819529
 40
0.7058076627377038
 40
0.7165137187816532
 40
0.7277359204055939
 40
0.7394926386087508
 40
0.7517990624414342
 40
0.7646689180803101
 40
0.7781135167264235
 40
0.7921407082530272
 40
0.8067526069004644
 40
0.8219436924595668
 40
0.8377001871437411
 40
0.8539927324215515
 40
0.8707720364490231
 40
0.8879622072417122
 40
0.9054427312929644
 40
0.9230300975468999
 40
0.9404399246508832
 40
0.9572270681518451
 40
0.9662150159136697
 40
0.9999999999999999
 40
0.9999999999999999
 40
0.9999999999999999
 40
0.9999999999999999
 10
41.6408626531248
 20
7.645698139105505
 30
0.0
 10
41.61766773727779
 20
7.66040571897873
 30
0.0
 10
41.51001156345547
 20
7.728669030895071
 30
0.0
 10
41.2384533320754
 20
7.913746562941498
 30
0.0
 10
40.8432419081111
 20
8.22455559821012
 30
0.0
 10
40.5462420076647
 20
8.50608764649027
 30
0.0
 10
40.39785251357414
 20
8.660770779203617
 30
0.0
 10
40.38371376744831
 20
8.675600682917214
 30
0.0
 10
40.36890902821464
 20
8.691228004218912
 30
0.0
 10
40.35341558599577
 20
8.7076928483046
 30
0.0
 10
40.33721272604816
 20
8.725036846773193
 30
0.0
 10
40.32027597488477
 20
8.74329904451549
 30
0.0
 10
40.30258848123426
 20
8.76252300246426
 30
0.0
 10
40.28412880063145
 20
8.7827486102106
 30
0.0
 10
40.26488420907179
 20
8.804018850682041
 30
0.0
 10
40.24484211066427
 20
8.82637337707485
 30
0.0
 10
40.22399255592387
 20
8.849846361797223
 30
0.0
 10
40.20233536774822
 20
8.874472441354978
 30
0.0
 10
40.17987572376219
 20
8.90027809577446
 30
0.0
 10
40.15662960217433
 20
8.927280711106189
 30
0.0
 10
40.13262071444738
 20
8.955480936431314
 30
0.0
 10
40.1078991497514
 20
8.984867838986316
 30
0.0
 10
40.08252852796923
 20
9.015394997440609
 30
0.0
 10
40.05660755153985
 20
9.046979190559659
 30
0.0
 10
40.03028346531931
 20
9.07948074693102
 30
0.0
 10
40.00376020131003
 20
9.11266517319812
 30
0.0
 10
39.97734726494326
 20
9.146165146661152
 30
0.0
 10
39.95150156032358
 20
9.17939342658004
 30
0.0
 10
39.93013009008824
 20
9.207244438215923
 30
0.0
 10
39.90083043033018
 20
9.245790243638563
 30
0.0
 10
39.880103478206
 20
9.273708553685328
 30
0.0
 10
39.86373191522407
 20
9.295760342512793
 30
0.0
  0
SPLINE
  5
1A5
330
1F
100
AcDbEntity
  8
0
  6
Continuous
 62
     7
370
    15
100
AcDbSpline
210
0.0
220
0.0
230
1.0
 70
     8
 71
     3
 72
    36
 73
    32
 74
     0
 42
0.00000001
 43
0.00000001
 12
1.0
 22
0.0
 32
0.0
 13
1.0
 23
0.0
 33
0.0
 40
0.0
 40
0.0
 40
0.0
 40
0.0
 40
0.0337853313799755
 40
0.1568100541574765
 40
0.4041063450384438
 40
0.65140560419883
 40
0.6593940341141636
 40
0.6677901308507136
 40
0.6766104673675704
 40
0.6858747892298154
 40
0.6956012139023986
 40
0.7058080908485105
 40
0.7165138036438303
 40
0.7277363629804044
 40
0.7394929977536421
 40
0.7517990642820759
 40
0.764669421811973
 40
0.7781139882590755
 40
0.7921415422793056
 40
0.8067533306792675
 40
0.8219447003708817
 40
0.8377013646184198
 40
0.8539939160895339
 40
0.8707738440123683
 40
0.887963951640048
 40
0.9054443970268291
 40
0.9230320714466572
 40
0.9404423263017871
 40
0.9572299643399842
 40
0.9662149708640948
 40
1.0
 40
1.0
 40
1.0
 40
1.0
 10
39.86373191522407
 20
9.295760342512793
 30
0.0
 10
39.84793111139909
 20
9.318224789247633
 30
0.0
 10
39.7745938137518
 20
9.42249048578588
 30
0.0
 10
39.59453213562561
 20
9.697399913351026
 30
0.0
 10
39.34834275070699
 20
10.13579007860793
 30
0.0
 10
39.18169753331919
 20
10.50955255916645
 30
0.0
 10
39.10379195311971
 20
10.70924536198474
 30
0.0
 10
39.09640538782244
 20
10.72835710026905
 30
0.0
 10
39.08870687829457
 20
10.74846007077659
 30
0.0
 10
39.08069508516266
 20
10.76960097529917
 30
0.0
 10
39.07236120592237
 20
10.79182503566312
 30
0.0
 10
39.06370357550431
 20
10.81517890854041
 30
0.0
 10
39.05471773781655
 20
10.83970803145562
 30
0.0
 10
39.04540404749332
 20
10.86545851219575
 30
0.0
 10
39.03576477990072
 20
10.89247439162932
 30
0.0
 10
39.02580099343932
 20
10.92079640697582
 30
0.0
 10
39.01552305453117
 20
10.95046212280833
 30
0.0
 10
39.00493770155964
 20
10.98150196853387
 30
0.0
 10
38.99406350132644
 20
11.0139385414219
 30
0.0
 10
38.98291887680003
 20
11.047781588345
 30
0.0
 10
38.97153102823126
 20
11.08302384957134
 30
0.0
 10
38.95993600328014
 20
11.11963435795948
 30
0.0
 10
38.94817790585552
 20
11.15754708656608
 30
0.0
 10
38.93631851957983
 20
11.19664760593428
 30
0.0
 10
38.92443456317181
 20
11.23674888436083
 30
0.0
 10
38.91262924935381
 20
11.27755741327307
 30
0.0
 10
38.90104737226805
 20
11.31861586902228
 30
0.0
 10
38.88988414416324
 20
11.35920632951009
 30
0.0
 10
38.88079857436389
 20
11.39311437641154
 30
0.0
 10
38.86847957031259
 20
11.43993640170491
 30
0.0
 10
38.86001533985842
 20
11.473659269671
 30
0.0
 10
38.85332925068187
 20
11.50029773417539
 30
0.0
  0
SPLINE
  5
1A6
330
1F
100
AcDbEntity
  8
0
  6
Continuous
 62
     7
370
    15
100
AcDbSpline
210
0.0
220
0.0
230
1.0
 70
     8
 71
     3
 72
    36
 73
    32
 74
     0
 42
0.00000001
 43
0.00000001
 12
1.0
 22
0.0
 32
0.0
 13
1.0
 23
0.0
 33
0.0
 40
0.0
 40
0.0
 40
0.0
 40
0.0
 40
0.0337854229614945
 40
0.1568102094001385
 40
0.4041062321743316
 40
0.6514054651581332
 40
0.6593944031068938
 40
0.6677897153702715
 40
0.6766105234552484
 40
0.6858747682227643
 40
0.695601039360481
 40
0.7058079848854136
 40
0.7165136997080953
 40
0.7277363339166553
 40
0.7394929140244568
 40
0.7517993148086445
 40
0.7646696838372953
 40
0.7781146035207589
 40
0.7921417095079342
 40
0.8067538660706691
 40
0.8219454978117418
 40
0.8377019545476726
 40
0.8539945699234648
 40
0.8707745268307405
 40
0.8879647482895167
 40
0.90544625285241
 40
0.9230339694364461
 40
0.9404443194426734
 40
0.9572331103515668
 40
0.966214542610764
 40
1.0
 40
1.0
 40
1.0
 40
1.0
 10
38.85332925068187
 20
11.50029773417539
 30
0.0
 10
38.84732779564381
 20
11.52709892776173
 30
0.0
 10
38.81947290028561
 20
11.65149283525366
 30
0.0
 10
38.75832179941487
 20
11.97438303963518
 30
0.0
 10
38.69864215379574
 20
12.47361507431699
 30
0.0
 10
38.68769893351721
 20
12.88269962525358
 30
0.0
 10
38.6921539911097
 20
13.09700449256334
 30
0.0
 10
38.6926424500115
 20
13.11748834324737
 30
0.0
 10
38.69322425129873
 20
13.13900681717677
 30
0.0
 10
38.69391172575062
 20
13.16160467706335
 30
0.0
 10
38.69471726052228
 20
13.18532613853202
 30
0.0
 10
38.69565495890757
 20
13.21021540973078
 30
0.0
 10
38.69674101491147
 20
13.23631618420394
 30
0.0
 10
38.69799046052804
 20
13.26367075307135
 30
0.0
 10
38.69942292052973
 20
13.29231928826404
 30
0.0
 10
38.70105659196646
 20
13.32229860772443
 30
0.0
 10
38.70291268583173
 20
13.35363998840451
 30
0.0
 10
38.70501266051436
 20
13.38636778000618
 30
0.0
 10
38.7073788157937
 20
13.42049689897604
 30
0.0
 10
38.71003334637623
 20
13.45602885144284
 30
0.0
 10
38.71299924939433
 20
13.49294673366214
 30
0.0
 10
38.71629680849366
 20
13.53120779272924
 30
0.0
 10
38.71994270008682
 20
13.57073410287219
 30
0.0
 10
38.72394870268057
 20
13.61139689386874
 30
0.0
 10
38.72831548409336
 20
13.65299443634442
 30
0.0
 10
38.73302638019428
 20
13.6952152158888
 30
0.0
 10
38.7380381360673
 20
13.73758151537599
 30
0.0
 10
38.74325824298291
 20
13.77935523330743
 30
0.0
 10
38.74784029065754
 20
13.81415719093362
 30
0.0
 10
38.75437674239849
 20
13.86212780387099
 30
0.0
 10
38.75946181357367
 20
13.89652024884093
 30
0.0
 10
38.76347897397326
 20
13.92368997040815
 30
0.0
  0
SPLINE
  5
1A7
330
1F
100
AcDbEntity
  8
0
  6
Continuous
 62
     7
370
    15
100
AcDbSpline
210
0.0
220
0.0
230
1.0
 70
     8
 71
     3
 72
    36
 73
    32
 74
     0
 42
0.00000001
 43
0.00000001
 12
1.0
 22
0.0
 32
0.0
 13
1.0
 23
0.0
 33
0.0
 40
0.0
 40
0.0
 40
0.0
 40
0.0
 40
0.0337853113748106
 40
0.1568104206952507
 40
0.4041064688945154
 40
0.6514051504556834
 40
0.659394051639427
 40
0.6677899146085211
 40
0.6766106841391596
 40
0.6858748874602334
 40
0.6956010861582708
 40
0.7058082480921528
 40
0.7165140883504155
 40
0.727736991943552
 40
0.7394933102717999
 40
0.7517998769050533
 40
0.7646702775028084
 40
0.7781150956375824
 40
0.7921427461254001
 40
0.8067544229486779
 40
0.8219463583072091
 40
0.8377028845263643
 40
0.8539957917614942
 40
0.870776218355238
 40
0.8879664869018221
 40
0.9054479709860623
 40
0.9230362589592908
 40
0.9404471067195795
 40
0.9572360151370217
 40
0.9662147565604039
 40
1.0
 40
1.0
 40
1.0
 40
1.0
 10
38.76347897397326
 20
13.92368997040815
 30
0.0
 10
38.76819058874062
 20
13.95074762680468
 30
0.0
 10
38.79005897662158
 20
14.07633245375795
 30
0.0
 10
38.85712886426453
 20
14.39804540126271
 30
0.0
 10
38.99303714746078
 20
14.88211472702224
 30
0.0
 10
39.1394817869124
 20
15.26424465367038
 30
0.0
 10
39.22560538280334
 20
15.46053298317414
 30
0.0
 10
39.23389501555496
 20
15.4792712963266
 30
0.0
 10
39.24266834435471
 20
15.49892907110117
 30
0.0
 10
39.25195032575498
 20
15.51954398885035
 30
0.0
 10
39.26177348128937
 20
15.54115106914256
 30
0.0
 10
39.27216399205646
 20
15.56378738671115
 30
0.0
 10
39.28315582490217
 20
15.58748622992692
 30
0.0
 10
39.29477794757723
 20
15.61228069239898
 30
0.0
 10
39.30706556965913
 20
15.63820003887272
 30
0.0
 10
39.32004715834942
 20
15.66527222107254
 30
0.0
 10
39.3337553204519
 20
15.69351789378733
 30
0.0
 10
39.34822088772371
 20
15.7229507025128
 30
0.0
 10
39.36346655777246
 20
15.75357687259917
 30
0.0
 10
39.37951751847
 20
15.78538809084113
 30
0.0
 10
39.3963852632048
 20
15.81836078389739
 30
0.0
 10
39.41407421024502
 20
15.85244779755075
 30
0.0
 10
39.43256891511476
 20
15.88757072718746
 30
0.0
 10
39.45183070453292
 20
15.92360608622237
 30
0.0
 10
39.47178497697972
 20
15.96036590279758
 30
0.0
 10
39.4922940473825
 20
15.99757080643278
 30
0.0
 10
39.51313747660325
 20
16.03479505278513
 30
0.0
 10
39.53394726179384
 20
16.07139185501455
 30
0.0
 10
39.55149728520734
 20
16.10179002986916
 30
0.0
 10
39.57589350167784
 20
16.14360520439514
 30
0.0
 10
39.59375126500693
 20
16.17343192735104
 30
0.0
 10
39.60785960601615
 20
16.19699622098035
 30
0.0
  0
SPLINE
  5
1A8
330
1F
100
AcDbEntity
  8
0
  6
Continuous
 62
     7
370
    15
100
AcDbSpline
210
0.0
220
0.0
230
1.0
 70
     8
 71
     3
 72
    36
 73
    32
 74
     0
 42
0.00000001
 43
0.00000001
 12
1.0
 22
0.0
 32
0.0
 13
1.0
 23
0.0
 33
0.0
 40
0.0
 40
0.0
 40
0.0
 40
0.0
 40
0.0337852507332144
 40
0.1568101750734517
 40
0.4041061979737939
 40
0.651405392943683
 40
0.6593941814456388
 40
0.6677898720835086
 40
0.6766107819438912
 40
0.685875174889524
 40
0.6956013590386971
 40
0.7058083209238084
 40
0.7165142635954147
 40
0.7277371214730395
 40
0.7394939411044728
 40
0.7518003520708009
 40
0.7646705491808498
 40
0.7781156924916565
 40
0.7921431985507421
 40
0.8067552952116622
 40
0.8219471763140185
 40
0.837704179827529
 40
0.8539970363882913
 40
0.8707773592916694
 40
0.8879681505203854
 40
0.9054497704262551
 40
0.9230383530827366
 40
0.940449799706691
 40
0.9572389256811354
 40
0.966214774199668
 40
1.0
 40
1.0
 40
1.0
 40
1.0
 10
39.60785960601615
 20
16.19699622098035
 30
0.0
 10
39.62256704376846
 20
16.22019114836196
 30
0.0
 10
39.69082984599044
 20
16.32784761219131
 30
0.0
 10
39.87590902161918
 20
16.59940453875875
 30
0.0
 10
40.18671785915149
 20
16.99461603067221
 30
0.0
 10
40.4682479793679
 20
17.29161844428609
 30
0.0
 10
40.62293322754793
 20
17.44000624963567
 30
0.0
 10
40.63776351871492
 20
17.45414484894037
 30
0.0
 10
40.65339093038348
 20
17.46894987857076
 30
0.0
 10
40.66985591585246
 20
17.48444329395303
 30
0.0
 10
40.68719980769723
 20
17.50064664957332
 30
0.0
 10
40.70546214366184
 20
17.51758324137781
 30
0.0
 10
40.72468624016901
 20
17.53527175779659
 30
0.0
 10
40.74491288517027
 20
17.55373108371791
 30
0.0
 10
40.76618327906326
 20
17.57297640752836
 30
0.0
 10
40.78853740319071
 20
17.59301948629998
 30
0.0
 10
40.81201185074108
 20
17.61386846859189
 30
0.0
 10
40.83663861331996
 20
17.63552636001442
 30
0.0
 10
40.86244483656187
 20
17.65798666082887
 30
0.0
 10
40.88944733574706
 20
17.68123455841291
 30
0.0
 10
40.91765016385132
 20
17.70524227792508
 30
0.0
 10
40.94703684062592
 20
17.72996614594339
 30
0.0
 10
40.97756482578357
 20
17.75533813133463
 30
0.0
 10
41.00915162436208
 20
17.78125843290443
 30
0.0
 10
41.04165380891159
 20
17.80758527712069
 30
0.0
 10
41.07484049382744
 20
17.83410954924248
 30
0.0
 10
41.108343408225
 20
17.86052391761637
 30
0.0
 10
41.14157433127603
 20
17.88637261168272
 30
0.0
 10
41.16942031526804
 20
17.90773929450704
 30
0.0
 10
41.20795970167404
 20
17.93703413818559
 30
0.0
 10
41.23587045972185
 20
17.95775509961998
 30
0.0
 10
41.2579225544815
 20
17.97412658635206
 30
0.0
  0
SPLINE
  5
1A9
330
1F
100
AcDbEntity
  8
0
  6
Continuous
 62
     7
370
    15
100
AcDbSpline
210
0.0
220
0.0
230
1.0
 70
     8
 71
     3
 72
    36
 73
    32
 74
     0
 42
0.00000001
 43
0.00000001
 12
1.0
 22
0.0
 32
0.0
 13
1.0
 23
0.0
 33
0.0
 40
0.0
 40
0.0
 40
0.0
 40
0.0
 40
0.0337851633175207
 40
0.1568101658708193
 40
0.4041062096589406
 40
0.6514052826460731
 40
0.6593941382262339
 40
0.6677900037515389
 40
0.6766108381633574
 40
0.6858751585600692
 40
0.6956015101793999
 40
0.7058085102246381
 40
0.7165145607355733
 40
0.7277374055916191
 40
0.7394942337104033
 40
0.7518008026362027
 40
0.7646711138178236
 40
0.7781162794467803
 40
0.792143831247976
 40
0.8067560278389448
 40
0.8219481431564482
 40
0.8377050694706509
 40
0.8539981742574229
 40
0.8707787573273241
 40
0.8879697979643181
 40
0.9054516036750595
 40
0.9230404608791452
 40
0.9404522668497212
 40
0.9572418994192416
 40
0.9662147541390419
 40
1.0
 40
1.0
 40
1.0
 40
1.0
 10
41.2579225544815
 20
17.97412658635206
 30
0.0
 10
41.28038673194243
 20
17.98992754345833
 30
0.0
 10
41.38465177161957
 20
18.06326596960313
 30
0.0
 10
41.65956277352122
 20
18.2433254183593
 30
0.0
 10
42.09795345736046
 20
18.48951224853728
 30
0.0
 10
42.47171189521766
 20
18.65616821671232
 30
0.0
 10
42.67140776217359
 20
18.73406602689643
 30
0.0
 10
42.69051952493886
 20
18.74145409932745
 30
0.0
 10
42.71062311334652
 20
18.7491516109991
 30
0.0
 10
42.73176422448836
 20
18.75716383613402
 30
0.0
 10
42.75398835603941
 20
18.76549765017426
 30
0.0
 10
42.7773423852291
 20
18.77415577496822
 30
0.0
 10
42.80187202321291
 20
18.78314198694346
 30
0.0
 10
42.82762334116391
 20
18.79245532284009
 30
0.0
 10
42.85463970198174
 20
18.80209563288648
 30
0.0
 10
42.88296266733876
 20
18.81205831844406
 30
0.0
 10
42.91262851905939
 20
18.82233850183379
 30
0.0
 10
42.94366945082425
 20
18.8329220814969
 30
0.0
 10
42.97610661867063
 20
18.84379708289258
 30
0.0
 10
43.00995060117675
 20
18.854941882544
 30
0.0
 10
43.04519387473197
 20
18.86633035812259
 30
0.0
 10
43.08180554910374
 20
18.87792592382539
 30
0.0
 10
43.11971937666412
 20
18.88968454323011
 30
0.0
 10
43.15882188369331
 20
18.90154338768044
 30
0.0
 10
43.19892508980738
 20
18.91342929911956
 30
0.0
 10
43.23973669598389
 20
18.92523417765065
 30
0.0
 10
43.28079827734776
 20
18.9368172451426
 30
0.0
 10
43.32139249442529
 20
18.94798135082882
 30
0.0
 10
43.35529406265843
 20
18.95706408004472
 30
0.0
 10
43.40210789154534
 20
18.9693825050995
 30
0.0
 10
43.43582148374148
 20
18.97784388076316
 30
0.0
 10
43.46246022554087
 20
18.98452962342328
 30
0.0
  0
SPLINE
  5
1AA
330
1F
100
AcDbEntity
  8
0
  6
Continuous
 62
     7
370
    15
100
AcDbSpline
210
0.0
220
0.0
230
1.0
 70
     8
 71
     3
 72
    36
 73
    32
 74
     0
 42
0.00000001
 43
0.00000001
 12
1.0
 22
0.0
 32
0.0
 13
1.0
 23
0.0
 33
0.0
 40
0.0
 40
0.0
 40
0.0
 40
0.0
 40
0.0337852069007335
 40
0.1568101801782335
 40
0.4041062210363075
 40
0.6514052523438911
 40
0.6593941364305276
 40
0.6677899707660457
 40
0.6766108708720151
 40
0.6858752513355771
 40
0.6956016530756902
 40
0.7058086772349894
 40
0.7165147060762702
 40
0.7277376028971548
 40
0.7394944984226024
 40
0.7518011593842333
 40
0.7646715212980996
 40
0.7781167870175525
 40
0.7921444380252239
 40
0.8067567806492704
 40
0.8219489297197596
 40
0.8377060309234362
 40
0.8539992724528592
 40
0.8707800692591532
 40
0.8879712410633577
 40
0.9054532978659773
 40
0.9230424964531855
 40
0.9404546692925315
 40
0.957244866892285
 40
0.9662147398348008
 40
1.0
 40
1.0
 40
1.0
 40
1.0
 10
43.46246022554087
 20
18.98452962342328
 30
0.0
 10
43.48926123100071
 20
18.99053108958567
 30
0.0
 10
43.61365503765886
 20
19.01838620952094
 30
0.0
 10
43.93654537240273
 20
19.079535914094
 30
0.0
 10
44.4357772071162
 20
19.13921855461256
 30
0.0
 10
44.84486137676303
 20
19.15015516973678
 30
0.0
 10
45.05916651020934
 20
19.14570494237696
 30
0.0
 10
45.0796508138414
 20
19.14521653320444
 30
0.0
 10
45.10116987663368
 20
19.14463413998375
 30
0.0
 10
45.12376802283168
 20
19.14394669741029
 30
0.0
 10
45.1474897779237
 20
19.14314170894806
 30
0.0
 10
45.17237947155481
 20
19.14220403198343
 30
0.0
 10
45.19848073942435
 20
19.14111719685765
 30
0.0
 10
45.22583607289442
 20
19.13986872873416
 30
0.0
 10
45.25448523909827
 20
19.13843535755774
 30
0.0
 10
45.28446503685912
 20
19.13680211041484
 30
0.0
 10
45.31580685681344
 20
19.13494529320566
 30
0.0
 10
45.34853535906881
 20
19.13284533115848
 30
0.0
 10
45.38266540674418
 20
19.13047999762917
 30
0.0
 10
45.41819829984699
 20
19.12782453778441
 30
0.0
 10
45.45511730235779
 20
19.12485901808344
 30
0.0
 10
45.49337976858016
 20
19.12156093702978
 30
0.0
 10
45.53290774388898
 20
19.11791453630948
 30
0.0
 10
45.57357252457996
 20
19.11390878984971
 30
0.0
 10
45.61517192834218
 20
19.10954157590585
 30
0.0
 10
45.65739507325412
 20
19.10483009334293
 30
0.0
 10
45.69976449586286
 20
19.09981813923045
 30
0.0
 10
45.74154200080186
 20
19.09459749939707
 30
0.0
 10
45.77633711658978
 20
19.09001544482958
 30
0.0
 10
45.82429965946332
 20
19.08348216717559
 30
0.0
 10
45.85868252887367
 20
19.07839768011726
 30
0.0
 10
45.88585199611234
 20
19.07437990013189
 30
0.0
  0
SPLINE
  5
1AB
330
1F
100
AcDbEntity
  8
0
  6
Continuous
 62
     7
370
    15
100
AcDbSpline
210
0.0
220
0.0
230
1.0
 70
     8
 71
     3
 72
    36
 73
    32
 74
     0
 42
0.00000001
 43
0.00000001
 12
1.0
 22
0.0
 32
0.0
 13
1.0
 23
0.0
 33
0.0
 40
0.0
 40
0.0
 40
0.0
 40
0.0
 40
0.0337852096145979
 40
0.0427559777127806
 40
0.059546134258983
 40
0.0769583307558821
 40
0.0945474957998458
 40
0.1120294990956135
 40
0.1292206891900606
 40
0.146001430054952
 40
0.1622946235213369
 40
0.1780516216128075
 40
0.193243747986709
 40
0.2078560453843417
 40
0.2218836571509911
 40
0.2353288619406766
 40
0.248199179792542
 40
0.2605057956009714
 40
0.272262677988316
 40
0.2834855179371779
 40
0.2941915418147826
 40
0.3043985044822922
 40
0.3141248975511908
 40
0.3233892653459721
 40
0.332210096760078
 40
0.3406059516945952
 40
0.3485947943132445
 40
0.5958937599635259
 40
0.8431899126863452
 40
0.9662149410530673
 40
1.0
 40
1.0
 40
1.0
 40
1.0
 10
45.88585199611234
 20
19.07437990013189
 30
0.0
 10
45.91291270834298
 20
19.06968543285855
 30
0.0
 10
45.94715867639302
 20
19.06374447406617
 30
0.0
 10
45.99475477978769
 20
19.05492613694755
 30
0.0
 10
46.02923507448751
 20
19.04837978834496
 30
0.0
 10
46.07054533029597
 20
19.04025118853512
 30
0.0
 10
46.11235272003255
 20
19.03174090063718
 30
0.0
 10
46.153926905355
 20
19.02299021139714
 30
0.0
 10
46.19480069308833
 20
19.01410708469876
 30
0.0
 10
46.23467398130855
 20
19.00517482501208
 30
0.0
 10
46.2733549613649
 20
18.99625711959069
 30
0.0
 10
46.31072492431828
 20
18.9874045217742
 30
0.0
 10
46.34671494161862
 20
18.97865721586222
 30
0.0
 10
46.38129135280605
 20
18.97004888858456
 30
0.0
 10
46.41444507588878
 20
18.96160629940636
 30
0.0
 10
46.44618433939344
 20
18.9533494064247
 30
0.0
 10
46.47653033218152
 20
18.94529519740797
 30
0.0
 10
46.50551316656357
 20
18.9374564385571
 30
0.0
 10
46.5331691658109
 20
18.92984267829138
 30
0.0
 10
46.55953968065007
 20
18.92246260341465
 30
0.0
 10
46.58466735619783
 20
18.91531752495319
 30
0.0
 10
46.60859847061631
 20
18.90841284915234
 30
0.0
 10
46.63137885850972
 20
18.90174797836118
 30
0.0
 10
46.65305472411988
 20
18.89532129749762
 30
0.0
 10
46.67367367591062
 20
18.88913535382263
 30
0.0
 10
46.6932797882743
 20
18.88318198404444
 30
0.0
 10
46.89819590443543
 20
18.82028650826458
 30
0.0
 10
47.28326934533001
 20
18.6817653577619
 30
0.0
 10
47.73868603711395
 20
18.46871632895252
 30
0.0
 10
48.02617653331704
 20
18.30950984421342
 30
0.0
 10
48.13558564097402
 20
18.24409307445113
 30
0.0
 10
48.15915806042003
 20
18.22999889555997
 30
0.0
  0
SPLINE
  5
1AC
330
1F
100
AcDbEntity
  8
0
  6
Continuous
 62
     7
370
    15
100
AcDbSpline
210
0.0
220
0.0
230
1.0
 70
     8
 71
     3
 72
    36
 73
    32
 74
     0
 42
0.00000001
 43
0.00000001
 12
1.0
 22
0.0
 32
0.0
 13
1.0
 23
0.0
 33
0.0
 40
0.0
 40
0.0
 40
0.0
 40
0.0
 40
0.0337851633465655
 40
0.1568101947802765
 40
0.4041060845785988
 40
0.65140522933237
 40
0.6593940120994055
 40
0.667789806832232
 40
0.6766108262077347
 40
0.6858750017783969
 40
0.6956013929759911
 40
0.7058083532658987
 40
0.716514406673669
 40
0.7277372627973198
 40
0.7394939781055904
 40
0.7518007048303785
 40
0.7646711155778708
 40
0.7781162706191966
 40
0.7921438897107894
 40
0.806756083753293
 40
0.8219481605151459
 40
0.8377051801152392
 40
0.853998484199957
 40
0.870779213271807
 40
0.8879703353598762
 40
0.9054522865531369
 40
0.9230415100531635
 40
0.9404537176072997
 40
0.9572438188605827
 40
0.966214626145379
 40
0.9999999999999999
 40
0.9999999999999999
 40
0.9999999999999999
 40
0.9999999999999999
 10
48.15915806042003
 20
18.22999889555997
 30
0.0
 10
48.18235299487134
 20
18.21529159197841
 30
0.0
 10
48.29000978350116
 20
18.14702922735226
 30
0.0
 10
48.56156622743515
 20
17.96194954036843
 30
0.0
 10
48.95678066520303
 20
17.65114369223697
 30
0.0
 10
49.25377575534237
 20
17.36960652158946
 30
0.0
 10
49.402168185722
 20
17.21492561599295
 30
0.0
 10
49.41630716128586
 20
17.20009544451231
 30
0.0
 10
49.43111186098255
 20
17.18446771922878
 30
0.0
 10
49.44660525607898
 20
17.16800260084957
 30
0.0
 10
49.46280924969729
 20
17.15065931322491
 30
0.0
 10
49.47974591498352
 20
17.13239668758684
 30
0.0
 10
49.49743419894119
 20
17.11317225421244
 30
0.0
 10
49.5158937176834
 20
17.09294577362162
 30
0.0
 10
49.53513869465235
 20
17.07167483026493
 30
0.0
 10
49.55518246243484
 20
17.04932085514904
 30
0.0
 10
49.57603178588531
 20
17.02584611308769
 30
0.0
 10
49.59768929787876
 20
17.0012186436003
 30
0.0
 10
49.62014955013202
 20
16.9754121328784
 30
0.0
 10
49.64339785425992
 20
16.9484095429777
 30
0.0
 10
49.66740649789706
 20
16.92020716226462
 30
0.0
 10
49.69213004298814
 20
16.89081950143586
 30
0.0
 10
49.71750193417342
 20
16.86029051588535
 30
0.0
 10
49.74342382338519
 20
16.82870376616689
 30
0.0
 10
49.76975079724586
 20
16.7962005568243
 30
0.0
 10
49.79627557172908
 20
16.76301291175371
 30
0.0
 10
49.82269108596514
 20
16.72950909842093
 30
0.0
 10
49.84854092725369
 20
16.69627660903691
 30
0.0
 10
49.86990577477531
 20
16.66843259911698
 30
0.0
 10
49.89919977522339
 20
16.62989656201714
 30
0.0
 10
49.91991773672756
 20
16.60198851779684
 30
0.0
 10
49.93628879832076
 20
16.57993594709463
 30
0.0
  0
SPLINE
  5
1AD
330
1F
100
AcDbEntity
  8
0
  6
Continuous
 62
     7
370
    15
100
AcDbSpline
210
0.0
220
0.0
230
1.0
 70
     8
 71
     3
 72
    36
 73
    32
 74
     0
 42
0.00000001
 43
0.00000001
 12
1.0
 22
0.0
 32
0.0
 13
1.0
 23
0.0
 33
0.0
 40
0.0
 40
0.0
 40
0.0
 40
0.0
 40
0.0337852452215797
 40
0.1568100155609533
 40
0.4041058845632164
 40
0.6514051252354266
 40
0.659394121782585
 40
0.6677896458604446
 40
0.6766105501166207
 40
0.6858749230931745
 40
0.695601344591708
 40
0.7058082713070035
 40
0.7165139280667884
 40
0.7277371102845778
 40
0.7394937925573727
 40
0.7518004314632768
 40
0.7646702574639859
 40
0.7781153978412229
 40
0.7921429472838042
 40
0.8067553590523981
 40
0.8219473521706724
 40
0.8377040573991983
 40
0.85399718715005
 40
0.8707777829832724
 40
0.8879685142359616
 40
0.905450799667514
 40
0.9230391393586362
 40
0.9404512774762155
 40
0.9572407596771237
 40
0.9662144273324217
 40
1.0
 40
1.0
 40
1.0
 40
1.0
 10
49.93628879832076
 20
16.57993594709463
 30
0.0
 10
49.95208989040291
 20
16.55747177728178
 30
0.0
 10
50.02542869493226
 20
16.45320712581004
 30
0.0
 10
50.20548740837705
 20
16.17829585026401
 30
0.0
 10
50.45167415989342
 20
15.73990542420976
 30
0.0
 10
50.61833191571223
 20
15.36614743031936
 30
0.0
 10
50.69622807203979
 20
15.16645090898622
 30
0.0
 10
50.70361609267638
 20
15.14733923612174
 30
0.0
 10
50.71131330505813
 20
15.1272357205975
 30
0.0
 10
50.71932622062608
 20
15.10609469967037
 30
0.0
 10
50.7276597015336
 20
15.08387039609419
 30
0.0
 10
50.73631808715251
 20
15.06051680320674
 30
0.0
 10
50.74530346353529
 20
15.03598696642577
 30
0.0
 10
50.75461707040632
 20
15.01023591780593
 30
0.0
 10
50.76425756503657
 20
14.98321939120165
 30
0.0
 10
50.77422000926607
 20
14.95489681876053
 30
0.0
 10
50.78449996906726
 20
14.92523126401313
 30
0.0
 10
50.79508406688071
 20
14.89419094338806
 30
0.0
 10
50.80595896239595
 20
14.86175357227981
 30
0.0
 10
50.81710371226342
 20
14.82790948875068
 30
0.0
 10
50.82849159543485
 20
14.7926661284547
 30
0.0
 10
50.84008775478169
 20
14.75605490490568
 30
0.0
 10
50.85184515341174
 20
14.71814084991719
 30
0.0
 10
50.86370566332474
 20
14.67903907185988
 30
0.0
 10
50.87559029822255
 20
14.63893532112628
 30
0.0
 10
50.88739540396926
 20
14.598124071512
 30
0.0
 10
50.89897895465778
 20
14.55706236877898
 30
0.0
 10
50.91014305544208
 20
14.51646842631447
 30
0.0
 10
50.91922620365297
 20
14.4825661266072
 30
0.0
 10
50.93154446325688
 20
14.43575141370557
 30
0.0
 10
50.94000583602695
 20
14.40203685972882
 30
0.0
 10
50.94669146286296
 20
14.37539781037397
 30
0.0
  0
SPLINE
  5
1AE
330
1F
100
AcDbEntity
  8
0
  6
Continuous
 62
     7
370
    15
100
AcDbSpline
210
0.0
220
0.0
230
1.0
 70
     8
 71
     3
 72
    36
 73
    32
 74
     0
 42
0.00000001
 43
0.00000001
 12
1.0
 22
0.0
 32
0.0
 13
1.0
 23
0.0
 33
0.0
 40
0.0
 40
0.0
 40
0.0
 40
0.0
 40
0.0337848792240281
 40
0.1568097091815338
 40
0.4041058769037679
 40
0.6514052548374922
 40
0.6593941974688226
 40
0.6677901254960898
 40
0.676610938751222
 40
0.6858751889488056
 40
0.6956014657873982
 40
0.7058084172949453
 40
0.7165141383925859
 40
0.7277367791790876
 40
0.7394933661777936
 40
0.7517997741751531
 40
0.7646701507475353
 40
0.7781150783114927
 40
0.7921428020736265
 40
0.8067549672010099
 40
0.8219466078463795
 40
0.8377036825770576
 40
0.8539963215341769
 40
0.8707768963488836
 40
0.8879677515081766
 40
0.9054492663175341
 40
0.9230376179394791
 40
0.9404492096915787
 40
0.9572380104409149
 40
0.966215127516812
 40
1.0
 40
1.0
 40
1.0
 40
1.0
 10
50.94669146286296
 20
14.37539781037397
 30
0.0
 10
50.95269307059455
 20
14.34859711968548
 30
0.0
 10
50.98054903410919
 20
14.22420394116148
 30
0.0
 10
51.04169800504502
 20
13.90131377793713
 30
0.0
 10
51.10137883787149
 20
13.40208203194286
 30
0.0
 10
51.11232189603159
 20
12.99299740611719
 30
0.0
 10
51.10786670034425
 20
12.77869204593944
 30
0.0
 10
51.10737828994508
 20
12.75820769737208
 30
0.0
 10
51.10679645850031
 20
12.73668872746282
 30
0.0
 10
51.10610898887322
 20
12.71409086746005
 30
0.0
 10
51.10530345271377
 20
12.69036940602468
 30
0.0
 10
51.1043657547181
 20
12.66548013481702
 30
0.0
 10
51.10327969864225
 20
12.63937936034367
 30
0.0
 10
51.1020302528855
 20
12.61202479148734
 30
0.0
 10
51.1005977935679
 20
12.58337625624732
 30
0.0
 10
51.09896411936125
 20
12.55339693697697
 30
0.0
 10
51.0971080365629
 20
12.52205555553808
 30
0.0
 10
51.09500798604712
 20
12.48932727246014
 30
0.0
 10
51.09264196800256
 20
12.45519764739321
 30
0.0
 10
51.08998737727125
 20
12.41966520186657
 30
0.0
 10
51.08702134427193
 20
12.38274683472523
 30
0.0
 10
51.08372414492926
 20
12.34448523509194
 30
0.0
 10
51.08007737043985
 20
12.30495800197093
 30
0.0
 10
51.07607181669616
 20
12.26429414975283
 30
0.0
 10
51.07170441440213
 20
12.22269566482127
 30
0.0
 10
51.06699363214403
 20
12.18047385206342
 30
0.0
 10
51.06198132084585
 20
12.13810609825054
 30
0.0
 10
51.05676114122644
 20
12.0963308692837
 30
0.0
 10
51.05217935572567
 20
12.06153140971329
 30
0.0
 10
51.04564364828143
 20
12.01356473626929
 30
0.0
 10
51.04055897577058
 20
11.97917627856343
 30
0.0
 10
51.03654173957156
 20
11.95200706425733
 30
0.0
  0
SPLINE
  5
1AF
330
1F
100
AcDbEntity
  8
0
  6
Continuous
 62
     7
370
    15
100
AcDbSpline
210
0.0
220
0.0
230
1.0
 70
    11
 71
     3
 72
    55
 73
    51
 74
     0
 42
0.00000001
 43
0.00000001
 12
1.0
 22
0.0
 32
0.0
 13
1.0
 23
0.0
 33
0.0
 40
0.0
 40
0.0
 40
0.0
 40
0.0
 40
0.0208333370781881
 40
0.0416666667041063
 40
0.0624999894423354
 40
0.0833333329681839
 40
0.1041666589689398
 40
0.1250000120652892
 40
0.1458333249142536
 40
0.1666666873495821
 40
0.1874999890762547
 40
0.2083333563815026
 40
0.2291666711903479
 40
0.2500000150826414
 40
0.2708333467969324
 40
0.2916666696333549
 40
0.3125000066442102
 40
0.3333333433268855
 40
0.3541666738898188
 40
0.3750000043363474
 40
0.3958333396937858
 40
0.416666672617558
 40
0.4375000066354379
 40
0.4583333402643416
 40
0.4791666724434422
 40
0.5000000038139989
 40
0.5208333408921869
 40
0.5416666705181052
 40
0.5625000075289605
 40
0.583333335361844
 40
0.6041666782074012
 40
0.624999995886932
 40
0.6458333452739531
 40
0.6666666706751717
 40
0.6875000092983475
 40
0.7083333404760114
 40
0.7291666552848567
 40
0.7500000155566646
 40
0.7708333321624457
 40
0.7916666685778615
 40
0.8125000174058582
 40
0.8333333442354346
 40
0.8541666670779324
 40
0.8750000084359218
 40
0.8958333406957286
 40
0.9166666729329631
 40
0.9375000069508429
 40
0.9583333364503427
 40
0.9791666686294433
 40
0.9999999999999999
 40
0.9999999999999999
 40
0.9999999999999999
 40
0.9999999999999999
 10
41.54187647448825
 20
7.484965273771948
 30
0.0
 10
41.30949468343564
 20
7.640494784339643
 30
0.0
 10
40.84473118445545
 20
7.951553749840745
 30
0.0
 10
40.23236920927079
 20
8.528458964428323
 30
0.0
 10
39.69574599900182
 20
9.174111000939508
 30
0.0
 10
39.24927480803903
 20
9.885956716368833
 30
0.0
 10
38.89919316333048
 20
10.64954063157761
 30
0.0
 10
38.65186629009978
 20
11.45240649045089
 30
0.0
 10
38.5114261392323
 20
12.28065472677446
 30
0.0
 10
38.4803016902604
 20
13.12015620891015
 30
0.0
 10
38.55901858729801
 20
13.95653662433763
 30
0.0
 10
38.74623196479108
 20
14.77548711406631
 30
0.0
 10
39.03873904590386
 20
15.56299515991256
 30
0.0
 10
39.43153330945663
 20
16.30558602515538
 30
0.0
 10
39.91789438002717
 20
16.99055441187411
 30
0.0
 10
40.48950168775371
 20
17.60617912392494
 30
0.0
 10
41.13657395761708
 20
18.14192724271528
 30
0.0
 10
41.84803865109598
 20
18.58863400096286
 30
0.0
 10
42.61172469488709
 20
18.93865180900949
 30
0.0
 10
43.41456325941809
 20
19.18599535321573
 30
0.0
 10
44.24281826895884
 20
19.32643184548673
 30
0.0
 10
45.08231818659699
 20
19.35755760464017
 30
0.0
 10
45.91869861059836
 20
19.27883938547477
 30
0.0
 10
46.73764919673959
 20
19.09162637515015
 30
0.0
 10
47.5251569956304
 20
18.79911959717972
 30
0.0
 10
48.26774816581264
 20
18.40632558357591
 30
0.0
 10
48.95271614046573
 20
17.91996394560068
 30
0.0
 10
49.56834133851122
 20
17.34835696461058
 30
0.0
 10
50.10408942800728
 20
16.70128465869631
 30
0.0
 10
50.55079592296822
 20
15.9898197437513
 30
0.0
 10
50.9008137116527
 20
15.22613389756008
 30
0.0
 10
51.14815847887769
 20
14.4232954628731
 30
0.0
 10
51.28859338152646
 20
13.59504021260416
 30
0.0
 10
51.31971923064804
 20
12.75554027216728
 30
0.0
 10
51.24100234787399
 20
11.9191597470627
 30
0.0
 10
51.05378854103271
 20
11.10020949304309
 30
0.0
 10
50.761281448434
 20
10.31270174861046
 30
0.0
 10
50.36848788885572
 20
9.570110457059593
 30
0.0
 10
49.88212583771558
 20
8.885142496631317
 30
0.0
 10
49.31051908575206
 20
8.26951724087476
 30
0.0
 10
48.66344709411389
 20
7.733768144007866
 30
0.0
 10
47.95198229233683
 20
7.287062546742024
 30
0.0
 10
47.18829460376271
 20
6.937044306479509
 30
0.0
 10
46.38546140322547
 20
6.689705265338655
 30
0.0
 10
45.55718907141516
 20
6.54924305717868
 30
0.0
 10
44.71775202178233
 20
6.518219911766635
 30
0.0
 10
43.88113745522229
 20
6.596557849653312
 30
0.0
 10
43.06306093223031
 20
6.785189327449126
 30
0.0
 10
42.27229038617926
 20
7.072398192887808
 30
0.0
 10
41.78534777523554
 20
7.347442915256325
 30
0.0
 10
41.54187647448825
 20
7.484965273771948
 30
0.0
  0
SPLINE
  5
1B0
330
1F
100
AcDbEntity
  8
0
  6
Continuous
 62
     7
370
    15
100
AcDbSpline
210
0.0
220
0.0
230
1.0
 70
    11
 71
     3
 72
    71
 73
    67
 74
     0
 42
0.00000001
 43
0.00000001
 12
1.0
 22
0.0
 32
0.0
 13
1.0
 23
0.0
 33
0.0
 40
0.0
 40
0.0
 40
0.0
 40
0.0
 40
0.0156250110725391
 40
0.0312500018857429
 40
0.0468750071290654
 40
0.0625000046851143
 40
0.0781250035222079
 40
0.0937500038400063
 40
0.1093750029810996
 40
0.1250000010046774
 40
0.1406250043493543
 40
0.1562500071592215
 40
0.1718750073364042
 40
0.1875000002372549
 40
0.2031250068304896
 40
0.2187499992470987
 40
0.2343750104121751
 40
0.2500000058317213
 40
0.2656249984263968
 40
0.2812499914703553
 40
0.2968750023361292
 40
0.3125000126897876
 40
0.328125008146241
 40
0.3437500076137827
 40
0.3593750042133811
 40
0.3750000181051252
 40
0.3906250083839831
 40
0.4062500092967621
 40
0.4218750094739449
 40
0.4375000040956186
 40
0.4531250021849907
 40
0.4687500042211562
 40
0.4843750014232296
 40
0.5000000045368741
 40
0.5156250090521611
 40
0.5312500052226038
 40
0.5468750063602645
 40
0.5625000067308356
 40
0.5781250055679292
 40
0.5937500058857276
 40
0.6093750061974076
 40
0.6250000042209853
 40
0.6406250075656623
 40
0.6562500103755293
 40
0.6718750105527121
 40
0.6875000034535629
 40
0.703125001542935
 40
0.7187500034633918
 40
0.7343750042161686
 40
0.750000010856208
 40
0.7656250034508835
 40
0.781250009000779
 40
0.7968749939249193
 40
0.8125000042785777
 40
0.8281249997350312
 40
0.8437499992025729
 40
0.8593749958021712
 40
0.8750000096939153
 40
0.8906249999727731
 40
0.9062500135167337
 40
0.9218750136939164
 40
0.9375000083155901
 40
0.9531250064049622
 40
0.9687500084411277
 40
0.9843749968863555
 40
1.0
 40
1.0
 40
1.0
 40
1.0
 10
40.32774848686503
 20
5.513485023413367
 30
0.0
 10
40.57495401134784
 20
5.370748943698037
 30
0.0
 10
41.06936473978763
 20
5.085276969338484
 30
0.0
 10
41.85967225453383
 20
4.751855303193814
 30
0.0
 10
42.67609668540403
 20
4.492131822677028
 30
0.0
 10
43.51478680934748
 20
4.315123635887258
 30
0.0
 10
44.36658996034596
 20
4.220787512751572
 30
0.0
 10
45.22359114045467
 20
4.210499417681196
 30
0.0
 10
46.07745974305568
 20
4.284234535108525
 30
0.0
 10
46.91999342118085
 20
4.441315167510382
 30
0.0
 10
47.74307221659212
 20
4.680221300521101
 30
0.0
 10
48.53877107852293
 20
4.998653295577108
 30
0.0
 10
49.29942658923107
 20
5.393543456725664
 30
0.0
 10
50.01771368121761
 20
5.861089145957305
 30
0.0
 10
50.68671348032956
 20
6.396788967189443
 30
0.0
 10
51.29998518552852
 20
6.995481965996822
 30
0.0
 10
51.85162184705291
 20
7.651402923809377
 30
0.0
 10
52.33630953728375
 20
8.358236045834508
 30
0.0
 10
52.74938275975406
 20
9.109172239695601
 30
0.0
 10
53.08686117208863
 20
9.896981568881147
 30
0.0
 10
53.34549613300037
 20
10.71407618208398
 30
0.0
 10
53.5227970316044
 20
11.55258689309203
 30
0.0
 10
53.61705481039674
 20
12.40443834207393
 30
0.0
 10
53.62736385370845
 20
13.26142649110139
 30
0.0
 10
53.55362328042067
 20
14.11529880827114
 30
0.0
 10
53.39654332595109
 20
14.9578314364366
 30
0.0
 10
53.15763642126304
 20
15.78091033509024
 30
0.0
 10
52.83920576790564
 20
16.57660930915074
 30
0.0
 10
52.4443156207804
 20
17.33726494955263
 30
0.0
 10
51.97676870035678
 20
18.05555103679943
 30
0.0
 10
51.44106988596867
 20
18.72455165178016
 30
0.0
 10
50.84237690265985
 20
19.33782315306142
 30
0.0
 10
50.18645543250398
 20
19.88945920960331
 30
0.0
 10
49.47962296748474
 20
20.37414805454223
 30
0.0
 10
48.72868594961471
 20
20.78722072128578
 30
0.0
 10
47.94087659355849
 20
21.12469922393
 30
0.0
 10
47.12378232818914
 20
21.38333429058917
 30
0.0
 10
46.28527192937175
 20
21.56063528409179
 30
0.0
 10
45.43342058387591
 20
21.65489287113563
 30
0.0
 10
44.57643225494876
 20
21.66520232937274
 30
0.0
 10
43.72256028416501
 20
21.59146029707828
 30
0.0
 10
42.88002748275122
 20
21.43438151266691
 30
0.0
 10
42.05694844276825
 20
21.19547488815058
 30
0.0
 10
41.26124966137247
 20
20.87704300720337
 30
0.0
 10
40.50059407309591
 20
20.48215288112523
 30
0.0
 10
39.78230734115657
 20
20.0146070223234
 30
0.0
 10
39.11330667297429
 20
19.47890819070076
 30
0.0
 10
38.5000361179723
 20
18.88021426843342
 30
0.0
 10
37.94839830903447
 20
18.22429405122173
 30
0.0
 10
37.46371149261131
 20
17.5174602742987
 30
0.0
 10
37.05063766409974
 20
16.76652393715216
 30
0.0
 10
36.71316005870484
 20
15.97871453031918
 30
0.0
 10
36.45452427936328
 20
15.16162045646385
 30
0.0
 10
36.277223737155
 20
14.32311012483691
 30
0.0
 10
36.18296588534881
 20
13.4712586916057
 30
0.0
 10
36.17265687581892
 20
12.61427056424403
 30
0.0
 10
36.24639738699324
 20
11.76039814466034
 30
0.0
 10
36.40347755613497
 20
10.91786590448505
 30
0.0
 10
36.64238372862557
 20
10.09478533449474
 30
0.0
 10
36.96081747156094
 20
9.299091567284714
 30
0.0
 10
37.35569496579922
 20
8.538414866214572
 30
0.0
 10
37.82328988871051
 20
7.820206766299101
 30
0.0
 10
38.35880945239674
 20
7.150915057614108
 30
0.0
 10
38.9581713241738
 20
6.538730058372233
 30
0.0
 10
39.61159590640649
 20
5.983039633362807
 30
0.0
 10
40.08903088534454
 20
5.670003275708504
 30
0.0
 10
40.32774848686503
 20
5.513485023413367
 30
0.0
  0
CIRCLE
  5
1B1
330
1F
100
AcDbEntity
  8
0
  6
Continuous
 62
     7
370
    15
100
AcDbCircle
 10
44.9000103568
 20
12.9378482811
 30
0.0
 40
5.00707459443752
  0
CIRCLE
  5
1B2
330
1F
100
AcDbEntity
  8
0
  6
Continuous
 62
     7
370
    15
100
AcDbCircle
 10
44.9000103568
 20
12.9378482811
 30
0.0
 40
5.002892813075223
  0
CIRCLE
  5
1B3
330
1F
100
AcDbEntity
  8
0
  6
Continuous
 62
     7
370
    15
100
AcDbCircle
 10
44.9000103568
 20
12.9378482811
 30
0.0
 40
1.141666666666652
  0
CIRCLE
  5
1B4
330
1F
100
AcDbEntity
  8
0
  6
Continuous
 62
     7
370
    15
100
AcDbCircle
 10
44.9000103568
 20
12.9378482811
 30
0.0
 40
1.374999999999998
  0
CIRCLE
  5
1B5
330
1F
100
AcDbEntity
  8
0
  6
Continuous
 62
     7
370
    15
100
AcDbCircle
 10
44.9000103568
 20
12.9378482811
 30
0.0
 40
1.500000000000096
  0
CIRCLE
  5
1B6
330
1F
100
AcDbEntity
  8
0
  6
Continuous
 62
     7
370
    15
100
AcDbCircle
 10
44.9000103568
 20
12.9378482811
 30
0.0
 40
1.550000000000095
  0
CIRCLE
  5
1B7
330
1F
100
AcDbEntity
  8
0
  6
Continuous
 62
     7
370
    15
100
AcDbCircle
 10
44.9000103568
 20
12.9378482811
 30
0.0
 40
1.74
  0
CIRCLE
  5
1B8
330
1F
100
AcDbEntity
  8
0
  6
Continuous
 62
     7
370
    15
100
AcDbCircle
 10
44.9000103568
 20
12.9378482811
 30
0.0
 40
1.890000000000001
  0
LINE
  5
1B9
330
1F
100
AcDbEntity
  8
0
  6
Continuous
 62
     7
370
    15
100
AcDbLine
 10
44.550010346
 20
11.427881071
 30
0.0
 11
44.550010346
 21
11.2334134668
 31
0.0
  0
LINE
  5
1BA
330
1F
100
AcDbEntity
  8
0
  6
Continuous
 62
     7
370
    15
100
AcDbLine
 10
44.550010346
 20
14.6422835678
 30
0.0
 11
44.550010346
 21
14.4478144735
 31
0.0
  0
LINE
  5
1BB
330
1F
100
AcDbEntity
  8
0
  6
Continuous
 62
     7
370
    15
100
AcDbLine
 10
45.2500103676
 20
11.2334134668
 30
0.0
 11
45.2500103676
 21
11.427881071
 31
0.0
  0
LINE
  5
1BC
330
1F
100
AcDbEntity
  8
0
  6
Continuous
 62
     7
370
    15
100
AcDbLine
 10
45.2500103676
 20
14.4478144735
 30
0.0
 11
45.2500103676
 21
14.6422835678
 31
0.0
  0
LINE
  5
1BD
330
1F
100
AcDbEntity
  8
0
  6
Continuous
 62
     7
370
    15
100
AcDbLine
 10
45.2750103484
 20
11.0752227396
 30
0.0
 11
45.2750103484
 21
11.0854240746
 31
0.0
  0
ARC
  5
1BE
330
1F
100
AcDbEntity
  8
0
  6
Continuous
 62
     7
370
    15
100
AcDbCircle
 10
44.9000103568
 20
12.9378482811
 30
0.0
 40
1.900000000000001
100
AcDbArc
 50
258.6168865176
 51
281.3831134824
  0
LINE
  5
1BF
330
1F
100
AcDbEntity
  8
0
  6
Continuous
 62
     7
370
    15
100
AcDbLine
 10
44.5250103652
 20
11.0752227396
 30
0.0
 11
44.5250103652
 21
11.0854240746
 31
0.0
  0
ARC
  5
1C0
330
1F
100
AcDbEntity
  8
0
  6
Continuous
 62
     7
370
    15
100
AcDbCircle
 10
44.9000103568
 20
12.9378482811
 30
0.0
 40
1.900000000000001
100
AcDbArc
 50
78.6168865176
 51
101.3831134824
  0
LINE
  5
1C1
330
1F
100
AcDbEntity
  8
0
  6
Continuous
 62
     7
370
    15
100
AcDbLine
 10
45.2750103484
 20
14.7902729601
 30
0.0
 11
45.2750103484
 21
14.8004742951
 31
0.0
  0
LINE
  5
1C2
330
1F
100
AcDbEntity
  8
0
  6
Continuous
 62
     7
370
    15
100
AcDbLine
 10
44.5250103652
 20
14.7902729601
 30
0.0
 11
44.5250103652
 21
14.8004742951
 31
0.0
  0
ARC
  5
1C3
330
1F
100
AcDbEntity
  8
0
  6
Continuous
 62
     7
370
    15
100
AcDbCircle
 10
44.9000103568
 20
12.9378482811
 30
0.0
 40
1.900000000000001
100
AcDbArc
 50
101.3831134824
 51
258.6168865176
  0
ARC
  5
1C4
330
1F
100
AcDbEntity
  8
0
  6
Continuous
 62
     7
370
    15
100
AcDbCircle
 10
44.9000103568
 20
12.9378482811
 30
0.0
 40
1.899999999999999
100
AcDbArc
 50
281.3831134824
 51
78.6168865176
  0
SPLINE
  5
1C5
330
1F
100
AcDbEntity
  8
0
  6
Continuous
 62
     7
370
    15
100
AcDbSpline
210
0.0
220
0.0
230
1.0
 70
     8
 71
     3
 72
    13
 73
     9
 74
     0
 42
0.00000001
 43
0.00000001
 12
1.0
 22
0.0
 32
0.0
 13
1.0
 23
0.0
 33
0.0
 40
0.0
 40
0.0
 40
0.0
 40
0.0
 40
0.0733046397503457
 40
0.2579541849349899
 40
0.4427756829959605
 40
0.6280070099940704
 40
0.8135684030235395
 40
1.0
 40
1.0
 40
1.0
 40
1.0
 10
44.40716138863908
 20
11.11149067584104
 30
0.0
 10
44.40832475212383
 20
11.1061383888602
 30
0.0
 10
44.41241855137739
 20
11.08730404453517
 30
0.0
 10
44.4280207474528
 20
11.05740047860141
 30
0.0
 10
44.45357088529924
 20
11.02399998794873
 30
0.0
 10
44.48626016791224
 20
10.99680010463801
 30
0.0
 10
44.52391407035664
 20
10.97591663754865
 30
0.0
 10
44.55179152046821
 20
10.9692949535123
 30
0.0
 10
44.56576285241144
 20
10.96597636643476
 30
0.0
  0
ARC
  5
1C6
330
1F
100
AcDbEntity
  8
0
  6
Continuous
 62
     7
370
    15
100
AcDbCircle
 10
44.9000103568
 20
12.9378482811
 30
0.0
 40
2.000000000000001
100
AcDbArc
 50
260.3793702084
 51
279.6206297916
  0
SPLINE
  5
1C7
330
1F
100
AcDbEntity
  8
0
  6
Continuous
 62
     7
370
    15
100
AcDbSpline
210
0.0
220
0.0
230
1.0
 70
     8
 71
     3
 72
    13
 73
     9
 74
     0
 42
0.00000001
 43
0.00000001
 12
1.0
 22
0.0
 32
0.0
 13
1.0
 23
0.0
 33
0.0
 40
0.0
 40
0.0
 40
0.0
 40
0.0
 40
0.1820821616398973
 40
0.3632897212050462
 40
0.5442387485124736
 40
0.7249563780110261
 40
0.9054967372391574
 40
1.0
 40
1.0
 40
1.0
 40
1.0
 10
45.23425786113339
 20
10.96597636643476
 30
0.0
 10
45.24822591701549
 20
10.96929196322361
 30
0.0
 10
45.27609493549309
 20
10.97590723087092
 30
0.0
 10
45.31375311412925
 20
10.99677286195372
 30
0.0
 10
45.34642698990894
 20
11.02398478120992
 30
0.0
 10
45.37206302926974
 20
11.05738741335486
 30
0.0
 10
45.38826026073573
 20
11.08896346653696
 30
0.0
 10
45.39262459591176
 20
11.10954942841949
 30
0.0
 10
45.39412415409433
 20
11.1166226357562
 30
0.0
  0
SPLINE
  5
1C8
330
1F
100
AcDbEntity
  8
0
  6
Continuous
 62
     7
370
    15
100
AcDbSpline
210
0.0
220
0.0
230
1.0
 70
     8
 71
     3
 72
    13
 73
     9
 74
     0
 42
0.00000001
 43
0.00000001
 12
1.0
 22
0.0
 32
0.0
 13
1.0
 23
0.0
 33
0.0
 40
0.0
 40
0.0
 40
0.0
 40
0.0
 40
0.0396714912154378
 40
0.2310171754548279
 40
0.4225558705502448
 40
0.614506870302426
 40
0.8068043200085511
 40
1.0
 40
1.0
 40
1.0
 40
1.0
 10
43.25601273970651
 20
11.98821390572614
 30
0.0
 10
43.25449063116162
 20
11.98579397460725
 30
0.0
 10
43.24562700627628
 20
11.97170210070101
 30
0.0
 10
43.23669612860345
 20
11.94185654293536
 30
0.0
 10
43.23100451839033
 20
11.90024983835998
 30
0.0
 10
43.23492445013907
 20
11.85788060956573
 30
0.0
 10
43.24677202645717
 20
11.81649396363918
 30
0.0
 10
43.26180415384342
 20
11.79209914884222
 30
0.0
 10
43.26933773057507
 20
11.77987332049436
 30
0.0
  0
ARC
  5
1C9
330
1F
100
AcDbEntity
  8
0
  6
Continuous
 62
     7
370
    15
100
AcDbCircle
 10
44.9000103568
 20
12.9378482811
 30
0.0
 40
2.000000000000003
100
AcDbArc
 50
215.3793702084
 51
234.6206297916
  0
SPLINE
  5
1CA
330
1F
100
AcDbEntity
  8
0
  6
Continuous
 62
     7
370
    15
100
AcDbSpline
210
0.0
220
0.0
230
1.0
 70
     8
 71
     3
 72
    13
 73
     9
 74
     0
 42
0.00000001
 43
0.00000001
 12
1.0
 22
0.0
 32
0.0
 13
1.0
 23
0.0
 33
0.0
 40
0.0
 40
0.0
 40
0.0
 40
0.0
 40
0.1888102465991159
 40
0.3767136375992851
 40
0.5643464400076187
 40
0.7517437065300635
 40
0.9389518750640162
 40
1.0
 40
1.0
 40
1.0
 40
1.0
 10
43.74203506680178
 20
11.30717570487089
 30
0.0
 10
43.75425660811096
 20
11.29964218174589
 30
0.0
 10
43.77864099066742
 20
11.28461131900686
 30
0.0
 10
43.82001967675799
 20
11.27274858325699
 30
0.0
 10
43.86238301412551
 20
11.2688513305494
 30
0.0
 10
43.90406285833246
 20
11.27446490418331
 30
0.0
 10
43.93539544775627
 20
11.28414382097908
 30
0.0
 10
43.95082707552751
 20
11.29399466777533
 30
0.0
 10
43.954621831048
 20
11.29641706648893
 30
0.0
  0
SPLINE
  5
1CB
330
1F
100
AcDbEntity
  8
0
  6
Continuous
 62
     7
370
    15
100
AcDbSpline
210
0.0
220
0.0
230
1.0
 70
     8
 71
     3
 72
    13
 73
     9
 74
     0
 42
0.00000001
 43
0.00000001
 12
1.0
 22
0.0
 32
0.0
 13
1.0
 23
0.0
 33
0.0
 40
0.0
 40
0.0
 40
0.0
 40
0.0
 40
0.0593554103194362
 40
0.2467844552453491
 40
0.4343902440446223
 40
0.622411108000531
 40
0.8107633686766411
 40
1.0
 40
1.0
 40
1.0
 40
1.0
 10
43.07042771773385
 20
13.42991019192762
 30
0.0
 10
43.06616280629527
 20
13.42896591334179
 30
0.0
 10
43.04843040683289
 20
13.42503984703802
 30
0.0
 10
43.01957675773734
 20
13.40979012096663
 30
0.0
 10
42.98615703108645
 20
13.38430152325198
 30
0.0
 10
42.95896369481314
 20
13.3515945385918
 30
0.0
 10
42.93807736747944
 20
13.31394612485308
 30
0.0
 10
42.93145667698369
 20
13.28606811584552
 30
0.0
 10
42.92813857840346
 20
13.27209646407194
 30
0.0
  0
ARC
  5
1CC
330
1F
100
AcDbEntity
  8
0
  6
Continuous
 62
     7
370
    15
100
AcDbCircle
 10
44.9000103568
 20
12.9378482811
 30
0.0
 40
2.000000000000001
100
AcDbArc
 50
170.3793702084
 51
189.6206297916
  0
SPLINE
  5
1CD
330
1F
100
AcDbEntity
  8
0
  6
Continuous
 62
     7
370
    15
100
AcDbSpline
210
0.0
220
0.0
230
1.0
 70
     8
 71
     3
 72
    13
 73
     9
 74
     0
 42
0.00000001
 43
0.00000001
 12
1.0
 22
0.0
 32
0.0
 13
1.0
 23
0.0
 33
0.0
 40
0.0
 40
0.0
 40
0.0
 40
0.0
 40
0.1936618622098973
 40
0.3863930192804454
 40
0.5788507850296031
 40
0.7710637522083779
 40
0.9630834147757074
 40
1.0
 40
1.0
 40
1.0
 40
1.0
 10
42.92813857840346
 20
12.60360057059354
 30
0.0
 10
42.93145356142158
 20
12.58963121809361
 30
0.0
 10
42.9380675962275
 20
12.56175964736592
 30
0.0
 10
42.95894016062816
 20
12.52412018989027
 30
0.0
 10
42.98613125461421
 20
12.49137782000497
 30
0.0
 10
43.01960545095723
 20
12.46599141967311
 30
0.0
 10
43.04684680224431
 20
12.45124171715537
 30
0.0
 10
43.06288661820595
 20
12.44757600244632
 30
0.0
 10
43.0654730816369
 20
12.44698489609785
 30
0.0
  0
SPLINE
  5
1CE
330
1F
100
AcDbEntity
  8
0
  6
Continuous
 62
     7
370
    15
100
AcDbSpline
210
0.0
220
0.0
230
1.0
 70
     8
 71
     3
 72
    13
 73
     9
 74
     0
 42
0.00000001
 43
0.00000001
 12
1.0
 22
0.0
 32
0.0
 13
1.0
 23
0.0
 33
0.0
 40
0.0
 40
0.0
 40
0.0
 40
0.0
 40
0.0843381448304372
 40
0.2667883424392355
 40
0.4494133988321765
 40
0.6324381811071738
 40
0.8157903467487732
 40
1.0
 40
1.0
 40
1.0
 40
1.0
 10
43.95938293831395
 20
14.57637424174375
 30
0.0
 10
43.95402698430439
 20
14.57983860421829
 30
0.0
 10
43.93708440043247
 20
14.59079748319351
 30
0.0
 10
43.9040971850178
 20
14.6013036231911
 30
0.0
 10
43.86239085576353
 20
14.6068159343442
 30
0.0
 10
43.82004859169157
 20
14.60294351424003
 30
0.0
 10
43.77865476703268
 20
14.59108363562092
 30
0.0
 10
43.75426060331871
 20
14.57605378615133
 30
0.0
 10
43.74203506680178
 20
14.56852132979459
 30
0.0
  0
ARC
  5
1CF
330
1F
100
AcDbEntity
  8
0
  6
Continuous
 62
     7
370
    15
100
AcDbCircle
 10
44.9000103568
 20
12.9378482811
 30
0.0
 40
2.000000000000004
100
AcDbArc
 50
125.3793702084
 51
144.6206297916
  0
SPLINE
  5
1D0
330
1F
100
AcDbEntity
  8
0
  6
Continuous
 62
     7
370
    15
100
AcDbSpline
210
0.0
220
0.0
230
1.0
 70
     8
 71
     3
 72
    13
 73
     9
 74
     0
 42
0.00000001
 43
0.00000001
 12
1.0
 22
0.0
 32
0.0
 13
1.0
 23
0.0
 33
0.0
 40
0.0
 40
0.0
 40
0.0
 40
0.0
 40
0.1867366282625712
 40
0.3725775310248503
 40
0.5581471062533429
 40
0.7434864452074879
 40
0.9286386843417156
 40
1.0
 40
1.0
 40
1.0
 40
1.0
 10
43.26933773057507
 20
14.09582371417112
 30
0.0
 10
43.26180471215154
 20
14.08360217198842
 30
0.0
 10
43.24677480917259
 20
14.05921771108156
 30
0.0
 10
43.23490794747302
 20
14.01783801351443
 30
0.0
 10
43.23102284869512
 20
13.97548074017261
 30
0.0
 10
43.23659507933287
 20
13.93377879631432
 30
0.0
 10
43.24663974674431
 20
13.90171366486823
 30
0.0
 10
43.25697683512963
 20
13.88561758628678
 30
0.0
 10
43.25985258268165
 20
13.88113970461912
 30
0.0
  0
SPLINE
  5
1D1
330
1F
100
AcDbEntity
  8
0
  6
Continuous
 62
     7
370
    15
100
AcDbSpline
210
0.0
220
0.0
230
1.0
 70
     8
 71
     3
 72
    13
 73
     9
 74
     0
 42
0.00000001
 43
0.00000001
 12
1.0
 22
0.0
 32
0.0
 13
1.0
 23
0.0
 33
0.0
 40
0.0
 40
0.0
 40
0.0
 40
0.0
 40
0.0732985992497447
 40
0.2579483460749744
 40
0.4427750744971018
 40
0.6280066037711134
 40
0.8135681994369219
 40
1.0
 40
1.0
 40
1.0
 40
1.0
 10
45.39285932490574
 20
14.76420635882444
 30
0.0
 10
45.3916959307447
 20
14.76955813984149
 30
0.0
 10
45.38760177884077
 20
14.78839182938037
 30
0.0
 10
45.37199957688956
 20
14.81829520764149
 30
0.0
 10
45.3464503444531
 20
14.85169699248964
 30
0.0
 10
45.31376048670869
 20
14.87889687870156
 30
0.0
 10
45.27610665801076
 20
14.8997804100281
 30
0.0
 10
45.24822919802518
 20
14.90640208546364
 30
0.0
 10
45.23425786113339
 20
14.90972066823072
 30
0.0
  0
ARC
  5
1D2
330
1F
100
AcDbEntity
  8
0
  6
Continuous
 62
     7
370
    15
100
AcDbCircle
 10
44.9000103568
 20
12.9378482811
 30
0.0
 40
1.999999999999999
100
AcDbArc
 50
80.3793702084
 51
99.6206297916
  0
SPLINE
  5
1D3
330
1F
100
AcDbEntity
  8
0
  6
Continuous
 62
     7
370
    15
100
AcDbSpline
210
0.0
220
0.0
230
1.0
 70
     8
 71
     3
 72
    13
 73
     9
 74
     0
 42
0.00000001
 43
0.00000001
 12
1.0
 22
0.0
 32
0.0
 13
1.0
 23
0.0
 33
0.0
 40
0.0
 40
0.0
 40
0.0
 40
0.0
 40
0.1794387793689034
 40
0.3580185883767769
 40
0.5363367075257495
 40
0.7144356058578395
 40
0.8923494696884534
 40
1.0
 40
1.0
 40
1.0
 40
1.0
 10
44.56576285241144
 20
14.90972066823072
 30
0.0
 10
44.55179490990061
 20
14.90640517010352
 30
0.0
 10
44.52392588918031
 20
14.89979004508183
 30
0.0
 10
44.48626612776714
 20
14.87892289447014
 30
0.0
 10
44.45360191443241
 20
14.85170980049529
 30
0.0
 10
44.42792400150669
 20
14.81831819269519
 30
0.0
 10
44.4113443025065
 20
14.78568194700848
 30
0.0
 10
44.40680635838471
 20
14.76397690383507
 30
0.0
 10
44.40509566860246
 20
14.75579465333051
 30
0.0
  0
SPLINE
  5
1D4
330
1F
100
AcDbEntity
  8
0
  6
Continuous
 62
     7
370
    15
100
AcDbSpline
210
0.0
220
0.0
230
1.0
 70
     8
 71
     3
 72
    13
 73
     9
 74
     0
 42
0.00000001
 43
0.00000001
 12
1.0
 22
0.0
 32
0.0
 13
1.0
 23
0.0
 33
0.0
 40
0.0
 40
0.0
 40
0.0
 40
0.0
 40
0.0396658838498415
 40
0.2310176273501033
 40
0.4225496381369271
 40
0.6145071321263051
 40
0.8068044512255261
 40
1.0
 40
1.0
 40
1.0
 40
1.0
 10
46.54400797383832
 20
13.88748312893934
 30
0.0
 10
46.54553009533398
 20
13.88990255266488
 30
0.0
 10
46.55439506599231
 20
13.90399349113349
 30
0.0
 10
46.56332375815493
 20
13.93383999533843
 30
0.0
 10
46.56901639757175
 20
13.97544652270744
 30
0.0
 10
46.56509634528024
 20
14.01781599699632
 30
0.0
 10
46.55324870068245
 20
14.05920305927985
 30
0.0
 10
46.53821656424004
 20
14.0835978819017
 30
0.0
 10
46.53068298296975
 20
14.09582371417112
 30
0.0
  0
ARC
  5
1D5
330
1F
100
AcDbEntity
  8
0
  6
Continuous
 62
     7
370
    15
100
AcDbCircle
 10
44.9000103568
 20
12.9378482811
 30
0.0
 40
2.000000000000001
100
AcDbArc
 50
35.3793702084
 51
54.6206297916
  0
SPLINE
  5
1D6
330
1F
100
AcDbEntity
  8
0
  6
Continuous
 62
     7
370
    15
100
AcDbSpline
210
0.0
220
0.0
230
1.0
 70
     8
 71
     3
 72
    13
 73
     9
 74
     0
 42
0.00000001
 43
0.00000001
 12
1.0
 22
0.0
 32
0.0
 13
1.0
 23
0.0
 33
0.0
 40
0.0
 40
0.0
 40
0.0
 40
0.0
 40
0.1888075635855466
 40
0.376713342083951
 40
0.5643460829909365
 40
0.7517430485542941
 40
0.9389517132627325
 40
1.0
 40
1.0
 40
1.0
 40
1.0
 10
46.05798564674305
 20
14.56852132979459
 30
0.0
 10
46.04576399174911
 20
14.57605402269279
 30
0.0
 10
46.02137905498528
 20
14.59108343074556
 30
0.0
 10
45.9800014361164
 20
14.60294967005677
 30
0.0
 10
45.93763768688937
 20
14.60684297674905
 30
0.0
 10
45.89595775705134
 20
14.60123285975434
 30
0.0
 10
45.86462526854967
 20
14.59155316312742
 30
0.0
 10
45.84919363856229
 20
14.5817023569112
 30
0.0
 10
45.84539888249682
 20
14.57927996817655
 30
0.0
  0
SPLINE
  5
1D7
330
1F
100
AcDbEntity
  8
0
  6
Continuous
 62
     7
370
    15
100
AcDbSpline
210
0.0
220
0.0
230
1.0
 70
     8
 71
     3
 72
    13
 73
     9
 74
     0
 42
0.00000001
 43
0.00000001
 12
1.0
 22
0.0
 32
0.0
 13
1.0
 23
0.0
 33
0.0
 40
0.0
 40
0.0
 40
0.0
 40
0.0
 40
0.0593537003443519
 40
0.2467821372159312
 40
0.4343912921346005
 40
0.6224065620188031
 40
0.8107639825951178
 40
1.0
 40
1.0
 40
1.0
 40
1.0
 10
46.72959299581098
 20
12.44578684273786
 30
0.0
 10
46.7338579163475
 20
12.4467305709119
 30
0.0
 10
46.75159069794244
 20
12.45065442493259
 30
0.0
 10
46.78044443816331
 20
12.46590566359986
 30
0.0
 10
46.81386265663064
 20
12.49139552463473
 30
0.0
 10
46.84105802235172
 20
12.52410125839052
 30
0.0
 10
46.86194291747993
 20
12.56175069052428
 30
0.0
 10
46.86856392725979
 20
12.58962898785745
 30
0.0
 10
46.87188213514136
 20
12.60360057059354
 30
0.0
  0
ARC
  5
1D8
330
1F
100
AcDbEntity
  8
0
  6
Continuous
 62
     7
370
    15
100
AcDbCircle
 10
44.9000103568
 20
12.9378482811
 30
0.0
 40
1.999999999999997
100
AcDbArc
 50
350.3793702084
 51
9.6206297916
  0
SPLINE
  5
1D9
330
1F
100
AcDbEntity
  8
0
  6
Continuous
 62
     7
370
    15
100
AcDbSpline
210
0.0
220
0.0
230
1.0
 70
     8
 71
     3
 72
    13
 73
     9
 74
     0
 42
0.00000001
 43
0.00000001
 12
1.0
 22
0.0
 32
0.0
 13
1.0
 23
0.0
 33
0.0
 40
0.0
 40
0.0
 40
0.0
 40
0.0
 40
0.193656191191493
 40
0.3863940479259844
 40
0.5788475021309638
 40
0.7710612587653388
 40
0.9630817099943291
 40
1.0
 40
1.0
 40
1.0
 40
1.0
 10
46.87188213514136
 20
13.27209646407194
 30
0.0
 10
46.86856698177459
 20
13.2860652289258
 30
0.0
 10
46.86195239578587
 20
13.3139365175389
 30
0.0
 10
46.84108152692
 20
13.35157660290951
 30
0.0
 10
46.81388880095062
 20
13.38431745517804
 30
0.0
 10
46.7804155633649
 20
13.40970512866942
 30
0.0
 10
46.75317327716232
 20
13.42445158064941
 30
0.0
 10
46.7371340858747
 20
13.42812049533714
 30
0.0
 10
46.73454763190793
 20
13.42871213856763
 30
0.0
  0
SPLINE
  5
1DA
330
1F
100
AcDbEntity
  8
0
  6
Continuous
 62
     7
370
    15
100
AcDbSpline
210
0.0
220
0.0
230
1.0
 70
     8
 71
     3
 72
    13
 73
     9
 74
     0
 42
0.00000001
 43
0.00000001
 12
1.0
 22
0.0
 32
0.0
 13
1.0
 23
0.0
 33
0.0
 40
0.0
 40
0.0
 40
0.0
 40
0.0
 40
0.0843348580448446
 40
0.2667849371412228
 40
0.4494106522847695
 40
0.6324353156741194
 40
0.8157873622174159
 40
1.0
 40
1.0
 40
1.0
 40
1.0
 10
45.84063777523087
 20
11.29932130280561
 30
0.0
 10
45.84599376956012
 20
11.29585749779591
 30
0.0
 10
45.862936925019
 20
11.28490009508953
 30
0.0
 10
45.89592351679451
 20
11.27439371625284
 30
0.0
 10
45.93762977996806
 20
11.26887910956079
 30
0.0
 10
45.97997208670062
 20
11.27275223401927
 30
0.0
 10
46.02136633901618
 20
11.28461165617574
 30
0.0
 10
46.04576017280665
 20
11.29964262447298
 30
0.0
 10
46.05798564674305
 20
11.30717570487089
 30
0.0
  0
ARC
  5
1DB
330
1F
100
AcDbEntity
  8
0
  6
Continuous
 62
     7
370
    15
100
AcDbCircle
 10
44.9000103568
 20
12.9378482811
 30
0.0
 40
1.999999999999999
100
AcDbArc
 50
305.3793702084
 51
324.6206297916
  0
SPLINE
  5
1DC
330
1F
100
AcDbEntity
  8
0
  6
Continuous
 62
     7
370
    15
100
AcDbSpline
210
0.0
220
0.0
230
1.0
 70
     8
 71
     3
 72
    13
 73
     9
 74
     0
 42
0.00000001
 43
0.00000001
 12
1.0
 22
0.0
 32
0.0
 13
1.0
 23
0.0
 33
0.0
 40
0.0
 40
0.0
 40
0.0
 40
0.0
 40
0.1867366282625712
 40
0.3725775310248503
 40
0.5581471062533429
 40
0.7434864452074879
 40
0.9286386843417156
 40
1.0
 40
1.0
 40
1.0
 40
1.0
 10
46.53068298296975
 20
11.77987332049436
 30
0.0
 10
46.53821600139329
 20
11.79209486267706
 30
0.0
 10
46.55324590437224
 20
11.81647932358392
 30
0.0
 10
46.56511276607181
 20
11.85785902115104
 30
0.0
 10
46.56899786484971
 20
11.90021629449286
 30
0.0
 10
46.56342563421197
 20
11.94191823835116
 30
0.0
 10
46.55338096680052
 20
11.97398336979725
 30
0.0
 10
46.54304387841519
 20
11.9900794483787
 30
0.0
 10
46.54016813086318
 20
11.99455733004636
 30
0.0
  0
LWPOLYLINE
  5
1DD
330
1F
100
AcDbEntity
  8
0
  6
Continuous
 62
     7
370
    15
100
AcDbPolyline
 90
        8
 70
   128
 43
0.0
 10
44.9000103568
 20
23.1841376663
 10
45.0492242869
 20
23.1725322694
 10
45.1890625694
 20
23.1384458632
 10
45.3107386065
 20
23.0840193719
 10
45.4066070897
 20
23.0126733572
 10
45.4706442711
 20
22.9288908333
 10
45.4988263716
 20
22.837935263
 10
45.500010362
 20
22.8147408605
  0
LWPOLYLINE
  5
1DE
330
1F
100
AcDbEntity
  8
0
  6
Continuous
 62
     7
370
    15
100
AcDbPolyline
 90
        8
 70
   128
 43
0.0
 10
44.3000103516
 20
22.8147408605
 10
44.3011943419
 20
22.837935263
 10
44.3293764425
 20
22.9288908333
 10
44.3934136239
 20
23.0126733572
 10
44.4892821071
 20
23.0840193719
 10
44.6109581442
 20
23.1384458632
 10
44.7507964266
 20
23.1725322694
 10
44.9000103568
 20
23.1841376663
  0
LINE
  5
1DF
330
1F
100
AcDbEntity
  8
0
  6
Continuous
 62
     7
370
    15
100
AcDbLine
 10
44.5288023149
 20
26.8137528241
 30
0.0
 11
44.5095000957
 21
26.8571882189
 31
0.0
  0
ARC
  5
1E0
330
1F
100
AcDbEntity
  8
0
  6
Continuous
 62
     7
370
    15
100
AcDbCircle
 10
44.9000103568
 20
26.6647407621
 30
0.0
 40
0.4000000000000085
100
AcDbArc
 50
158.1282572371
 51
180.2786149523
  0
LINE
  5
1E1
330
1F
100
AcDbEntity
  8
0
  6
Continuous
 62
     7
370
    15
100
AcDbLine
 10
44.4663962984
 20
26.7036397621
 30
0.0
 11
44.5000150875
 21
26.6627956793
 31
0.0
  0
ARC
  5
1E2
330
1F
100
AcDbEntity
  8
0
  6
Continuous
 62
     7
370
    15
100
AcDbCircle
 10
44.9000103568
 20
26.6647407621
 30
0.0
 40
0.4353553390593335
100
AcDbArc
 50
153.7654572822
 51
174.8737966002
  0
LINE
  5
1E3
330
1F
100
AcDbEntity
  8
0
  6
Continuous
 62
     7
370
    15
100
AcDbLine
 10
45.2247708506
 20
26.4312228799
 30
0.0
 11
45.2331174334
 21
26.3844302535
 31
0.0
  0
ARC
  5
1E4
330
1F
100
AcDbEntity
  8
0
  6
Continuous
 62
     7
370
    15
100
AcDbCircle
 10
44.9000103568
 20
26.6647407621
 30
0.0
 40
0.4000000000000005
100
AcDbArc
 50
324.2821033909
 51
346.4324611061
  0
LINE
  5
1E5
330
1F
100
AcDbEntity
  8
0
  6
Continuous
 62
     7
370
    15
100
AcDbLine
 10
45.3117152379
 20
26.5232016012
 30
0.0
 11
45.2888479858
 21
26.5709041298
 31
0.0
  0
ARC
  5
1E6
330
1F
100
AcDbEntity
  8
0
  6
Continuous
 62
     7
370
    15
100
AcDbCircle
 10
44.9000103568
 20
26.6647407621
 30
0.0
 40
0.4353553390593257
100
AcDbArc
 50
319.919303436
 51
341.027642754
  0
ARC
  5
1E7
330
1F
100
AcDbEntity
  8
0
  6
Continuous
 62
     7
370
    15
100
AcDbCircle
 10
44.9000103568
 20
26.6647407621
 30
0.0
 40
0.4000000000000013
100
AcDbArc
 50
296.5897956986
 51
318.7401534138
  0
ARC
  5
1E8
330
1F
100
AcDbEntity
  8
0
  6
Continuous
 62
     7
370
    15
100
AcDbCircle
 10
44.9000103568
 20
26.6647407621
 30
0.0
 40
0.4353553390593305
100
AcDbArc
 50
292.2269957437
 51
313.3353350617
  0
LINE
  5
1E9
330
1F
100
AcDbEntity
  8
0
  6
Continuous
 62
     7
370
    15
100
AcDbLine
 10
45.0790502882
 20
26.3070472196
 30
0.0
 11
45.0646952662
 21
26.2617355824
 31
0.0
  0
LINE
  5
1EA
330
1F
100
AcDbEntity
  8
0
  6
Continuous
 62
     7
370
    15
100
AcDbLine
 10
45.1987803849
 20
26.3480852038
 30
0.0
 11
45.2007009584
 21
26.4009507984
 31
0.0
  0
ARC
  5
1EB
330
1F
100
AcDbEntity
  8
0
  6
Continuous
 62
     7
370
    15
100
AcDbCircle
 10
44.9000103568
 20
26.6647407621
 30
0.0
 40
0.4000000000000025
100
AcDbArc
 50
268.8974880063
 51
291.0478457215
  0
ARC
  5
1EC
330
1F
100
AcDbEntity
  8
0
  6
Continuous
 62
     7
370
    15
100
AcDbCircle
 10
44.9000103568
 20
26.6647407621
 30
0.0
 40
0.4353553390593282
100
AcDbArc
 50
264.5346880514
 51
285.6430273694
  0
LINE
  5
1ED
330
1F
100
AcDbEntity
  8
0
  6
Continuous
 62
     7
370
    15
100
AcDbLine
 10
44.8923138459
 20
26.2648149073
 30
0.0
 11
44.8585457628
 21
26.2313645944
 31
0.0
  0
LINE
  5
1EE
330
1F
100
AcDbEntity
  8
0
  6
Continuous
 62
     7
370
    15
100
AcDbLine
 10
45.0174009014
 20
26.2455108255
 30
0.0
 11
45.0436693319
 21
26.2914283812
 31
0.0
  0
LINE
  5
1EF
330
1F
100
AcDbEntity
  8
0
  6
Continuous
 62
     7
370
    15
100
AcDbLine
 10
44.5263335417
 20
26.6049823404
 30
0.0
 11
44.5020726119
 21
26.6241754085
 31
0.0
  0
LINE
  5
1F0
330
1F
100
AcDbEntity
  8
0
  6
Continuous
 62
     7
370
    15
100
AcDbLine
 10
44.5000150875
 20
26.6627956793
 30
0.0
 11
44.5170431101
 21
26.6421080247
 31
0.0
  0
LINE
  5
1F1
330
1F
100
AcDbEntity
  8
0
  6
Continuous
 62
     7
370
    15
100
AcDbLine
 10
44.5381786377
 20
26.7926535249
 30
0.0
 11
44.5288023149
 21
26.8137528241
 31
0.0
  0
LINE
  5
1F2
330
1F
100
AcDbEntity
  8
0
  6
Continuous
 62
     7
370
    15
100
AcDbLine
 10
44.5449282118
 20
26.8489055947
 30
0.0
 11
44.5518606045
 21
26.8156219885
 31
0.0
  0
ARC
  5
1F3
330
1F
100
AcDbEntity
  8
0
  6
Continuous
 62
     7
370
    15
100
AcDbCircle
 10
44.9000103568
 20
26.6647407621
 30
0.0
 40
0.4000000000000012
100
AcDbArc
 50
130.4359495448
 51
152.58630726
  0
LINE
  5
1F4
330
1F
100
AcDbEntity
  8
0
  6
Continuous
 62
     7
370
    15
100
AcDbLine
 10
44.6386493678
 20
26.9397316181
 30
0.0
 11
44.6405713149
 21
26.9691933558
 31
0.0
  0
LINE
  5
1F5
330
1F
100
AcDbEntity
  8
0
  6
Continuous
 62
     7
370
    15
100
AcDbLine
 10
44.671186356
 20
26.9928254798
 30
0.0
 11
44.6606381965
 21
26.95586138
 31
0.0
  0
ARC
  5
1F6
330
1F
100
AcDbEntity
  8
0
  6
Continuous
 62
     7
370
    15
100
AcDbCircle
 10
44.9000103568
 20
26.6647407621
 30
0.0
 40
0.4000000000000039
100
AcDbArc
 50
102.7436418525
 51
124.8939995677
  0
LINE
  5
1F7
330
1F
100
AcDbEntity
  8
0
  6
Continuous
 62
     7
370
    15
100
AcDbLine
 10
44.794410321
 20
27.0264677383
 30
0.0
 11
44.8117746791
 21
27.0548875124
 31
0.0
  0
LINE
  5
1F8
330
1F
100
AcDbEntity
  8
0
  6
Continuous
 62
     7
370
    15
100
AcDbLine
 10
44.8498653475
 20
27.0615851187
 30
0.0
 11
44.8227984068
 21
27.0331809908
 31
0.0
  0
ARC
  5
1F9
330
1F
100
AcDbEntity
  8
0
  6
Continuous
 62
     7
370
    15
100
AcDbCircle
 10
44.9000103568
 20
26.6647407621
 30
0.0
 40
0.3999999999999989
100
AcDbArc
 50
75.0513341602
 51
97.2016918754
  0
LINE
  5
1FA
330
1F
100
AcDbEntity
  8
0
  6
Continuous
 62
     7
370
    15
100
AcDbLine
 10
44.9741775047
 20
27.0338507049
 30
0.0
 11
45.0031917594
 21
27.0512036659
 31
0.0
  0
LINE
  5
1FB
330
1F
100
AcDbEntity
  8
0
  6
Continuous
 62
     7
370
    15
100
AcDbLine
 10
45.0400319468
 20
27.0394325868
 30
0.0
 11
45.0070189131
 21
27.0282655634
 31
0.0
  0
ARC
  5
1FC
330
1F
100
AcDbEntity
  8
0
  6
Continuous
 62
     7
370
    15
100
AcDbCircle
 10
44.9000103568
 20
26.6647407621
 30
0.0
 40
0.4000000000000004
100
AcDbArc
 50
47.3590264679
 51
69.5093841831
  0
LINE
  5
1FD
330
1F
100
AcDbEntity
  8
0
  6
Continuous
 62
     7
370
    15
100
AcDbLine
 10
45.1409919123
 20
26.9573147089
 30
0.0
 11
45.1709712326
 21
26.9589858741
 31
0.0
  0
LINE
  5
1FE
330
1F
100
AcDbEntity
  8
0
  6
Continuous
 62
     7
370
    15
100
AcDbLine
 10
45.198121288
 20
26.9314425677
 30
0.0
 11
45.1704207278
 21
26.9358317979
 31
0.0
  0
ARC
  5
1FF
330
1F
100
AcDbEntity
  8
0
  6
Continuous
 62
     7
370
    15
100
AcDbCircle
 10
44.9000103568
 20
26.6647407621
 30
0.0
 40
0.3999999999999972
100
AcDbArc
 50
19.6667187755
 51
41.8170764908
  0
LINE
  5
200
330
1F
100
AcDbEntity
  8
0
  6
Continuous
 62
     7
370
    15
100
AcDbLine
 10
45.2546348265
 20
26.8094059691
 30
0.0
 11
45.2766768337
 21
26.799360165
 31
0.0
  0
LINE
  5
201
330
1F
100
AcDbEntity
  8
0
  6
Continuous
 62
     7
370
    15
100
AcDbLine
 10
45.2879170124
 20
26.7623544351
 30
0.0
 11
45.2599579171
 21
26.7831914738
 31
0.0
  0
ARC
  5
202
330
1F
100
AcDbEntity
  8
0
  6
Continuous
 62
     7
370
    15
100
AcDbCircle
 10
44.9000103568
 20
26.6647407621
 30
0.0
 40
0.399999999999999
100
AcDbArc
 50
351.9744110832
 51
14.1247687985
  0
LINE
  5
203
330
1F
100
AcDbEntity
  8
0
  6
Continuous
 62
     7
370
    15
100
AcDbLine
 10
45.2793086116
 20
26.6305277735
 30
0.0
 11
45.2960926742
 21
26.6088946402
 31
0.0
  0
LINE
  5
204
330
1F
100
AcDbEntity
  8
0
  6
Continuous
 62
     7
370
    15
100
AcDbLine
 10
45.2192016347
 20
26.4624449104
 30
0.0
 11
45.2247708506
 21
26.4312228799
 31
0.0
  0
LINE
  5
205
330
1F
100
AcDbEntity
  8
0
  6
Continuous
 62
     7
370
    15
100
AcDbLine
 10
44.8537271638
 20
26.2674274534
 30
0.0
 11
44.8857391465
 21
26.2878487498
 31
0.0
  0
ARC
  5
206
330
1F
100
AcDbEntity
  8
0
  6
Continuous
 62
     7
370
    15
100
AcDbCircle
 10
44.9000103568
 20
26.6647407621
 30
0.0
 40
0.4000000000000019
100
AcDbArc
 50
241.205180314
 51
263.3555380292
  0
LINE
  5
207
330
1F
100
AcDbEntity
  8
0
  6
Continuous
 62
     7
370
    15
100
AcDbLine
 10
44.7388174181
 20
26.3238462299
 30
0.0
 11
44.7073405777
 21
26.3142007083
 31
0.0
  0
LINE
  5
208
330
1F
100
AcDbEntity
  8
0
  6
Continuous
 62
     7
370
    15
100
AcDbLine
 10
44.674387917
 20
26.334446171
 30
0.0
 11
44.7136475175
 21
26.3377721101
 31
0.0
  0
ARC
  5
209
330
1F
100
AcDbEntity
  8
0
  6
Continuous
 62
     7
370
    15
100
AcDbCircle
 10
44.9000103568
 20
26.6647407621
 30
0.0
 40
0.4000000000000071
100
AcDbArc
 50
213.5128726217
 51
235.6632303369
  0
ARC
  5
20A
330
1F
100
AcDbEntity
  8
0
  6
Continuous
 62
     7
370
    15
100
AcDbCircle
 10
44.9000103568
 20
26.6647407621
 30
0.0
 40
0.4000000000000033
100
AcDbArc
 50
185.8205649294
 51
207.9709226446
  0
LINE
  5
20B
330
1F
100
AcDbEntity
  8
0
  6
Continuous
 62
     7
370
    15
100
AcDbLine
 10
45.2888479858
 20
26.5709041298
 30
0.0
 11
45.2750658552
 21
26.5996546164
 31
0.0
  0
LINE
  5
20C
330
1F
100
AcDbEntity
  8
0
  6
Continuous
 62
     7
370
    15
100
AcDbLine
 10
44.5998966164
 20
26.4376085863
 30
0.0
 11
44.5665056287
 21
26.4438911021
 31
0.0
  0
LINE
  5
20D
330
1F
100
AcDbEntity
  8
0
  6
Continuous
 62
     7
370
    15
100
AcDbLine
 10
44.9127061432
 20
26.2850151077
 30
0.0
 11
44.8923138459
 21
26.2648149073
 31
0.0
  0
LINE
  5
20E
330
1F
100
AcDbEntity
  8
0
  6
Continuous
 62
     7
370
    15
100
AcDbLine
 10
45.0863060943
 20
26.3299501181
 30
0.0
 11
45.0790502882
 21
26.3070472196
 31
0.0
  0
LINE
  5
20F
330
1F
100
AcDbEntity
  8
0
  6
Continuous
 62
     7
370
    15
100
AcDbLine
 10
44.5467360719
 20
26.4771313086
 30
0.0
 11
44.5798592345
 21
26.4631737635
 31
0.0
  0
LINE
  5
210
330
1F
100
AcDbEntity
  8
0
  6
Continuous
 62
     7
370
    15
100
AcDbLine
 10
45.2007009584
 20
26.4009507984
 30
0.0
 11
45.2016935154
 21
26.42827245
 31
0.0
  0
LINE
  5
211
330
1F
100
AcDbEntity
  8
0
  6
Continuous
 62
     7
370
    15
100
AcDbLine
 10
45.0436693319
 20
26.2914283812
 30
0.0
 11
45.0600869424
 21
26.3201267138
 31
0.0
  0
LINE
  5
212
330
1F
100
AcDbEntity
  8
0
  6
Continuous
 62
     7
370
    15
100
AcDbLine
 10
45.1709712326
 20
26.9589858741
 30
0.0
 11
45.2184286603
 21
26.961631389
 31
0.0
  0
SPLINE
  5
213
330
1F
100
AcDbEntity
  8
0
  6
Continuous
 62
     7
370
    15
100
AcDbSpline
210
0.0
220
0.0
230
1.0
 70
     8
 71
     3
 72
     9
 73
     5
 74
     0
 42
0.00000001
 43
0.00000001
 12
1.0
 22
0.0
 32
0.0
 13
1.0
 23
0.0
 33
0.0
 40
0.0
 40
0.0
 40
0.0
 40
0.0
 40
0.912630999421351
 40
0.9999999999999999
 40
0.9999999999999999
 40
0.9999999999999999
 40
0.9999999999999999
 10
45.09014314329224
 20
27.05638321641511
 30
0.0
 10
45.07503746799436
 20
27.05127347133025
 30
0.0
 10
45.05848567947582
 20
27.04567455447548
 30
0.0
 10
45.04151468559676
 20
27.03993412256268
 30
0.0
 10
45.04003194682272
 20
27.03943258676357
 30
0.0
  0
ARC
  5
214
330
1F
100
AcDbEntity
  8
0
  6
Continuous
 62
     7
370
    15
100
AcDbCircle
 10
44.9000103568
 20
26.6647407621
 30
0.0
 40
0.4353553390593269
100
AcDbArc
 50
42.9962265129
 51
64.104565831
  0
LINE
  5
215
330
1F
100
AcDbEntity
  8
0
  6
Continuous
 62
     7
370
    15
100
AcDbLine
 10
45.2766768337
 20
26.799360165
 30
0.0
 11
45.3199277335
 21
26.7796479777
 31
0.0
  0
LINE
  5
216
330
1F
100
AcDbEntity
  8
0
  6
Continuous
 62
     7
370
    15
100
AcDbLine
 10
45.2503698814
 20
26.923163762
 30
0.0
 11
45.198121288
 21
26.9314425677
 31
0.0
  0
ARC
  5
217
330
1F
100
AcDbEntity
  8
0
  6
Continuous
 62
     7
370
    15
100
AcDbCircle
 10
44.9000103568
 20
26.6647407621
 30
0.0
 40
0.4353553390593283
100
AcDbArc
 50
15.3039188206
 51
36.4122581387
  0
LINE
  5
218
330
1F
100
AcDbEntity
  8
0
  6
Continuous
 62
     7
370
    15
100
AcDbLine
 10
45.2960926742
 20
26.6088946402
 30
0.0
 11
45.325228775
 21
26.5713407338
 31
0.0
  0
LINE
  5
219
330
1F
100
AcDbEntity
  8
0
  6
Continuous
 62
     7
370
    15
100
AcDbLine
 10
45.3303334937
 20
26.7307427392
 30
0.0
 11
45.2879170124
 21
26.7623544351
 31
0.0
  0
ARC
  5
21A
330
1F
100
AcDbEntity
  8
0
  6
Continuous
 62
     7
370
    15
100
AcDbCircle
 10
44.9000103568
 20
26.6647407621
 30
0.0
 40
0.4353553390593255
100
AcDbArc
 50
347.6116111283
 51
8.7199504463
  0
ARC
  5
21B
330
1F
100
AcDbEntity
  8
0
  6
Continuous
 62
     7
370
    15
100
AcDbCircle
 10
44.9000103568
 20
26.6647407621
 30
0.0
 40
0.4353553390593331
100
AcDbArc
 50
181.4577649745
 51
202.5661042925
  0
LINE
  5
21C
330
1F
100
AcDbEntity
  8
0
  6
Continuous
 62
     7
370
    15
100
AcDbLine
 10
44.5020726119
 20
26.6241754085
 30
0.0
 11
44.4647959136
 21
26.6536653653
 31
0.0
  0
LINE
  5
21D
330
1F
100
AcDbEntity
  8
0
  6
Continuous
 62
     7
370
    15
100
AcDbLine
 10
44.4979869463
 20
26.4976734907
 30
0.0
 11
44.5467360719
 21
26.4771313086
 31
0.0
  0
ARC
  5
21E
330
1F
100
AcDbEntity
  8
0
  6
Continuous
 62
     7
370
    15
100
AcDbCircle
 10
44.9000103568
 20
26.6647407621
 30
0.0
 40
0.4353553390593317
100
AcDbArc
 50
209.1500726668
 51
230.2584119848
  0
SPLINE
  5
21F
330
1F
100
AcDbEntity
  8
0
  6
Continuous
 62
     7
370
    15
100
AcDbSpline
210
0.0
220
0.0
230
1.0
 70
     8
 71
     3
 72
     9
 73
     5
 74
     0
 42
0.00000001
 43
0.00000001
 12
1.0
 22
0.0
 32
0.0
 13
1.0
 23
0.0
 33
0.0
 40
0.0
 40
0.0
 40
0.0
 40
0.0
 40
0.9186225569969371
 40
1.0
 40
1.0
 40
1.0
 40
1.0
 10
44.62167631657766
 20
26.32998047921485
 30
0.0
 10
44.63767082283688
 20
26.33133554178303
 30
0.0
 10
44.65508222443746
 20
26.33281064443302
 30
0.0
 10
44.67293509597911
 20
26.33432309185617
 30
0.0
 10
44.67438791701542
 20
26.33444617096013
 30
0.0
  0
LINE
  5
220
330
1F
100
AcDbEntity
  8
0
  6
Continuous
 62
     7
370
    15
100
AcDbLine
 10
44.5665056287
 20
26.4438911021
 30
0.0
 11
44.5197941438
 21
26.4526796207
 31
0.0
  0
LINE
  5
221
330
1F
100
AcDbEntity
  8
0
  6
Continuous
 62
     7
370
    15
100
AcDbLine
 10
45.0031917594
 20
27.0512036659
 30
0.0
 11
45.0439837813
 21
27.0756007783
 31
0.0
  0
ARC
  5
222
330
1F
100
AcDbEntity
  8
0
  6
Continuous
 62
     7
370
    15
100
AcDbCircle
 10
44.9000103568
 20
26.6647407621
 30
0.0
 40
0.4353553390593253
100
AcDbArc
 50
70.6885342052
 51
91.7968735233
  0
LINE
  5
223
330
1F
100
AcDbEntity
  8
0
  6
Continuous
 62
     7
370
    15
100
AcDbLine
 10
44.8863592589
 20
27.0998820342
 30
0.0
 11
44.8498653475
 21
27.0615851187
 31
0.0
  0
ARC
  5
224
330
1F
100
AcDbEntity
  8
0
  6
Continuous
 62
     7
370
    15
100
AcDbCircle
 10
44.9000103568
 20
26.6647407621
 30
0.0
 40
0.4353553390593338
100
AcDbArc
 50
126.0731495898
 51
147.1814889079
  0
SPLINE
  5
225
330
1F
100
AcDbEntity
  8
0
  6
Continuous
 62
     7
370
    15
100
AcDbSpline
210
0.0
220
0.0
230
1.0
 70
     8
 71
     3
 72
     9
 73
     5
 74
     0
 42
0.00000001
 43
0.00000001
 12
1.0
 22
0.0
 32
0.0
 13
1.0
 23
0.0
 33
0.0
 40
0.0
 40
0.0
 40
0.0
 40
0.0
 40
0.777401764261852
 40
1.0
 40
1.0
 40
1.0
 40
1.0
 10
44.53414140092181
 20
26.90069458041019
 30
0.0
 10
44.53690833688693
 20
26.88741015472971
 30
0.0
 10
44.54046754667049
 20
26.87032191761579
 30
0.0
 10
44.54411605933048
 20
26.85280486065563
 30
0.0
 10
44.54492821181165
 20
26.84890559468097
 30
0.0
  0
LINE
  5
226
330
1F
100
AcDbEntity
  8
0
  6
Continuous
 62
     7
370
    15
100
AcDbLine
 10
44.6405713149
 20
26.9691933558
 30
0.0
 11
44.6436654479
 21
27.0166236587
 31
0.0
  0
ARC
  5
227
330
1F
100
AcDbEntity
  8
0
  6
Continuous
 62
     7
370
    15
100
AcDbCircle
 10
44.9000103568
 20
26.6647407621
 30
0.0
 40
0.4353553390593269
100
AcDbArc
 50
98.3808418975
 51
119.4891812156
  0
LINE
  5
228
330
1F
100
AcDbEntity
  8
0
  6
Continuous
 62
     7
370
    15
100
AcDbLine
 10
44.8117746791
 20
27.0548875124
 30
0.0
 11
44.8365563404
 21
27.095446983
 31
0.0
  0
LINE
  5
229
330
1F
100
AcDbEntity
  8
0
  6
Continuous
 62
     7
370
    15
100
AcDbLine
 10
44.6857026714
 20
27.0436952502
 30
0.0
 11
44.671186356
 21
26.9928254798
 31
0.0
  0
ARC
  5
22A
330
1F
100
AcDbEntity
  8
0
  6
Continuous
 62
     7
370
    15
100
AcDbCircle
 10
44.9000103568
 20
26.6647407621
 30
0.0
 40
0.435355339059332
100
AcDbArc
 50
236.8423803591
 51
257.9507196771
  0
LINE
  5
22B
330
1F
100
AcDbEntity
  8
0
  6
Continuous
 62
     7
370
    15
100
AcDbLine
 10
44.7073405777
 20
26.3142007083
 30
0.0
 11
44.6618952957
 21
26.3002746418
 31
0.0
  0
LINE
  5
22C
330
1F
100
AcDbEntity
  8
0
  6
Continuous
 62
     7
370
    15
100
AcDbLine
 10
44.8091286578
 20
26.2389770389
 30
0.0
 11
44.8537271638
 21
26.2674274534
 31
0.0
  0
LINE
  5
22D
330
1F
100
AcDbEntity
  8
0
  6
Continuous
 62
     7
370
    15
100
AcDbLine
 10
44.9875103653
 20
26.8162951485
 30
0.0
 11
44.8125103483
 21
26.8162951485
 31
0.0
  0
LINE
  5
22E
330
1F
100
AcDbEntity
  8
0
  6
Continuous
 62
     7
370
    15
100
AcDbLine
 10
44.9875103653
 20
26.5131863445
 30
0.0
 11
45.0750103622
 21
26.6647408396
 31
0.0
  0
LINE
  5
22F
330
1F
100
AcDbEntity
  8
0
  6
Continuous
 62
     7
370
    15
100
AcDbLine
 10
44.7250103514
 20
26.6647408396
 30
0.0
 11
44.8125103483
 21
26.5131863445
 31
0.0
  0
LINE
  5
230
330
1F
100
AcDbEntity
  8
0
  6
Continuous
 62
     7
370
    15
100
AcDbLine
 10
45.0750103622
 20
26.6647408396
 30
0.0
 11
44.9875103653
 21
26.8162951485
 31
0.0
  0
CIRCLE
  5
231
330
1F
100
AcDbEntity
  8
0
  6
Continuous
 62
     7
370
    15
100
AcDbCircle
 10
44.9000103568
 20
26.6647407621
 30
0.0
 40
0.3839999999999932
  0
LINE
  5
232
330
1F
100
AcDbEntity
  8
0
  6
Continuous
 62
     7
370
    15
100
AcDbLine
 10
44.8125103483
 20
26.8162951485
 30
0.0
 11
44.7250103514
 21
26.6647408396
 31
0.0
  0
LINE
  5
233
330
1F
100
AcDbEntity
  8
0
  6
Continuous
 62
     7
370
    15
100
AcDbLine
 10
44.8125103483
 20
26.5131863445
 30
0.0
 11
44.9875103653
 21
26.5131863445
 31
0.0
  0
LINE
  5
234
330
1F
100
AcDbEntity
  8
0
  6
Continuous
 62
     7
370
    15
100
AcDbLine
 10
51.7000107263
 20
26.0647407413
 30
0.0
 11
38.1000099872
 21
26.0647407413
 31
0.0
  0
LINE
  5
235
330
1F
100
AcDbEntity
  8
0
  6
Continuous
 62
     7
370
    15
100
AcDbLine
 10
51.4895064925
 20
25.2647406102
 30
0.0
 11
38.3105142211
 21
25.2647406102
 31
0.0
  0
LINE
  5
236
330
1F
100
AcDbEntity
  8
0
  6
Continuous
 62
     7
370
    15
100
AcDbLine
 10
38.9000104909
 20
28.4647407621
 30
0.0
 11
50.9000102227
 21
28.4647407621
 31
0.0
  0
SPLINE
  5
237
330
1F
100
AcDbEntity
  8
0
  6
Continuous
 62
     7
370
    15
100
AcDbSpline
210
0.0
220
0.0
230
1.0
 70
    11
 71
     3
 72
    26
 73
    22
 74
     0
 42
0.00000001
 43
0.00000001
 12
1.0
 22
0.0
 32
0.0
 13
1.0
 23
0.0
 33
0.0
 40
0.0
 40
0.0
 40
0.0
 40
0.0
 40
0.0465210358960035
 40
0.1018058452345567
 40
0.1580727182795622
 40
0.2144579368345913
 40
0.2698063058770919
 40
0.3231707564668537
 40
0.3745427057059009
 40
0.4250499707736173
 40
0.4762417718263333
 40
0.529212651978324
 40
0.5841386525647516
 40
0.6403448092986864
 40
0.6967594569961566
 40
0.752311262877684
 40
0.806167605093624
 40
0.8581405754178424
 40
0.9089758081697816
 40
0.9599843852909918
 40
1.0
 40
1.0
 40
1.0
 40
1.0
 10
44.53335098745274
 20
26.92728225666708
 30
0.0
 10
44.51121156204331
 20
26.88838315395211
 30
0.0
 10
44.46276201930628
 20
26.80325701790441
 30
0.0
 10
44.44162293553738
 20
26.64955286013693
 30
0.0
 10
44.47017528832203
 20
26.48910689964792
 30
0.0
 10
44.55133322070921
 20
26.34682365920201
 30
0.0
 10
44.67371047663558
 20
26.24241503722162
 30
0.0
 10
44.82017190743183
 20
26.18815718361048
 30
0.0
 10
44.97155500150148
 20
26.18720777168153
 30
0.0
 10
45.11240060427932
 20
26.23587275797925
 30
0.0
 10
45.23095329244624
 20
26.32831768001611
 30
0.0
 10
45.31612313418704
 20
26.45733424845338
 30
0.0
 10
45.35680260566306
 20
26.61170243538886
 30
0.0
 10
45.34493324164409
 20
26.77447626501155
 30
0.0
 10
45.27959124014566
 20
26.92482938729696
 30
0.0
 10
45.16881007346074
 20
27.04267010228014
 30
0.0
 10
45.02822371301615
 20
27.11345714595242
 30
0.0
 10
44.87632516599841
 20
27.13141885477767
 30
0.0
 10
44.73077764047504
 20
27.09764926194708
 30
0.0
 10
44.61187409956185
 20
27.02565069498845
 30
0.0
 10
44.55732958359764
 20
26.95732101840943
 30
0.0
 10
44.53335098745274
 20
26.92728225666708
 30
0.0
  0
ARC
  5
238
330
1F
100
AcDbEntity
  8
0
  6
Continuous
 62
     7
370
    15
100
AcDbCircle
 10
44.9000038226
 20
22.3630318199
 30
0.0
 40
0.82935041950622
100
AcDbArc
 50
58.3110451623
 51
121.6711660303
  0
LWPOLYLINE
  5
239
330
1F
100
AcDbEntity
  8
0
  6
Continuous
 62
     7
370
    15
100
AcDbPolyline
 90
       13
 70
   128
 43
0.0
 10
44.4645618723
 20
23.0688704789
 10
44.4699277339
 20
23.3466813952
 10
44.4491995201
 20
23.6229098082
 10
44.4027775601
 20
23.8922218472
 10
44.3315582518
 20
24.1494166345
 10
44.2369168793
 20
24.389528358
 10
44.1206809768
 20
24.6079197765
 10
43.9850951714
 20
24.8003738612
 10
43.8327776437
 20
24.9631742627
 10
43.6666697432
 20
25.0931768358
 10
43.4899791312
 20
25.1878718526
 10
43.306117708
 20
25.2454301954
 10
43.1186357682
 20
25.2647406102
  0
LWPOLYLINE
  5
23A
330
1F
100
AcDbEntity
  8
0
  6
Continuous
 62
     7
370
    15
100
AcDbPolyline
 90
       13
 70
   128
 43
0.0
 10
46.6824140568
 20
25.2647406102
 10
46.4948089962
 20
25.2454287052
 10
46.3108269666
 20
25.1878655196
 10
46.1340210569
 20
25.0931634248
 10
45.9678056818
 20
24.9631504208
 10
45.815390831
 20
24.8003377259
 10
45.6797199492
 20
24.6078694851
 10
45.5634130799
 20
24.3894631654
 10
45.4687163868
 20
24.1493357957
 10
45.3974586149
 20
23.8921253622
 10
45.3510158864
 20
23.6227987945
 10
45.3302851115
 20
23.346557343
 10
45.3356667125
 20
23.0687356234
  0
SPLINE
  5
23B
330
1F
100
AcDbEntity
  8
0
  6
Continuous
 62
     7
370
    15
100
AcDbSpline
210
0.0
220
0.0
230
1.0
 70
     8
 71
     3
 72
    13
 73
     9
 74
     0
 42
0.00000001
 43
0.00000001
 12
1.0
 22
0.0
 32
0.0
 13
1.0
 23
0.0
 33
0.0
 40
0.0
 40
0.0
 40
0.0
 40
0.0
 40
0.1109807771552354
 40
0.2959975243464864
 40
0.4657155927702987
 40
0.632897487087075
 40
0.8104195706462736
 40
1.0
 40
1.0
 40
1.0
 40
1.0
 10
44.98651237166459
 20
23.746391633187
 30
0.0
 10
44.97780406702415
 20
23.7525500005252
 30
0.0
 10
44.95457809329338
 20
23.76897502054081
 30
0.0
 10
44.90784305572718
 20
23.77705310377186
 30
0.0
 10
44.85636084704304
 20
23.77145888326224
 30
0.0
 10
44.81059071523381
 20
23.75031459845211
 30
0.0
 10
44.77165406450118
 20
23.71619446288764
 30
0.0
 10
44.75690624959204
 20
23.68446658705072
 30
0.0
 10
44.74929012879701
 20
23.66808156076497
 30
0.0
  0
LWPOLYLINE
  5
23C
330
1F
100
AcDbEntity
  8
0
  6
Continuous
 62
     7
370
    15
100
AcDbPolyline
 90
        3
 70
   128
 43
0.0
 10
44.4645588455
 20
23.0688715965
 10
44.3456826434
 20
22.9561029613
 10
44.3000103516
 20
22.8147408605
  0
LWPOLYLINE
  5
23D
330
1F
100
AcDbEntity
  8
0
  6
Continuous
 62
     7
370
    15
100
AcDbPolyline
 90
        3
 70
   128
 43
0.0
 10
45.500010362
 20
22.8147408605
 10
45.4543380701
 20
22.9561029613
 10
45.3356679232
 20
23.0687363685
  0
LINE
  5
23E
330
1F
100
AcDbEntity
  8
0
  6
Continuous
 62
     8
370
    15
100
AcDbLine
 10
38.1105443631
 20
25.4612502322
 30
0.0
 11
51.6894763504
 21
25.4612502322
 31
0.0
  0
SPLINE
  5
23F
330
1F
100
AcDbEntity
  8
0
  6
Continuous
 62
     8
370
    15
100
AcDbSpline
210
0.0
220
0.0
230
1.0
 70
     8
 71
     3
 72
    11
 73
     7
 74
     0
 42
0.00000001
 43
0.00000001
 12
1.0
 22
0.0
 32
0.0
 13
1.0
 23
0.0
 33
0.0
 40
0.0
 40
0.0
 40
0.0
 40
0.0
 40
0.0087087056193506
 40
0.4009616618080316
 40
0.8177780279608233
 40
1.0
 40
1.0
 40
1.0
 40
1.0
 10
44.464561825711
 20
23.0688701063735
 30
0.0
 10
44.46203694304467
 20
23.07167357510428
 30
0.0
 10
44.34578761805747
 20
23.20074941372557
 30
0.0
 10
44.14258101298977
 20
23.45995876431089
 30
0.0
 10
43.95722444170803
 20
23.75440846189499
 30
0.0
 10
43.89504938104574
 20
23.91493812154063
 30
0.0
 10
43.87613629745292
 20
23.96376977268285
 30
0.0
  0
LWPOLYLINE
  5
240
330
1F
100
AcDbEntity
  8
0
  6
Continuous
 62
     8
370
    15
100
AcDbPolyline
 90
        7
 70
   128
 43
0.0
 10
45.9211055358
 20
23.9618691296
 10
45.864426734
 20
23.8202816487
 10
45.6552514044
 20
23.4707667172
 10
45.50849811
 20
23.273474598
 10
45.3356699721
 20
23.0687389762
 10
45.3356667125
 20
23.0687356234
 10
45.3356667125
 20
23.0687356234
  0
ENDSEC
  0
SECTION
  2
OBJECTS
  0
DICTIONARY
  5
C
330
0
100
AcDbDictionary
281
     1
  3
ACAD_GROUP
350
D
  3
ACAD_LAYOUT
350
1A
  3
ACAD_MLINESTYLE
350
17
  3
ACAD_PLOTSETTINGS
350
19
  3
ACAD_PLOTSTYLENAME
350
E
  0
DICTIONARY
  5
D
102
{ACAD_REACTORS
330
C
102
}
330
C
100
AcDbDictionary
281
     1
  0
DICTIONARY
  5
1A
102
{ACAD_REACTORS
330
C
102
}
330
C
100
AcDbDictionary
281
     1
  3
Layout1
350
1E
  3
Layout2
350
26
  3
Model
350
22
  0
DICTIONARY
  5
17
102
{ACAD_REACTORS
330
C
102
}
330
C
100
AcDbDictionary
281
     1
  3
Standard
350
18
  0
DICTIONARY
  5
19
102
{ACAD_REACTORS
330
C
102
}
330
C
100
AcDbDictionary
281
     1
  0
ACDBDICTIONARYWDFLT
  5
E
102
{ACAD_REACTORS
330
C
102
}
330
C
100
AcDbDictionary
281
     1
  3
Normal
350
F
100
AcDbDictionaryWithDefault
340
F
  0
LAYOUT
  5
1E
102
{ACAD_REACTORS
330
1A
102
}
330
1A
100
AcDbPlotSettings
  1

  2
none_device
  4

  6

 40
0.0
 41
0.0
 42
0.0
 43
0.0
 44
0.0
 45
0.0
 46
0.0
 47
0.0
 48
0.0
 49
0.0
140
0.0
141
0.0
142
1.0
143
1.0
 70
   688
 72
     0
 73
     0
 74
     5
  7

 75
    16
147
1.0
148
0.0
149
0.0
100
AcDbLayout
  1
Layout1
 70
     1
 71
     1
 10
0.0
 20
0.0
 11
420.0
 21
297.0
 12
0.0
 22
0.0
 32
0.0
 14
1.0000000000E+20
 24
1.0000000000E+20
 34
1.0000000000E+20
 15
-1.0000000000E+20
 25
-1.0000000000E+20
 35
-1.0000000000E+20
146
0.0
 13
0.0
 23
0.0
 33
0.0
 16
1.0
 26
0.0
 36
0.0
 17
0.0
 27
1.0
 37
0.0
 76
     0
330
1B
  0
LAYOUT
  5
26
102
{ACAD_REACTORS
330
1A
102
}
330
1A
100
AcDbPlotSettings
  1

  2
none_device
  4

  6

 40
0.0
 41
0.0
 42
0.0
 43
0.0
 44
0.0
 45
0.0
 46
0.0
 47
0.0
 48
0.0
 49
0.0
140
0.0
141
0.0
142
1.0
143
1.0
 70
   688
 72
     0
 73
     0
 74
     5
  7

 75
    16
147
1.0
148
0.0
149
0.0
100
AcDbLayout
  1
Layout2
 70
     1
 71
     2
 10
0.0
 20
0.0
 11
0.0
 21
0.0
 12
0.0
 22
0.0
 32
0.0
 14
0.0
 24
0.0
 34
0.0
 15
0.0
 25
0.0
 35
0.0
146
0.0
 13
0.0
 23
0.0
 33
0.0
 16
1.0
 26
0.0
 36
0.0
 17
0.0
 27
1.0
 37
0.0
 76
     0
330
23
  0
LAYOUT
  5
22
102
{ACAD_REACTORS
330
1A
102
}
330
1A
100
AcDbPlotSettings
  1

  2
none_device
  4

  6

 40
0.0
 41
0.0
 42
0.0
 43
0.0
 44
0.0
 45
0.0
 46
0.0
 47
0.0
 48
0.0
 49
0.0
140
0.0
141
0.0
142
1.0
143
1.0
 70
  1712
 72
     0
 73
     0
 74
     0
  7

 75
     0
147
1.0
148
0.0
149
0.0
100
AcDbLayout
  1
Model
 70
     1
 71
     0
 10
0.0
 20
0.0
 11
118.9
 21
84.1
 12
0.0
 22
0.0
 32
0.0
 14
0.0
 24
0.0
 34
0.0
 15
118.9
 25
84.1
 35
0.0
146
0.0
 13
0.0
 23
0.0
 33
0.0
 16
1.0
 26
0.0
 36
0.0
 17
0.0
 27
1.0
 37
0.0
 76
     0
330
1F
331
29
  0
MLINESTYLE
  5
18
102
{ACAD_REACTORS
330
17
102
}
330
17
100
AcDbMlineStyle
  2
Standard
 70
     0
  3

 62
   256
 51
90.0
 52
90.0
 71
     2
 49
0.5
 62
   256
  6
BYLAYER
 49
-0.5
 62
   256
  6
BYLAYER
  0
ACDBPLACEHOLDER
  5
F
102
{ACAD_REACTORS
330
E
102
}
330
E
  0
ENDSEC
  0
EOF
